#VERSION:0.83;
#TITLE:Songs of Salt and Suffering;
#SUBTITLE:The Lochs;
#ARTIST:Masayoshi Soken;
#TITLETRANSLIT:;
#SUBTITLETRANSLIT:;
#ARTISTTRANSLIT:;
#GENRE:Stormblood;
#ORIGIN:;
#CREDIT:[Ness];
#BANNER:Final Fantasy XIV - Songs of Salt and Suffering.png;
#BACKGROUND:Final Fantasy XIV - Songs of Salt and Suffering-bg.png;
#PREVIEWVID:;
#JACKET:Final Fantasy XIV - Songs of Salt and Suffering-jacket.png;
#CDIMAGE:;
#DISCIMAGE:;
#LYRICSPATH:;
#CDTITLE:;
#MUSIC:Final Fantasy XIV - Songs of Salt and Suffering.mp3;
#OFFSET:-2.511001;
#SAMPLESTART:84.140877;
#SAMPLELENGTH:17.319588;
#SELECTABLE:YES;
#BPMS:0.000=97.000;
#STOPS:;
#DELAYS:;
#WARPS:;
#TIMESIGNATURES:0.000=4=4;
#TICKCOUNTS:0.000=2;
#COMBOS:0.000=1;
#SPEEDS:0.000=1.000=0.000=0;
#SCROLLS:0.000=1.000;
#FAKES:;
#LABELS:0.000=Song Start;
#LASTSECONDHINT:118.840042;
#BGCHANGES:;
#KEYSOUNDS:;
#ATTACKS:
;

//---------------dance-single - ----------------
#NOTEDATA:;
#CHARTNAME:[Ness];
#STEPSTYPE:dance-single;
#DESCRIPTION:[Ness];
#CHARTSTYLE:;
#DIFFICULTY:Hard;
#METER:7;
#RADARVALUES:0.282778,0.315903,0.137349,0.258540,0.214103,245.000000,228.000000,17.000000,32.000000,0.000000,0.000000,0.000000,0.000000,0.000000,0.282778,0.315903,0.137349,0.258540,0.214103,245.000000,228.000000,17.000000,32.000000,0.000000,0.000000,0.000000,0.000000,0.000000;
#CREDIT:[Ness];
#NOTES:
0000
0000
0000
0000
,
0000
0000
0000
0000
,
0000
0000
0000
0000
,
0000
0000
0000
0000
,
0002
0000
1003
0000
0100
0010
0100
0000
,
1000
0100
1000
0000
0001
1000
0100
0000
,
0020
0000
0031
0000
1000
0010
1000
0000
,
0001
0100
0001
0000
1000
0010
0100
0000
,
0120
0130
2010
3001
,
2010
3010
0012
0103
,
2001
0000
0100
0000
0010
0001
3010
0000
,
0001
0100
1000
0000
1000
0100
0001
0000
,
2100
3100
0012
1003
,
0012
0013
2100
3010
,
0201
0000
0001
0000
0010
0001
0310
0000
,
1000
0010
0001
0000
0001
0010
1000
0000
,
0002
0000
0013
0000
0001
0100
0010
0100
,
0002
0000
0000
0000
1000
0000
0100
0000
0103
0000
0000
0010
0000
0000
1001
0000
,
0200
0000
0010
0000
0301
0100
1000
0010
,
0002
0000
0000
0000
1000
0000
0100
0000
0103
0000
0010
0000
0000
1000
0001
0000
,
2000
0000
0100
0000
3001
0100
0010
0001
,
0200
0000
0000
0000
0310
0000
0100
0000
1000
0000
0000
0001
0000
0000
1000
0000
,
0200
0000
0001
0000
1000
0000
0310
0001
,
0200
0000
0000
0000
0310
0000
1000
0010
2000
0000
0000
0000
3001
0000
0000
0000
,
0200
0000
0300
0000
,
1001
0000
0000
0000
0001
0000
0000
0100
0001
0000
0000
0000
1000
0000
0000
0001
,
1000
0000
0000
0010
1000
0000
0000
0000
0001
0000
0000
0010
0100
0000
0000
1000
,
0010
0000
0000
0100
0001
0000
0000
0000
1000
0000
0000
0001
0100
0000
0000
0010
,
2000
0200
3300
1001
,
0010
0000
0000
0000
0001
0000
0000
0001
1000
0000
0000
0000
0010
0000
0000
0010
,
0100
0000
0000
0100
0001
0000
0000
0000
1000
0000
0000
1000
0010
0000
0000
0100
,
0001
0000
0000
1000
0001
0000
0000
0000
0010
0000
0000
0100
1000
0000
0000
0010
,
0200
0002
0303
1001
,
0010
0000
0000
0000
1001
0000
0000
1000
0001
0000
0000
0000
1001
0000
0000
0001
,
1000
0000
0000
0010
1000
0000
0000
0000
0001
0000
0000
1000
0001
0000
0000
0010
,
0001
0000
0000
1000
0001
0000
0000
0000
1000
0000
0000
0001
0100
0000
0000
0010
,
2000
0002
3003
1001
,
1000
0000
0010
0000
1000
0000
0010
0000
0001
0000
0010
0000
,
1000
0000
0100
0000
0010
0000
0001
0000
1000
0000
0100
0000
,
1000
0000
0010
0000
0100
0000
0010
0000
0001
0000
0010
0000
,
1000
0000
0001
0000
0100
0000
0010
0000
1000
0000
0001
0000
,
0010
0000
0001
0000
0100
0000
0010
0000
1000
0000
0010
0000
,
0100
0000
0001
0000
1000
0000
0100
0000
0010
0000
0100
0000
,
2000
0000
0000
0000
3000
0100
1000
0001
,
0002
0000
0000
0000
0003
0000
1000
0001
0020
0000
0000
0000
0030
0000
0000
0000
,
0100
1000
0001
1000
0020
0000
0000
0000
,
0130
0000
0000
0000
;

//---------------dance-single - ----------------
#NOTEDATA:;
#CHARTNAME:[Ness];
#STEPSTYPE:dance-single;
#DESCRIPTION:[Ness];
#CHARTSTYLE:;
#DIFFICULTY:Challenge;
#METER:9;
#RADARVALUES:0.387810,0.464564,0.274699,0.193905,0.270659,336.000000,302.000000,34.000000,24.000000,0.000000,0.000000,0.000000,0.000000,0.000000,0.387810,0.464564,0.274699,0.193905,0.270659,336.000000,302.000000,34.000000,24.000000,0.000000,0.000000,0.000000,0.000000,0.000000;
#CREDIT:[Ness];
#NOTES:
0000
0000
0000
0000
,
0000
0000
0000
0000
,
0000
0000
0000
0000
,
0000
0000
0000
0000
,
0001
0000
1000
0000
0010
0000
1000
0100
1000
0100
1000
0000
0010
0000
0100
0001
,
0100
0001
0100
0000
0010
0000
1000
0001
1000
0001
1000
0000
0100
0000
0010
0000
,
0001
0000
0100
0000
0001
0000
0010
0001
0010
0001
0010
0000
0100
0000
1000
0100
,
1000
0100
1000
0000
0001
0000
0100
0001
0100
0001
0100
0000
0010
0000
1000
0000
,
1100
0000
0100
0000
0011
0000
0010
0000
0001
0100
0001
0000
1000
0100
1000
0000
,
0101
0000
0100
0000
1010
0000
0010
0000
1000
0001
1000
0000
0001
0010
0001
0000
,
0010
0000
0100
0000
0110
0000
1000
0000
0001
0100
0001
0000
1000
0000
0010
0000
,
1000
0100
1000
0000
0001
0000
0010
0000
0100
1000
0001
0000
0010
0000
0100
0000
,
0011
0000
0010
0000
1100
0000
0100
0000
1000
0010
0100
0000
0001
0010
0100
0000
,
1010
0000
0010
0000
0101
0000
0100
0000
0001
1000
0001
0000
1000
0100
1000
0000
,
0100
0000
0010
0000
0110
0000
0001
0000
1000
0010
1000
0000
0001
0000
0100
0000
,
0001
0010
0001
0000
1000
0000
0100
0000
0010
0001
1000
0000
0100
0000
0010
0000
,
0102
0000
0010
0000
1003
0100
0010
0001
,
2000
0000
0000
0000
3001
0000
0100
0000
0101
0000
0001
0100
0000
0001
0100
0000
,
0201
0000
0310
0000
1000
0010
0001
0010
,
2000
0000
0000
0000
0001
0000
3100
0000
1100
0000
0110
0000
0000
0001
0100
0000
,
0101
0000
0000
0101
0020
0000
0000
0000
1030
0000
0100
0000
0010
0000
0100
0000
,
2000
0000
0010
0100
3200
0000
0001
1000
,
0002
0000
0000
0000
0300
0000
0010
1000
,
0020
0003
2000
0030
,
0002
0000
3003
0000
,
1001
0000
0000
0000
1001
0000
0000
0010
1100
0000
0000
0000
1001
0000
0000
0010
,
0100
0000
0000
0010
1001
0000
0000
0000
0001
0000
0000
0100
1000
0000
0000
0010
,
0001
0000
0000
0100
1001
0000
0000
0000
0001
0000
0000
0100
1001
0000
0000
0010
,
1000
2200
3300
1001
,
0010
0000
0000
0000
1010
0000
0000
0001
0010
0000
0000
0000
1010
0000
0000
0001
,
0010
0000
0000
1000
0010
0000
0000
0000
0110
0000
0000
0001
0010
0000
0000
1000
,
0010
0000
0000
0001
0110
0000
0000
0000
0001
0000
0000
0100
1000
0000
0000
0010
,
0001
0202
0303
1001
,
2000
0000
0000
0000
0010
0000
0000
0001
0010
0000
3000
0000
0002
0000
0000
0100
,
1000
0000
0000
0100
1000
0000
0003
0000
2000
0000
0000
0100
0001
0000
0000
0010
,
0001
0000
0000
0100
0001
0000
3000
0000
0100
0000
0000
1000
0010
0000
0000
0001
,
0100
2002
3003
0110
,
1000
0000
0000
0010
0100
0000
0001
0000
0010
0000
0000
0100
1000
0000
0001
0000
,
0100
0000
0000
1000
0100
0000
0001
0000
0010
0000
0000
0100
1000
0000
0010
0000
,
0100
0000
0000
0001
0010
0000
0100
0000
1000
0000
0000
0010
1000
0000
0100
0000
,
0010
0000
0000
0001
1000
0000
0001
0000
0100
0000
0000
0010
1000
0000
0100
0000
,
0010
0000
0000
0001
0100
0000
1000
0000
0010
0000
0000
0100
0010
0000
1000
0000
,
0001
0000
0000
0010
0100
0000
0010
0000
0001
0000
0000
1000
0100
0000
0020
0000
,
0100
0000
0100
0000
0130
1000
0100
0001
,
0020
0000
0000
0000
0130
0000
1000
0100
0020
0000
0000
0000
0000
0000
0000
0000
,
0130
0001
0010
1000
0200
0000
0000
0000
,
0310
0000
0000
0000
;

//---------------dance-single - ----------------
#NOTEDATA:;
#CHARTNAME:[Ness];
#STEPSTYPE:dance-single;
#DESCRIPTION:[Ness];
#CHARTSTYLE:;
#DIFFICULTY:Medium;
#METER:5;
#RADARVALUES:0.211218,0.260156,0.096952,0.177746,0.072714,183.000000,171.000000,12.000000,22.000000,0.000000,0.000000,0.000000,0.000000,0.000000,0.211218,0.260156,0.096952,0.177746,0.072714,183.000000,171.000000,12.000000,22.000000,0.000000,0.000000,0.000000,0.000000,0.000000;
#CREDIT:[Ness];
#NOTES:
// measure 0
0000
0000
0000
0000
,  // measure 1
0000
0000
0000
0000
,  // measure 2
0000
0000
0000
0000
,  // measure 3
0000
0000
0000
0000
,  // measure 4
1000
0000
0100
0000
0001
1000
0100
0000
,  // measure 5
0001
0000
0010
0000
1000
0001
0100
0000
,  // measure 6
0010
1000
0010
0000
0010
0100
0010
0000
,  // measure 7
0010
1000
0010
0000
0010
0100
0010
0000
,  // measure 8
2000
0000
0001
3010
,  // measure 9
0002
0000
1000
0100
,  // measure 10
0020
0000
0000
0000
,  // measure 11
0033
0000
0000
0000
0100
1000
0001
0000
,  // measure 12
2000
0000
0010
3001
,  // measure 13
0020
0000
0100
1000
,  // measure 14
0200
0000
0000
0000
,  // measure 15
0330
0000
0000
0000
0001
1000
0100
0000
,  // measure 16
0001
0000
0010
0000
0100
1000
0010
1000
,  // measure 17
0200
0300
0010
0001
,  // measure 18
1000
0000
0001
0000
0100
0010
1000
0001
,  // measure 19
0020
0030
0100
1000
,  // measure 20
0001
0000
0010
0000
0001
0100
0010
1000
,  // measure 21
0200
0300
0020
0030
,  // measure 22
0002
0000
0000
0000
0000
0000
1003
0001
,  // measure 23
2000
0000
3020
0000
,  // measure 24
0130
0000
0000
0000
,  // measure 25
1001
0000
0000
0000
0001
0000
0000
0100
0001
0000
0000
0000
0100
0000
0000
0001
,  // measure 26
0100
0000
0000
0001
0100
0000
0000
0000
0010
0000
0000
0000
1001
0000
0000
0000
,  // measure 27
0010
0000
0000
1000
0010
0000
0000
0000
0100
0000
0000
0001
0100
0000
0000
0001
,  // measure 28
0200
0020
0330
1001
,  // measure 29
0010
0000
0000
0000
0001
0000
0000
1000
0001
0000
0000
0000
1000
0000
0000
0001
,  // measure 30
1000
0000
0000
0001
1000
0000
0000
0000
0100
0000
0000
0000
1001
0000
0000
0000
,  // measure 31
0010
0000
0000
1000
0001
0000
0000
0000
0010
0000
0000
0100
0010
0000
0000
0100
,  // measure 32
0020
0002
0033
1001
,  // measure 33
0010
0000
0000
0000
0100
0000
0000
1000
0001
0000
0000
0000
0100
0000
0000
0001
,  // measure 34
1000
0000
0000
0001
1000
0000
0000
0000
0100
0000
0000
0000
1001
0000
0000
0000
,  // measure 35
0010
0000
0000
1000
0001
0000
0000
0000
0010
0000
0000
0001
1000
0000
0000
0001
,  // measure 36
2000
0200
3300
1001
,  // measure 37
0001
0010
0001
0101
,  // measure 38
0100
1000
0100
0110
,  // measure 39
0010
1000
0010
1001
,  // measure 40
0010
1000
0100
1001
,  // measure 41
0100
0000
0100
0010
0001
0000
0001
1000
,  // measure 42
0010
0000
0010
0100
0001
0000
0001
1000
,  // measure 43
0020
0000
0000
0000
0000
0000
1030
0001
,  // measure 44
2000
0000
0200
3300
,  // measure 45
0000
0000
0000
0000
,  // measure 46
0110
0000
0000
0000
;

//---------------dance-single - ----------------
#NOTEDATA:;
#CHARTNAME:[Ness];
#STEPSTYPE:dance-single;
#DESCRIPTION:[Ness];
#CHARTSTYLE:;
#DIFFICULTY:Easy;
#METER:3;
#RADARVALUES:0.150045,0.185826,0.008079,0.137349,0.000000,130.000000,129.000000,1.000000,17.000000,0.000000,0.000000,0.000000,0.000000,0.000000,0.150045,0.185826,0.008079,0.137349,0.000000,130.000000,129.000000,1.000000,17.000000,0.000000,0.000000,0.000000,0.000000,0.000000;
#CREDIT:[Ness];
#NOTES:
// measure 0
0000
0000
0000
0000
,  // measure 1
0000
0000
0000
0000
,  // measure 2
0000
0000
0000
0000
,  // measure 3
0000
0000
0000
0000
,  // measure 4
1000
0100
1000
0100
,  // measure 5
0001
0100
1000
0100
,  // measure 6
1000
0001
1000
0001
,  // measure 7
1000
0001
1000
0001
,  // measure 8
0200
0000
0310
1000
,  // measure 9
0020
0000
1030
0001
,  // measure 10
2000
0000
0100
0000
,  // measure 11
0001
0000
3100
0000
,  // measure 12
0002
0000
0013
0100
,  // measure 13
0020
0000
0031
0100
,  // measure 14
0002
0000
1000
0000
,  // measure 15
0100
0000
1003
0000
,  // measure 16
0000
0010
1000
0001
,  // measure 17
0020
0000
0130
0000
,  // measure 18
0000
0100
1000
0001
,  // measure 19
0200
0000
0310
0000
,  // measure 20
0000
1000
0010
1000
,  // measure 21
0002
0000
0103
0000
,  // measure 22
2000
0000
0000
3010
,  // measure 23
0200
0000
0310
0000
,  // measure 24
0000
0000
0000
0000
,  // measure 25
1000
1000
0100
0001
,  // measure 26
0001
0100
1000
1000
,  // measure 27
0010
0010
0001
0010
,  // measure 28
1000
0200
0000
1300
,  // measure 29
0010
0001
0001
0010
,  // measure 30
1000
1000
0001
0010
,  // measure 31
1000
1000
0001
1000
,  // measure 32
0001
0200
0000
0310
,  // measure 33
1000
0100
0010
0010
,  // measure 34
0001
1000
1000
0001
,  // measure 35
0100
1000
1000
0100
,  // measure 36
0001
0200
0300
1001
,  // measure 37
0010
1000
0010
0010
,  // measure 38
1000
1000
0010
0010
,  // measure 39
0100
0001
0100
0100
,  // measure 40
0001
0001
0100
0100
,  // measure 41
0001
0010
0001
0001
,  // measure 42
0010
0010
0100
0100
,  // measure 43
2000
0000
0000
3100
,  // measure 44
0002
0000
2003
0000
,  // measure 45
3000
0000
0000
0000
,  // measure 46
0001
0000
0000
0000
;

//---------------dance-single - ----------------
#NOTEDATA:;
#CHARTNAME:[Ness];
#STEPSTYPE:dance-single;
#DESCRIPTION:[Ness];
#CHARTSTYLE:;
#DIFFICULTY:Beginner;
#METER:1;
#RADARVALUES:0.092336,0.130078,0.032317,0.040397,0.000000,80.000000,76.000000,4.000000,5.000000,0.000000,0.000000,0.000000,0.000000,0.000000,0.092336,0.130078,0.032317,0.040397,0.000000,80.000000,76.000000,4.000000,5.000000,0.000000,0.000000,0.000000,0.000000,0.000000;
#CREDIT:[Ness];
#NOTES:
// measure 0
0000
0000
0000
0000
,  // measure 1
0000
0000
0000
0000
,  // measure 2
0000
0000
0000
0000
,  // measure 3
0000
0000
0000
0000
,  // measure 4
1000
0000
0100
0000
,  // measure 5
0001
0000
0100
0000
,  // measure 6
1000
0000
0010
0000
,  // measure 7
0100
0000
0001
0000
,  // measure 8
1000
0000
0010
0010
,  // measure 9
0010
0000
0100
0100
,  // measure 10
0200
0000
0000
0000
,  // measure 11
0300
0000
0000
0000
,  // measure 12
0001
0000
0010
0010
,  // measure 13
0010
0000
0100
0100
,  // measure 14
0200
0000
0000
0000
,  // measure 15
0300
0000
0000
0000
,  // measure 16
1001
0000
0000
0000
,  // measure 17
0000
0000
0000
0000
,  // measure 18
1001
0000
0000
0000
,  // measure 19
0000
0000
0000
0000
,  // measure 20
1001
0000
0000
0000
,  // measure 21
0000
0000
0000
0000
,  // measure 22
1001
0000
0000
0000
,  // measure 23
0010
0000
0100
0000
,  // measure 24
0000
0000
0000
0000
,  // measure 25
1000
0000
1000
0000
,  // measure 26
1000
1000
0000
1000
,  // measure 27
1000
0000
0100
0000
,  // measure 28
0001
0002
0003
0010
,  // measure 29
0010
0000
0010
0000
,  // measure 30
0100
0100
0000
0010
,  // measure 31
0010
0000
0001
0000
,  // measure 32
0100
0200
0300
0010
,  // measure 33
0010
0000
1000
0000
,  // measure 34
0001
0001
0000
0010
,  // measure 35
0010
0000
0100
0100
,  // measure 36
0100
0200
0300
0100
,  // measure 37
0100
0000
0010
0000
,  // measure 38
0001
0000
1000
0000
,  // measure 39
0010
0000
0001
0000
,  // measure 40
0010
0000
1000
0000
,  // measure 41
0001
0000
1000
0000
,  // measure 42
0100
0000
0001
0000
,  // measure 43
0100
0000
0000
1000
,  // measure 44
1000
0000
0001
0000
,  // measure 45
0000
0000
0000
0000
,  // measure 46
0100
0000
0000
0000
;
