#VERSION:0.83;
#TITLE:Scream;
#SUBTITLE:Abyssos;
#ARTIST:Masayoshi Soken;
#TITLETRANSLIT:;
#SUBTITLETRANSLIT:;
#ARTISTTRANSLIT:;
#GENRE:Endwalker;
#ORIGIN:;
#CREDIT:[Ness];
#BANNER:Final Fantasy XIV - Scream.png;
#BACKGROUND:Final Fantasy XIV - Scream-bg.png;
#PREVIEWVID:;
#JACKET:Final Fantasy XIV - Scream-jacket.png;
#CDIMAGE:;
#DISCIMAGE:;
#LYRICSPATH:Final Fantasy XIV - Scream.lrc;
#CDTITLE:;
#MUSIC:Final Fantasy XIV - Scream.mp3;
#OFFSET:-0.115000;
#SAMPLESTART:59.317280;
#SAMPLELENGTH:23.103439;
#SELECTABLE:YES;
#DISPLAYBPM:174.000000;
#BPMS:0.000=174.000,
331.500=87.000,
332.667=116.000,
334.000=174.000;
#STOPS:171.500=1.379,
331.500=1.437;
#DELAYS:;
#WARPS:;
#TIMESIGNATURES:0.000=4=4;
#TICKCOUNTS:0.000=2;
#COMBOS:0.000=1;
#SPEEDS:0.000=1.000=0.000=0;
#SCROLLS:0.000=1.000;
#FAKES:;
#LABELS:0.000=Song Start;
#LASTSECONDHINT:144.284866;
#BGCHANGES:;
#KEYSOUNDS:;
#ATTACKS:
;

//---------------dance-single - ----------------
#NOTEDATA:;
#CHARTNAME:;
#STEPSTYPE:dance-single;
#DESCRIPTION:;
#CHARTSTYLE:;
#DIFFICULTY:Hard;
#METER:9;
#RADARVALUES:0.599221,0.625829,0.336939,0.378197,0.013753,610.000000,561.000000,49.000000,55.000000,0.000000,0.000000,0.000000,0.000000,0.000000,0.599221,0.625829,0.336939,0.378197,0.013753,610.000000,561.000000,49.000000,55.000000,0.000000,0.000000,0.000000,0.000000,0.000000;
#CREDIT:;
#DISPLAYBPM:174.000000;
#NOTES:
// measure 0
0000
0000
0000
0000
,  // measure 1
0000
0000
0000
0000
,  // measure 2
0000
0000
0000
0000
,  // measure 3
0000
0000
0000
0000
,  // measure 4
0000
0001
0100
1000
0100
0010
0000
1000
,  // measure 5
0010
0001
0010
0100
0000
0000
0000
0000
,  // measure 6
0000
1000
0100
0001
1000
0100
0000
0110
,  // measure 7
0000
0001
0100
1000
0001
0010
1000
0001
,  // measure 8
0100
0000
0010
0100
1000
0000
0001
0000
,  // measure 9
1000
0000
0010
0100
0001
0000
1000
0000
,  // measure 10
0001
0000
0010
0100
0000
0010
0100
0000
,  // measure 11
2000
0010
3001
0101
,  // measure 12
0001
0000
1000
0010
0100
0000
0001
0000
,  // measure 13
1000
0000
0100
1000
0010
0000
0100
0000
,  // measure 14
0001
0000
0010
0100
0000
1000
0010
0000
,  // measure 15
0100
0000
0001
1000
0100
0000
0010
0000
,  // measure 16
0002
0000
1000
0010
0000
1000
0013
0000
,  // measure 17
2000
0000
0001
0100
0000
0001
3100
0000
,  // measure 18
0020
0000
0100
1000
0000
0100
0130
0000
,  // measure 19
0102
0000
0013
0000
1000
0001
1000
0001
,  // measure 20
1100
0000
0010
0000
0100
0010
0100
0000
0001
0000
0010
0000
0100
0000
1000
0000
,  // measure 21
0000
0001
0100
1000
0100
0000
0020
0000
,  // measure 22
1030
0000
0001
0000
0010
0100
0010
0000
0001
0000
1000
0000
0100
0000
0010
0000
,  // measure 23
0000
0001
0100
0010
1000
0100
0010
1000
,  // measure 24
0010
0000
0100
0000
1000
0001
1000
0000
0001
0000
0100
0000
0010
0000
0100
0000
,  // measure 25
0000
1000
0100
0010
1000
0100
0020
0000
,  // measure 26
0031
0000
0100
0000
0001
1000
0001
0000
0010
0000
0100
0000
0001
0000
0100
0000
,  // measure 27
0000
0010
0001
0100
0010
0001
0010
0100
,  // measure 28
0001
0011
0000
0010
0110
0000
1000
1010
,  // measure 29
0000
0100
0110
0000
0001
0000
1000
0000
,  // measure 30
0100
0101
0000
0100
1100
0000
0010
0110
,  // measure 31
0000
0001
0010
1000
0010
0001
1000
0010
,  // measure 32
0100
0110
0000
1000
1001
0000
0010
1010
,  // measure 33
0000
0100
0101
0000
0010
0100
1000
0001
,  // measure 34
0100
0100
0010
0000
1000
1000
0100
0000
,  // measure 35
0002
0013
2000
3100
,  // measure 36
0102
0010
0100
0010
,  // measure 37
1000
0100
0010
1003
,  // measure 38
2100
0010
0100
0010
,  // measure 39
0001
0100
0010
3001
,  // measure 40
1000
1000
0100
0100
0001
0001
1000
1000
,  // measure 41
0010
0010
0001
0001
0100
0100
0010
0010
,  // measure 42
0001
0001
0010
0010
0100
0100
0010
0010
,  // measure 43
1001
0000
0100
0001
0010
0100
0001
0010
,  // measure 44
0000
0100
0001
0100
1000
0100
0001
0100
,  // measure 45
0010
0000
1000
0100
0010
1000
0100
0010
,  // measure 46
0002
0000
1003
0010
0000
0001
0010
0000
,  // measure 47
1010
0000
0100
0001
1000
0100
1000
0001
,  // measure 48
0000
0100
0100
0000
0001
1000
0100
0010
,  // measure 49
0000
0202
0000
0303
0001
1000
0010
0200
,  // measure 50
0000
0300
2020
0030
,  // measure 51
3002
0000
1003
0010
0100
1000
0010
0100
,  // measure 52
0000
1000
0100
0001
1000
0010
0001
0010
,  // measure 53
2000
0000
3001
0100
0000
1000
0100
0000
,  // measure 54
0010
0000
1000
0010
0000
0001
0020
0000
,  // measure 55
0130
1000
0002
0000
1003
0010
0200
0000
,  // measure 56
0301
0010
2000
0000
3010
0100
1000
0001
,  // measure 57
0100
0010
1000
0200
0000
0300
0101
0000
,  // measure 58
0011
0000
1010
0000
1000
0100
1000
0000
,  // measure 59
1010
0001
0010
0000
0012
0000
0013
0000
,  // measure 60
0101
1000
0100
0000
2100
0000
3100
0000
,  // measure 61
1010
1000
0001
0000
1002
0000
0013
0000
,  // measure 62
0011
0010
0100
0000
0210
0000
1300
0000
,  // measure 63
1020
0000
0130
0001
0000
0001
2000
0000
,  // measure 64
3001
0010
0002
0000
0013
0100
0020
0000
,  // measure 65
0130
1000
0001
0200
0000
0310
0100
0002
,  // measure 66
0000
1000
1003
0000
2001
0000
3010
0000
,  // measure 67
2100
0000
3010
1000
0100
0000
0010
1000
,  // measure 68
0001
0000
0010
1000
0100
1000
0001
0010
,  // measure 69
0001
0000
0100
0001
1000
0000
0100
0001
,  // measure 70
0010
0000
0100
0001
1000
0001
0010
0100
,  // measure 71
1000
0010
0100
0000
0100
0001
0010
0000
,  // measure 72
0010
1000
0010
0001
0100
0010
0100
0000
,  // measure 73
0101
0100
0010
2000
0000
3000
1100
0000
,  // measure 74
0101
0000
0011
0000
1000
0010
0001
0000
,  // measure 75
1001
0001
0010
0000
0001
0100
0000
1100
,  // measure 76
0000
1000
0001
0100
0000
0010
0100
0001
,  // measure 77
1000
0100
0010
0000
1000
0100
0000
0101
,  // measure 78
0000
1000
0010
0100
0000
1000
0010
0100
,  // measure 79
0001
0010
0001
0000
0010
1000
0010
0100
,  // measure 80
0000
0100
0001
1000
0200
0000
0310
0100
,  // measure 81
0000
1000
0001
0000
0200
0000
0310
0100
,  // measure 82
0000
1000
0001
0000
0200
0000
0310
0100
,  // measure 83
0000
0000
0000
0000
1001
0000
0001
0010
,  // measure 84
1000
0001
0010
1000
0000
1000
0010
0100
,  // measure 85
1000
0100
0001
0100
0010
0000
1000
0100
,  // measure 86
0001
0100
1000
0100
0020
0000
0031
0100
,  // measure 87
1000
0100
0001
0000
0210
0000
0310
0000
,  // measure 88
1000
0100
1000
0010
0001
0100
0010
0000
,  // measure 89
0100
0001
1000
0100
0000
2020
0000
3030
,  // measure 90
0100
1000
0001
0200
0000
0000
0300
0000
,  // measure 91
0202
0000
0003
0000
0320
0000
1030
0010
,  // measure 92
0100
1000
0010
0001
0000
0001
0100
1000
,  // measure 93
0100
0001
0010
0100
2000
0000
3001
0010
,  // measure 94
0000
1000
0100
0000
0010
0001
1000
0010
,  // measure 95
0000
0001
0020
0000
0130
1000
0020
0000
,  // measure 96
0130
0001
2000
0000
3001
0010
0200
0000
,  // measure 97
0310
0100
1000
0001
0100
0010
1000
0002
,  // measure 98
0000
0003
0011
0000
1010
0000
1100
0000
,  // measure 99
1000
0100
0000
0000
0001
0010
0100
2000
,  // measure 100
0000
3000
0001
0000
0100
0000
0010
0000
,  // measure 101
0100
1000
0000
0000
0000
0000
0000
0000
;

//---------------dance-single - ----------------
#NOTEDATA:;
#CHARTNAME:;
#STEPSTYPE:dance-single;
#DESCRIPTION:;
#CHARTSTYLE:;
#DIFFICULTY:Medium;
#METER:6;
#RADARVALUES:0.376232,0.476528,0.158155,0.240671,0.000000,383.000000,360.000000,23.000000,35.000000,0.000000,0.000000,0.000000,0.000000,0.000000,0.376232,0.476528,0.158155,0.240671,0.000000,383.000000,360.000000,23.000000,35.000000,0.000000,0.000000,0.000000,0.000000,0.000000;
#CREDIT:;
#DISPLAYBPM:174.000000;
#NOTES:
// measure 0
0000
0000
0000
0000
,  // measure 1
0000
0000
0000
0000
,  // measure 2
0000
0000
0000
0000
,  // measure 3
0000
0000
0000
0000
,  // measure 4
0000
1000
0001
1000
0001
0100
0000
1000
,  // measure 5
0001
1000
0001
0100
0000
0000
0000
0000
,  // measure 6
0000
1000
0001
1000
0001
0100
0000
0010
,  // measure 7
0000
0100
0000
0010
0000
0100
0000
0000
,  // measure 8
0002
0003
1010
0000
,  // measure 9
0002
0003
1010
0000
,  // measure 10
1000
0000
0000
0001
0000
0000
0100
0000
,  // measure 11
0020
0030
0100
0001
,  // measure 12
2000
3000
0202
0303
,  // measure 13
2000
3000
0101
0000
,  // measure 14
1000
0000
0000
0001
0000
0000
0010
0000
,  // measure 15
0200
0300
0110
0000
,  // measure 16
0002
0000
0000
0010
0000
0000
1000
0000
,  // measure 17
2003
0000
0000
0100
0000
0000
3001
0000
,  // measure 18
0002
0000
0000
0010
0000
0000
1003
0000
,  // measure 19
2000
0000
3001
0000
,  // measure 20
1001
0000
1000
0100
0001
0000
0100
0000
,  // measure 21
0010
0100
0001
0010
,  // measure 22
0001
0000
0001
0100
1000
0000
0100
0000
,  // measure 23
0010
1000
0100
0010
,  // measure 24
1000
0000
1000
0010
0001
0000
0010
0000
,  // measure 25
0100
0001
0100
1000
,  // measure 26
0010
0000
0001
0010
1000
0000
0010
0000
,  // measure 27
0100
0001
0010
0100
,  // measure 28
1000
0000
0000
0001
0000
0000
0100
0000
,  // measure 29
0000
0010
0000
0000
1000
0000
0100
0000
,  // measure 30
0010
0000
0000
0100
0000
0000
1000
0000
,  // measure 31
0000
0000
0001
1000
,  // measure 32
0010
0000
0000
0100
0000
0000
0001
0000
,  // measure 33
0000
0010
0000
0000
0100
0000
1000
0000
,  // measure 34
0001
0010
0100
1000
,  // measure 35
0002
0000
2000
3003
,  // measure 36
2002
0003
0020
0030
,  // measure 37
0002
0003
0020
0030
,  // measure 38
0002
3000
0200
0300
,  // measure 39
2000
3000
0200
0300
,  // measure 40
2003
0000
0200
0300
,  // measure 41
0020
0030
0002
3000
,  // measure 42
0020
0030
0200
0303
,  // measure 43
1001
0000
1000
0000
0010
0000
1000
0100
,  // measure 44
0000
0000
1000
0000
0010
0000
0100
0001
,  // measure 45
0100
0000
0010
1000
0000
0000
0100
0000
,  // measure 46
0010
0000
0001
1000
0000
0000
0010
0000
,  // measure 47
0100
0001
0010
0100
,  // measure 48
1000
0000
0001
0000
0010
0100
0010
0100
,  // measure 49
0000
1000
0000
0000
0001
1000
0001
1000
,  // measure 50
0000
0000
0010
0100
,  // measure 51
0110
0100
0010
1000
,  // measure 52
0001
0000
0100
0000
0010
0000
1000
0100
,  // measure 53
1000
0000
0001
0100
0000
0000
0001
0000
,  // measure 54
0010
0000
0100
1000
0000
0000
0010
0000
,  // measure 55
1000
0001
0100
0010
,  // measure 56
1000
0100
0010
0001
,  // measure 57
1000
0001
1000
0001
0000
0000
1000
0000
,  // measure 58
1010
0010
0011
0000
,  // measure 59
1001
0000
0010
0000
1000
0100
0001
0000
,  // measure 60
0001
0100
1000
0000
1000
0100
0001
0000
,  // measure 61
0110
0000
0010
0000
1000
0100
0001
0000
,  // measure 62
0001
0100
1000
0000
1000
0100
0001
0000
,  // measure 63
1000
0010
1000
0100
,  // measure 64
0010
0001
0100
0000
0010
1000
0100
0000
,  // measure 65
1000
0000
0001
0100
0000
0010
1000
0100
,  // measure 66
0000
0000
1001
0010
,  // measure 67
0001
0000
0010
0000
0001
0100
1000
0000
,  // measure 68
1000
0100
0001
0000
0001
0100
1000
0000
,  // measure 69
0110
0000
0010
0000
0001
0100
1000
0000
,  // measure 70
1000
0010
0001
0000
0100
0010
1000
0000
,  // measure 71
0001
0010
0001
0000
0010
0000
0100
0000
,  // measure 72
1000
0100
1000
0000
0010
0000
0100
0000
,  // measure 73
0001
1000
0010
0100
0000
0000
0001
0000
,  // measure 74
0101
0100
1100
0000
,  // measure 75
0200
1000
0010
1000
,  // measure 76
0310
0000
0001
1000
,  // measure 77
0002
0000
0100
1000
,  // measure 78
0010
1000
0103
0000
,  // measure 79
0020
0000
0100
0000
,  // measure 80
1000
0000
0130
0000
,  // measure 81
2000
0000
0100
0000
,  // measure 82
0001
0000
3100
0000
,  // measure 83
0000
0000
1001
0001
,  // measure 84
0010
0000
0100
1000
0000
0000
0001
0000
,  // measure 85
1000
0000
0010
1000
0100
0000
1000
0001
,  // measure 86
0000
0000
0100
0000
0010
0000
1000
0010
,  // measure 87
0000
0100
0001
0000
1000
0000
0001
0000
,  // measure 88
0010
0100
0010
0001
,  // measure 89
1000
0001
1000
0100
0000
0010
0000
0000
,  // measure 90
0001
1000
0001
0100
0000
0000
0000
0000
,  // measure 91
0220
0330
1001
0100
,  // measure 92
0010
0000
0001
0000
1000
0100
1000
0000
,  // measure 93
1100
0000
0010
0001
0100
0000
0001
1000
,  // measure 94
0000
0000
1000
0000
0010
0000
0100
0001
,  // measure 95
0000
0000
0010
0000
0001
1000
0001
0000
,  // measure 96
0100
0000
0010
0000
1000
0001
1000
0000
,  // measure 97
0100
0000
0010
0000
0001
0100
0001
1000
,  // measure 98
0000
0001
0011
0010
,  // measure 99
1010
0000
0000
0000
;

//---------------dance-single - ----------------
#NOTEDATA:;
#CHARTNAME:;
#STEPSTYPE:dance-single;
#DESCRIPTION:;
#CHARTSTYLE:;
#DIFFICULTY:Easy;
#METER:4;
#RADARVALUES:0.294699,0.306339,0.048134,0.151279,0.000000,300.000000,293.000000,7.000000,22.000000,0.000000,0.000000,0.000000,0.000000,0.000000,0.294699,0.306339,0.048134,0.151279,0.000000,300.000000,293.000000,7.000000,22.000000,0.000000,0.000000,0.000000,0.000000,0.000000;
#CREDIT:;
#DISPLAYBPM:174.000000;
#NOTES:
// measure 0
0000
0000
0000
0000
,  // measure 1
0000
0000
0000
0000
,  // measure 2
0000
0000
0000
0000
,  // measure 3
0000
0000
0000
0000
,  // measure 4
0010
1000
0100
1000
,  // measure 5
0010
0001
0010
0000
,  // measure 6
0100
0001
0100
1000
,  // measure 7
0100
0001
0010
0000
,  // measure 8
1000
0010
1000
0000
,  // measure 9
0001
0100
0001
0000
,  // measure 10
0010
0100
1000
0100
,  // measure 11
0010
0000
0100
0000
,  // measure 12
0010
0001
1000
0000
,  // measure 13
0010
1000
0001
0000
,  // measure 14
1000
0100
1000
0001
,  // measure 15
0010
0100
1000
0000
,  // measure 16
0010
1000
0010
0001
,  // measure 17
0100
0000
0100
0000
,  // measure 18
0001
0100
1000
0100
,  // measure 19
0001
0010
0100
0000
,  // measure 20
1000
0000
1001
0000
,  // measure 21
0010
1000
0100
0100
,  // measure 22
0010
1000
0010
0001
,  // measure 23
0010
0100
0010
0100
,  // measure 24
1000
0001
0100
0000
,  // measure 25
1000
0000
0110
0000
,  // measure 26
0001
0100
1000
0100
,  // measure 27
0001
0010
0100
0000
,  // measure 28
0010
0001
0100
1000
,  // measure 29
0000
1000
0100
0001
,  // measure 30
0010
0001
0100
1000
,  // measure 31
0000
1000
0100
0001
,  // measure 32
0010
0001
0100
1000
,  // measure 33
0000
1000
0100
0001
,  // measure 34
0010
0001
0100
0000
,  // measure 35
0010
0000
0100
0000
,  // measure 36
2002
0000
0000
0003
,  // measure 37
0200
0000
0000
3300
,  // measure 38
0002
0000
0000
0000
,  // measure 39
0200
0000
0000
0303
,  // measure 40
0200
0000
0010
0000
,  // measure 41
0010
0000
0310
0000
,  // measure 42
2000
0000
3001
0000
,  // measure 43
1001
0000
0001
0010
,  // measure 44
0001
0100
0010
0000
,  // measure 45
1000
0100
1000
0010
,  // measure 46
0001
0010
1000
0100
,  // measure 47
0002
0003
0200
0300
,  // measure 48
2000
3000
0001
0100
,  // measure 49
1000
0010
0100
0001
,  // measure 50
0010
1000
0100
0000
,  // measure 51
0110
0000
0020
0030
,  // measure 52
0200
0300
0010
0001
,  // measure 53
0100
1000
0100
0001
,  // measure 54
0010
1000
0010
0001
,  // measure 55
0100
0000
0010
0000
,  // measure 56
1000
0000
0100
0010
,  // measure 57
0001
1000
0010
0100
,  // measure 58
0001
1000
0001
0000
,  // measure 59
1000
0010
1000
0010
,  // measure 60
0100
0010
1000
0010
,  // measure 61
1000
0010
1000
0010
,  // measure 62
0100
0010
1000
0010
,  // measure 63
1000
0100
0010
0001
,  // measure 64
0100
0010
1000
0100
,  // measure 65
1000
0001
0100
0010
,  // measure 66
1000
0000
0100
0000
,  // measure 67
0001
0010
0001
0010
,  // measure 68
0100
0010
0001
0010
,  // measure 69
0001
0010
0001
0010
,  // measure 70
0100
0010
0001
0010
,  // measure 71
0001
0100
0010
1000
,  // measure 72
0100
0001
0010
0100
,  // measure 73
1000
0010
0100
0001
,  // measure 74
0010
1000
0100
0000
,  // measure 75
0020
0000
0001
0000
,  // measure 76
0100
0000
0001
0000
,  // measure 77
0130
0000
1000
0000
,  // measure 78
0010
0000
0001
0000
,  // measure 79
0200
0000
1000
0000
,  // measure 80
0010
0000
1000
0000
,  // measure 81
0310
0000
0001
0000
,  // measure 82
1000
0000
0100
0000
,  // measure 83
0000
0000
1001
0000
,  // measure 84
1000
0010
1000
0100
,  // measure 85
0010
0000
0001
0100
,  // measure 86
0001
0010
1000
0010
,  // measure 87
0001
0100
2000
3000
,  // measure 88
0200
0300
0002
0003
,  // measure 89
1000
0100
0001
0010
,  // measure 90
0100
1000
0010
0001
,  // measure 91
0100
0000
1001
0000
,  // measure 92
0002
0003
2000
3000
,  // measure 93
0010
1000
0100
0001
,  // measure 94
0100
1000
0010
0001
,  // measure 95
0100
1000
0020
0030
,  // measure 96
0200
0300
0002
0003
,  // measure 97
1000
0010
0100
0001
,  // measure 98
1000
0001
0100
1000
,  // measure 99
0100
0000
0000
0000
;

//---------------dance-single - ----------------
#NOTEDATA:;
#CHARTNAME:;
#STEPSTYPE:dance-single;
#DESCRIPTION:;
#CHARTSTYLE:;
#DIFFICULTY:Beginner;
#METER:2;
#RADARVALUES:0.147349,0.170188,0.000000,0.006876,0.000000,150.000000,150.000000,0.000000,1.000000,0.000000,0.000000,0.000000,0.000000,0.000000,0.147349,0.170188,0.000000,0.006876,0.000000,150.000000,150.000000,0.000000,1.000000,0.000000,0.000000,0.000000,0.000000,0.000000;
#CREDIT:;
#DISPLAYBPM:174.000000;
#NOTES:
// measure 0
0000
0000
0000
0000
,  // measure 1
0000
0000
0000
0000
,  // measure 2
0000
0000
0000
0000
,  // measure 3
0000
0000
0000
0000
,  // measure 4
0001
0000
0001
0000
,  // measure 5
0001
0000
0001
0000
,  // measure 6
1000
0000
1000
0000
,  // measure 7
1000
0000
1000
0000
,  // measure 8
0100
0000
0000
0000
,  // measure 9
0100
0000
0000
0000
,  // measure 10
0010
0000
0010
0000
,  // measure 11
0010
0000
0000
0000
,  // measure 12
0100
0000
0000
0000
,  // measure 13
0100
0000
0000
0000
,  // measure 14
0010
0000
0010
0000
,  // measure 15
0010
0000
0000
0000
,  // measure 16
0001
0000
0000
0000
,  // measure 17
1000
0000
0000
0000
,  // measure 18
0100
0000
0000
0000
,  // measure 19
0010
0000
0000
0000
,  // measure 20
0001
0000
0001
0000
,  // measure 21
0001
0000
0000
0000
,  // measure 22
1000
0000
1000
0000
,  // measure 23
1000
0000
0000
0000
,  // measure 24
0010
0000
0010
0000
,  // measure 25
0010
0000
0000
0000
,  // measure 26
0001
0000
0001
0000
,  // measure 27
0001
0000
0000
0000
,  // measure 28
1000
0000
1000
0000
,  // measure 29
1000
0000
0100
0000
,  // measure 30
0001
0000
0001
0000
,  // measure 31
0001
0000
0100
0000
,  // measure 32
1000
0000
1000
0000
,  // measure 33
1000
0000
0100
0000
,  // measure 34
0001
0000
0001
0000
,  // measure 35
0100
0000
0000
0000
,  // measure 36
0010
0000
0000
0000
,  // measure 37
0010
0000
0000
0000
,  // measure 38
1000
0000
0000
0000
,  // measure 39
0100
0000
0000
0000
,  // measure 40
0010
0000
0000
0000
,  // measure 41
0001
0000
0000
0000
,  // measure 42
1000
0000
0000
0000
,  // measure 43
0000
0000
0010
0000
,  // measure 44
0100
0000
0010
0000
,  // measure 45
1000
0000
0100
0000
,  // measure 46
0010
0000
0001
0000
,  // measure 47
0100
0000
0000
0000
,  // measure 48
0010
0000
0000
0000
,  // measure 49
1000
0000
0001
0000
,  // measure 50
1000
0000
0001
0000
,  // measure 51
0100
0000
0010
0000
,  // measure 52
1000
0000
0100
0000
,  // measure 53
0010
0000
0001
0000
,  // measure 54
0100
0000
1000
0000
,  // measure 55
0010
0000
0000
0000
,  // measure 56
0100
0000
0000
0000
,  // measure 57
0001
0000
0010
0000
,  // measure 58
0100
0000
1000
0000
,  // measure 59
0010
0000
0010
0000
,  // measure 60
0010
0000
0010
0000
,  // measure 61
0100
0000
0100
0000
,  // measure 62
0100
0000
0100
0000
,  // measure 63
0001
0000
0001
0000
,  // measure 64
1000
0000
1000
0000
,  // measure 65
0100
0000
0010
0000
,  // measure 66
0100
0000
0010
0000
,  // measure 67
0100
0000
0100
0000
,  // measure 68
0100
0000
0100
0000
,  // measure 69
0010
0000
0010
0000
,  // measure 70
0010
0000
0010
0000
,  // measure 71
0001
0000
0100
0000
,  // measure 72
1000
0000
0100
0000
,  // measure 73
0001
0000
0001
0000
,  // measure 74
1000
0000
1000
0000
,  // measure 75
0020
0000
0000
0000
,  // measure 76
0030
0000
0000
0000
,  // measure 77
0000
0000
0001
0000
,  // measure 78
0000
0000
1000
0000
,  // measure 79
0000
0000
0100
0000
,  // measure 80
0000
0000
0010
0000
,  // measure 81
0000
0000
0010
0000
,  // measure 82
0000
0000
0000
0000
,  // measure 83
0000
0000
0100
0000
,  // measure 84
0000
0000
0010
0000
,  // measure 85
0000
0000
0001
0000
,  // measure 86
0001
0000
1000
0000
,  // measure 87
1000
0000
0100
0000
,  // measure 88
0000
0000
0010
0000
,  // measure 89
0010
0000
0001
0000
,  // measure 90
0001
0000
1000
0000
,  // measure 91
1000
0000
0010
0000
,  // measure 92
0010
0000
0100
0000
,  // measure 93
0100
0000
0010
0000
,  // measure 94
0010
0000
0100
0000
,  // measure 95
0100
0000
0001
0000
,  // measure 96
0001
0000
1000
0000
,  // measure 97
1000
0000
0100
0000
,  // measure 98
0001
0000
0010
0000
,  // measure 99
1000
0000
0000
0000
;
