#TITLE:Rhythm of the Realm;
#SUBTITLE:Euphrosyne;
#ARTIST:Masayoshi Soken;
#TITLETRANSLIT:;
#SUBTITLETRANSLIT:;
#ARTISTTRANSLIT:;
#GENRE:Endwalker;
#CREDIT:[Ness];
#BANNER:Final Fantasy XIV - Rhythm of the Realm.png;
#BACKGROUND:Final Fantasy XIV - Rhythm of the Realm-bg.png;
#LYRICSPATH:;
#CDTITLE:;
#MUSIC:Final Fantasy XIV - Rhythm of the Realm.mp3;
#OFFSET:-1.583999;
#SAMPLESTART:7.762835;
#SAMPLELENGTH:18.620691;
#LASTBEATHINT:208.000000;
#SELECTABLE:YES;
#BPMS:0.000000=116.000000
;
#STOPS:
;
#BGCHANGES:;
#KEYSOUNDS:;
#ATTACKS:;

//---------------dance-single - ----------------
#NOTES:
     dance-single:
     :
     Challenge:
     10:
     0.634343,0.722746,0.309196,0.068710,0.609803,517.000000,481.000000,36.000000,8.000000,0.000000,0.000000,0.634343,0.722746,0.309196,0.068710,0.609803,517.000000,481.000000,36.000000,8.000000,0.000000,0.000000:
0000
0000
0000
0000
,
0000
0000
0000
0000
,
0000
0000
0000
0000
,
1001
0000
0001
0100
0010
0100
0010
0100
0001
1000
0010
0100
0001
0000
1000
0100
,
0010
0100
0010
0100
1000
0001
0010
0100
1000
0000
0010
0100
0010
0100
0010
0100
,
0001
1000
0100
0010
0001
0000
0101
0000
1000
0000
1100
0000
0010
0000
0100
0000
,
0110
0000
0100
0000
0000
0001
1000
0100
1000
0000
0010
0000
0100
0001
0100
0000
,
0000
0010
1000
0001
0100
0000
0010
0000
1000
0100
1000
0000
0000
0001
0010
0001
,
0100
0000
0010
0000
1000
0001
1000
0000
0000
0001
0010
0100
1000
0000
0010
0000
,
0100
0001
1000
0000
0000
0001
0100
0010
1000
0000
0100
0000
0010
0100
1000
0000
,
0000
0001
0010
0100
1000
0000
0010
0000
1000
0001
0100
0000
0000
0010
1000
0010
,
0100
0000
0001
0000
0010
0100
1000
0000
0000
0000
0001
0000
0010
0000
0100
0000
,
2000
0000
0001
0000
3000
0000
1000
0010
0100
0000
0010
0100
0001
0000
0100
0001
,
1000
0000
0001
0000
1000
0000
0100
0000
0010
0000
0001
0000
0100
0000
0010
1000
,
0000
0001
1001
0100
1001
0100
0110
0010
,
1002
0000
1000
0000
0003
0000
0001
0010
0100
0000
0010
0100
1000
0000
0100
1000
,
0001
0000
1000
0000
0010
0000
0100
0000
0001
0000
0010
0000
0100
0000
1000
0010
,
0000
0000
0100
0000
0110
0000
0000
0000
1001
0000
0000
0000
0011
0000
0000
0001
,
0010
0000
0000
0000
1010
0000
0000
1000
0100
0000
0000
0000
0101
0000
1000
0000
,
0001
0000
0000
0000
0010
0000
0000
0010
1000
0000
0000
0000
1100
0000
0000
0100
,
0001
0000
0000
0000
0011
0000
0100
0000
0010
0000
0000
0000
1000
0000
0000
1000
,
0100
0000
0000
0000
0101
0000
0000
0001
0010
0000
0000
0000
1010
0000
0001
0000
,
1000
0000
0100
0000
0110
0000
1001
0110
,
1001
0110
2002
0000
0000
0000
3003
0000
,
0010
1000
0100
1000
0001
0100
0010
0100
,
0001
0010
0001
0100
0010
1000
0001
1000
,
0100
0010
0001
0100
0001
0010
0100
0010
,
0100
1000
0001
1000
0010
0100
0001
1000
,
0001
0010
0100
1000
0010
1000
0001
0020
,
0000
0000
0230
0000
0000
2300
0000
0000
,
3001
0100
0001
1000
0010
0001
0010
1000
,
0001
1000
0100
0001
0100
0010
0001
1000
,
0010
0001
0010
0100
0001
1000
0100
0010
,
0001
0100
0001
0010
1000
0010
0100
1000
,
0100
0010
0001
0100
0002
0000
0000
1000
,
1003
0001
0100
0000
0100
0010
0100
0000
,
1100
0000
0100
1000
0100
0010
0001
0010
0100
1000
0100
0010
0001
0100
0001
1000
,
0010
1000
0001
0100
0010
1000
0010
0100
0001
0010
0100
1000
0100
0010
0100
1000
,
0001
0010
0100
1000
0001
0100
0010
1000
0001
0100
0001
1000
0010
0100
0001
0100
,
0001
0010
0100
0010
0100
0010
0100
0010
0001
1000
0100
0010
0001
0100
0010
0100
,
0010
0100
0010
0100
0010
1000
0001
0100
0010
1000
0100
0010
0100
0010
0100
0010
,
0100
1000
0001
0010
0100
0000
1001
0000
0100
0000
1001
0000
0100
0000
0010
0000
,
1001
0000
1000
0100
0010
0100
0010
0100
0010
0001
1000
0100
1000
0010
0100
0010
,
0100
0010
0100
0010
0100
0001
1000
0100
0010
0001
0100
0010
0100
0010
0100
0010
,
1000
0001
0100
0010
1000
0000
0101
0000
0001
0000
1100
0000
1000
0000
0001
0000
,
0101
0000
0100
0010
1000
0001
0100
0010
1000
0100
1000
0100
1000
0001
0010
0100
,
1000
0001
0010
0100
1000
0001
1000
0001
0100
0010
1000
0001
0100
0010
0100
0001
,
0010
0100
0010
0100
1000
0000
0011
0000
0001
0000
1010
0000
0100
0000
0010
0000
,
1001
0000
1000
0010
0100
0010
0100
0001
1000
0001
0100
0010
1000
0100
0010
0100
,
0010
0001
1000
0001
0100
0010
1000
0100
0010
0001
1000
0100
1000
0100
0010
0001
,
0010
0001
0100
0010
1000
0000
0001
0000
1100
0000
1000
0000
0101
0000
0010
0000
,
1001
0000
0000
0000
;

//---------------dance-single - ----------------
#NOTES:
     dance-single:
     :
     Hard:
     7:
     0.379133,0.394225,0.137420,0.146009,0.180364,309.000000,293.000000,16.000000,17.000000,0.000000,0.000000,0.379133,0.394225,0.137420,0.146009,0.180364,309.000000,293.000000,16.000000,17.000000,0.000000,0.000000:
0000
0000
0000
0000
,
0000
0000
0000
0000
,
0000
0000
0000
0000
,
1001
0000
0000
1000
0010
0000
0000
0010
0100
0000
0001
0000
0010
0000
0000
0010
,
0100
0000
0000
0100
1000
0000
0001
0000
0100
0000
0000
0100
0001
0000
0000
0001
,
0010
0100
1000
0010
1000
0100
0001
0100
,
1000
0100
0010
0002
0000
0000
0103
0000
,
0010
0000
0100
0000
0001
0000
1000
0000
0100
0000
0000
0010
0000
0000
0001
0000
,
0100
0000
0010
1000
0000
0001
0010
0000
,
0100
1000
0010
0200
0000
0000
0301
0000
,
1000
0000
0100
0000
1000
0000
0001
0000
0100
0000
0000
0010
0000
0000
1000
0000
,
0100
0000
0010
0001
0000
1000
0010
0000
,
0120
0000
0130
0001
1000
0001
0010
0001
,
0100
0000
0010
0000
1000
0000
0100
1000
,
0010
0110
0011
1010
,
0210
0000
0310
1000
0001
1000
0100
1000
,
0010
0000
0100
0000
0001
0000
1000
0001
,
0010
0012
0100
1003
,
1001
0000
0000
0000
1000
0000
0000
1000
0010
0000
0000
0000
0100
0000
0001
0000
,
1000
0000
0000
0000
0001
0000
0000
0001
0010
0000
0000
0000
0100
0000
0000
0100
,
1000
0000
0000
0000
0001
0000
1000
0000
0010
0000
0000
0000
0100
0000
0000
0100
,
0010
0000
0000
0000
1000
0000
0000
1000
0001
0000
0000
0000
0100
0000
0001
0000
,
1000
0000
0100
0000
1100
0000
0100
0010
,
0100
1000
0200
0000
0000
0000
0300
0000
,
0010
0000
0001
0100
0000
0100
0001
0000
,
1000
0010
0000
1000
0100
0000
0010
0001
,
0000
0001
0100
0000
0100
0001
1000
0100
,
0010
0000
0001
1000
0000
0001
0010
0000
,
0100
1000
0000
0001
0100
0010
1000
0200
,
0000
0000
0320
0000
0000
0032
0000
0000
,
1003
0000
0001
0100
0001
1000
0200
0000
,
0310
0100
1000
0100
0020
0000
0031
1000
,
0010
0100
0002
0000
1003
0100
0010
0001
,
2000
0000
3001
0100
0001
1000
0200
0000
,
1300
0010
0100
0001
0022
0000
0033
0000
,
1100
0000
1001
0000
1000
0010
0001
0000
,
1001
0000
0000
0000
0100
0000
0000
0000
0001
0000
0000
0000
0010
0000
0000
0010
,
0100
0000
0000
0100
1000
0000
0000
1000
0010
0000
0000
0000
0100
0000
0000
0000
,
0001
0000
0000
0000
1000
0000
0000
1000
0001
0000
0000
0001
0010
0000
0000
0000
,
0110
0000
0000
0000
0000
0000
0000
0000
1000
0100
1000
0100
1000
0000
0000
0000
,
0000
0000
0000
0000
0001
0100
0001
0100
0001
0000
0000
0000
0000
0000
0000
0000
,
1000
0001
1000
0001
1000
0000
0100
0000
1000
0000
0100
0000
0001
0000
0100
0000
,
0010
0000
0000
0000
0000
0000
0000
0000
0001
1000
0001
1000
0001
0000
0000
0000
,
0000
0000
0000
0000
0100
0001
0100
0001
0100
0000
0000
0000
0000
0000
0000
0000
,
0010
1000
0010
1000
0020
0000
0000
0000
0000
0000
0000
0000
0130
0000
0000
0000
,
0110
0000
0000
0100
0001
0000
0000
0001
1000
0000
0100
0000
1000
0000
0000
1000
,
0010
0000
0000
0010
0100
0000
0001
0000
0010
0000
0000
0010
0100
0000
0000
0100
,
1000
0001
0100
0010
0100
0010
1000
0001
,
0100
0000
0000
0100
0001
0000
0000
0001
1000
0000
0100
0000
1000
0000
0000
1000
,
0010
0000
0000
0010
0100
0000
0001
0000
0010
0000
0000
0010
0100
0000
0000
0100
,
1000
0001
0100
0001
1000
0001
0010
0100
,
1001
0000
0000
0000
;

//---------------dance-single - ----------------
#NOTES:
     dance-single:
     :
     Medium:
     5:
     0.267479,0.284718,0.257663,0.231897,0.000000,218.000000,188.000000,30.000000,27.000000,0.000000,0.000000,0.267479,0.284718,0.257663,0.231897,0.000000,218.000000,188.000000,30.000000,27.000000,0.000000,0.000000:
0000
0000
0000
0000
,
0000
0000
0000
0000
,
0000
0000
0000
0000
,
1001
0000
0000
1000
0001
0000
0010
0000
,
0000
0001
1000
0000
0010
0000
0000
1000
,
0001
0100
0010
0100
,
0001
0000
0010
0100
0010
0000
0001
0000
,
0100
0010
1000
0000
0001
0000
1000
0001
,
1000
0000
0100
0000
0010
0001
0100
0000
,
0001
0000
1000
0010
1000
0000
0100
0000
,
1000
0001
0100
0000
0010
0000
0100
0001
,
0100
0000
0010
0000
1000
0001
0010
0000
,
0110
0000
1000
0001
,
0100
0010
1000
0100
,
0010
1001
0010
1001
,
0100
0010
0001
0100
,
1000
0100
0001
0010
,
0100
1001
0100
1001
,
0010
0000
1000
0000
1000
0000
0001
0100
,
0010
1000
1001
0010
,
0010
0000
0100
0001
1000
0000
0100
0000
,
0110
0000
0010
0000
0010
0000
0001
0010
,
0100
0000
1000
0000
1001
0000
0001
1000
,
0001
1000
0002
0000
0000
0000
0000
0000
,
1003
0100
0001
0010
,
0100
1000
0010
0100
,
0001
0010
0001
0100
,
0010
0100
0001
1000
,
0100
0000
0001
0000
0010
0100
0010
0001
,
0000
0000
1000
0000
0000
0001
0000
0000
,
0100
0000
0010
1000
,
0100
0010
0001
1000
,
0001
0100
0010
1000
,
0100
0010
0100
1000
,
0010
0100
2002
3003
,
0100
1001
0000
0010
,
0001
0100
0010
1000
,
0100
1000
0001
0010
,
0100
1000
0010
0100
,
2002
3003
0000
2200
,
3300
0000
0202
0303
,
0000
1001
0110
0100
,
0220
0330
0000
2020
,
3030
0000
0022
0033
,
0000
0110
0001
1000
,
2002
0000
3003
0001
1000
0000
2200
0000
,
3300
1000
0001
0000
0202
0000
0303
0001
,
1000
1001
0100
0001
,
0022
0000
0033
1000
0001
0000
2020
0000
,
3030
0001
1000
0000
0220
0000
0330
1000
,
0001
0101
0010
0110
,
1001
0000
0000
0000
;

//---------------dance-single - ----------------
#NOTES:
     dance-single:
     :
     Easy:
     3:
     0.173003,0.219014,0.017178,0.188953,0.000000,141.000000,139.000000,2.000000,22.000000,0.000000,0.000000,0.173003,0.219014,0.017178,0.188953,0.000000,141.000000,139.000000,2.000000,22.000000,0.000000,0.000000:
// measure 0
0000
0000
0000
0000
,  // measure 1
0000
0000
0000
0000
,  // measure 2
0000
0000
0000
0000
,  // measure 3
1000
1000
0100
0001
,  // measure 4
0001
0100
1000
1000
,  // measure 5
0100
0010
0010
0010
,  // measure 6
0001
0000
0100
1000
,  // measure 7
0000
1000
0010
0000
,  // measure 8
0100
0001
0000
0001
,  // measure 9
0010
0000
0100
1000
,  // measure 10
0000
0100
0001
0000
,  // measure 11
0100
1000
0000
0000
,  // measure 12
0001
0000
0010
0000
,  // measure 13
0100
0000
1000
0000
,  // measure 14
0001
0001
0001
0001
,  // measure 15
0100
0000
0010
0000
,  // measure 16
1000
0000
0100
0000
,  // measure 17
0010
0010
0010
0100
,  // measure 18
1000
0001
1000
0010
,  // measure 19
0100
0000
0001
0010
,  // measure 20
0001
1000
0100
0000
,  // measure 21
0001
0100
1000
0100
,  // measure 22
0001
0000
0010
0100
,  // measure 23
0010
0200
0000
0300
,  // measure 24
2000
3000
0100
0002
,  // measure 25
0003
0100
0020
0030
,  // measure 26
0100
0002
0003
0010
,  // measure 27
0200
0300
1000
0020
,  // measure 28
0030
0001
0010
0100
,  // measure 29
0010
0200
0300
1000
,  // measure 30
2000
3000
0001
0200
,  // measure 31
0300
1000
0020
0030
,  // measure 32
0100
0002
0003
0010
,  // measure 33
0200
0300
1000
0020
,  // measure 34
0030
0100
0002
0003
,  // measure 35
1000
2000
3000
0000
,  // measure 36
1001
0000
0010
0000
,  // measure 37
0001
0000
1000
0000
,  // measure 38
0100
0100
0010
0001
,  // measure 39
0200
0300
0000
0020
,  // measure 40
0030
0000
2000
3000
,  // measure 41
0000
0001
1000
0001
,  // measure 42
0020
0030
0000
0200
,  // measure 43
0300
0000
0020
0030
,  // measure 44
0000
0100
1000
0001
,  // measure 45
0100
0100
0001
0010
,  // measure 46
0010
1000
0001
0001
,  // measure 47
0100
1000
0100
0001
,  // measure 48
1000
1000
0010
0100
,  // measure 49
0100
0001
0010
0010
,  // measure 50
0100
1000
0001
0100
,  // measure 51
0110
0000
0000
0000
;

//---------------dance-single - ----------------
#NOTES:
     dance-single:
     :
     Beginner:
     1:
     0.094477,0.131408,0.017178,0.000000,0.000000,77.000000,75.000000,2.000000,0.000000,0.000000,0.000000,0.094477,0.131408,0.017178,0.000000,0.000000,77.000000,75.000000,2.000000,0.000000,0.000000,0.000000:
// measure 0
0000
0000
0000
0000
,  // measure 1
0000
0000
0000
0000
,  // measure 2
0000
0000
0000
0000
,  // measure 3
1000
0000
0000
0001
,  // measure 4
0000
0000
0010
0000
,  // measure 5
0000
0100
0000
0000
,  // measure 6
1000
0000
0000
1000
,  // measure 7
0000
0000
0010
0000
,  // measure 8
0000
0100
0000
0000
,  // measure 9
0001
0000
0000
0010
,  // measure 10
0000
0000
0100
0000
,  // measure 11
0000
1000
0000
0000
,  // measure 12
0001
0000
0000
0100
,  // measure 13
0000
0000
0001
0000
,  // measure 14
0000
0010
0000
0000
,  // measure 15
0100
0000
0000
1000
,  // measure 16
0000
0000
0010
0000
,  // measure 17
0000
0100
0000
0000
,  // measure 18
1000
0000
1000
0000
,  // measure 19
0001
0000
0001
0000
,  // measure 20
0010
0000
0010
0000
,  // measure 21
0100
0000
0100
0000
,  // measure 22
1000
0000
0001
0001
,  // measure 23
0001
0001
0000
0000
,  // measure 24
0010
0000
0000
0100
,  // measure 25
0000
0000
1000
0000
,  // measure 26
0000
0010
0000
0000
,  // measure 27
0100
0000
0000
0001
,  // measure 28
0000
0000
0010
0000
,  // measure 29
0000
0100
0000
0000
,  // measure 30
1000
0000
0000
0001
,  // measure 31
0000
0000
0100
0000
,  // measure 32
0000
0010
0000
0000
,  // measure 33
1000
0000
0000
0100
,  // measure 34
0000
0000
0001
0000
,  // measure 35
0001
0001
0000
0000
,  // measure 36
0010
0000
0000
0100
,  // measure 37
0100
0000
0010
0000
,  // measure 38
0000
0100
0100
0000
,  // measure 39
1001
0000
0000
0001
,  // measure 40
0000
0000
1000
0000
,  // measure 41
0000
0100
0000
0000
,  // measure 42
0010
0000
0000
0100
,  // measure 43
0000
0000
0010
0000
,  // measure 44
0000
0001
0000
0000
,  // measure 45
1000
0000
0000
0001
,  // measure 46
0000
0000
1000
0000
,  // measure 47
0000
0100
0100
0100
,  // measure 48
0100
0000
0000
0010
,  // measure 49
0000
0000
0001
0000
,  // measure 50
0000
1000
0000
0000
,  // measure 51
1001
0000
0000
0000
;
