#VERSION:0.83;
#TITLE:Radiance;
#SUBTITLE:Aglaia;
#ARTIST:Masayoshi Soken;
#TITLETRANSLIT:;
#SUBTITLETRANSLIT:;
#ARTISTTRANSLIT:;
#GENRE:Endwalker;
#ORIGIN:;
#CREDIT:[Ness];
#BANNER:Final Fantasy XIV - Radiance.png;
#BACKGROUND:Final Fantasy XIV - Radiance-bg.png;
#PREVIEWVID:;
#JACKET:Final Fantasy XIV - Radiance-jacket.png;
#CDIMAGE:;
#DISCIMAGE:;
#LYRICSPATH:;
#CDTITLE:;
#MUSIC:Final Fantasy XIV - Radiance.mp3;
#OFFSET:-0.086000;
#SAMPLESTART:93.736481;
#SAMPLELENGTH:17.560974;
#SELECTABLE:YES;
#DISPLAYBPM:164.000000;
#BPMS:0.000=164.000,
376.000=123.000,
377.500=149.000,
378.000=175.000,
378.500=190.000,
379.000=215.000,
379.500=246.000,
385.750=41.000;
#STOPS:;
#DELAYS:;
#WARPS:;
#TIMESIGNATURES:0.000=4=4,
100.000=3=4,
352.000=4=4;
#TICKCOUNTS:0.000=2;
#COMBOS:0.000=1;
#SPEEDS:0.000=1.000=0.000=0;
#SCROLLS:0.000=1.000;
#FAKES:;
#LABELS:0.000=Song Start;
#LASTSECONDHINT:100.000000;
#BGCHANGES:;
#KEYSOUNDS:;
#ATTACKS:
;

//---------------dance-single - ----------------
#NOTEDATA:;
#CHARTNAME:;
#STEPSTYPE:dance-single;
#DESCRIPTION:;
#CHARTSTYLE:;
#DIFFICULTY:Challenge;
#METER:10;
#RADARVALUES:0.713383,0.741369,0.453971,0.258414,0.206033,715.000000,650.000000,65.000000,37.000000,0.000000,0.000000,0.000000,0.000000,0.000000,0.713383,0.741369,0.453971,0.258414,0.206033,715.000000,650.000000,65.000000,37.000000,0.000000,0.000000,0.000000,0.000000,0.000000;
#CREDIT:;
#DISPLAYBPM:164.000000;
#NOTES:
0000
0000
0000
0000
,
0000
0000
0000
0000
,
0000
0000
0000
0000
,
0000
0000
0000
0000
,
0101
0001
1000
1000
0100
0010
0100
0100
,
1000
0010
0100
0001
0010
0010
0100
1000
,
0001
0001
1000
0100
1000
0010
0100
0010
,
1000
0100
0010
0001
1000
0001
0100
0010
,
1001
0100
1000
0020
0000
0030
1001
0100
,
1000
0020
0000
1030
0100
0000
0100
0010
,
0011
0000
0012
1000
0003
2001
0010
3000
,
1020
0100
0030
0210
0001
0300
1001
0000
,
1100
1000
0001
0020
0000
0030
1100
1000
,
0001
0020
0000
0100
0130
0000
1000
0001
,
0101
0000
0201
0010
0300
2010
0100
3000
,
1200
0010
0300
0021
0100
0000
0130
0000
,
0110
0011
1010
0110
,
1001
0100
0001
2000
0000
0000
3100
0000
,
0100
1000
0010
0100
0000
0010
0001
0000
,
0001
0100
0010
0100
0000
1000
0100
0000
,
0100
0001
0100
1000
0000
0001
0100
0010
,
1001
0100
0001
0020
0000
0100
0130
0000
,
1000
0010
0001
0000
0001
0010
0001
0000
,
0010
1000
0100
0001
0100
1000
0010
0000
,
0010
0001
1000
0001
0010
0100
1000
0000
,
0011
0010
0100
1000
0100
0010
0001
1000
,
0010
0000
0100
1000
0010
0000
0000
0000
1010
0000
0100
0000
0010
0000
1000
0000
,
0100
0000
0010
0000
0001
0000
0100
0000
0010
0000
0001
0100
0010
0000
0000
0000
,
1001
1000
0001
0010
0100
0001
0010
0100
,
1000
0000
0010
0100
1000
0000
0000
0000
0101
0000
0100
0000
0001
0000
0010
0000
,
0100
0000
1000
0000
0001
0000
1000
0000
0100
0000
0001
1000
0100
0000
0000
0000
,
0110
0001
0010
0110
0001
1000
0100
0010
,
1000
0000
0100
0010
1000
0000
0000
0000
0011
0000
0001
0000
1000
0000
0011
0000
,
0001
0000
0100
0000
0010
0000
1000
0000
0100
0000
0010
1000
0100
0000
0000
0000
,
0101
0100
0010
0101
1000
0100
0010
0001
,
0100
0000
0010
0001
0100
0000
0000
0000
1001
0000
0100
0000
0001
0000
1001
0000
,
0010
0000
1000
0000
0100
0000
0001
0000
0010
0000
0100
0001
0010
0000
0000
0000
,
2010
0000
3100
0102
0000
0013
0100
1000
,
0010
0000
0100
1000
0010
0000
0000
0000
0102
0000
0000
0000
0013
0000
2100
0000
,
0000
0000
3010
0000
1000
0000
0001
0000
0010
0000
1000
0001
0010
0000
0000
0000
,
0210
0000
0301
2100
0000
3010
1000
0100
,
0010
0000
1000
0100
0010
0000
0000
0000
0011
0000
0001
0000
0100
0000
1100
0000
,
1000
0000
0010
0000
0100
0000
0001
0000
0010
0000
1000
0100
0001
0000
0000
0000
,
1001
0100
0010
1000
0100
0001
0010
0100
,
1000
0000
0010
0100
1000
0000
0100
0000
0001
0000
0010
0000
0100
0000
0001
0000
,
1000
0000
0100
0000
0010
0000
1000
0000
0001
0000
0010
1000
0001
0000
0010
0000
,
0100
0001
0010
0100
1000
0001
0100
0010
,
1000
0000
0100
0010
1000
0000
0100
0000
0001
0000
0010
0000
0100
0000
0001
0000
,
0100
0000
1000
0000
0001
0000
0010
0000
1000
0000
0001
0100
1000
0000
0000
0000
,
1100
0000
0000
0100
0000
0000
0010
0000
0000
0001
0000
0000
1000
0000
0000
0100
0010
0100
0010
0000
0000
0000
0000
0000
,
0000
0000
0000
0000
0001
0000
0000
0001
0010
0000
0000
0000
1010
0000
0000
1000
,
0100
0000
0101
0000
1000
0001
0010
0000
,
1000
0000
0000
0000
1100
0000
0000
0100
0001
0000
0000
0000
0011
0000
0000
0000
,
0100
0000
0010
0000
1000
0000
0000
0000
0100
0000
0000
0000
0101
0000
0000
0001
,
0010
0000
1010
0000
0001
1000
0100
0000
,
0001
0000
0000
0000
0011
0000
0000
0010
1000
0000
0000
0000
1100
0000
0000
0000
,
0010
0000
0100
0000
0001
0000
0000
0001
0010
0000
0100
0000
1000
0000
0001
1000
,
0100
0010
0001
0100
1000
0001
0010
0100
,
1000
0000
0010
0000
0100
0000
0001
0100
0010
0000
1000
0000
0001
0000
0010
0000
,
0100
0000
0010
0000
0001
0000
1000
0000
0100
0000
1000
0000
0001
0000
0100
0001
,
0010
0100
1000
0010
0001
1000
0100
0001
,
1000
0000
0010
0000
0100
0000
0001
0010
0100
0000
1000
0000
0010
0000
0100
0000
,
0001
1000
0100
0000
0002
0000
0000
0000
,
0000
0003
0000
0000
,
0201
0000
0000
1000
0000
0000
0020
0300
,
1000
0000
0001
0100
2000
0030
0100
0100
,
0000
0000
0200
3000
0001
0000
1000
0010
,
0020
0300
0001
0001
0000
0000
0002
0030
,
1003
0000
0200
0000
1000
0000
0000
0000
0310
0000
0100
0010
0100
0000
1000
0000
,
0010
0000
0100
0000
0001
0000
0010
0001
0100
0000
1000
0000
0100
0000
0001
0000
,
0010
0001
0100
1200
0000
1300
0102
0000
,
0013
0000
1001
0010
0200
0000
1000
0010
,
0000
0001
0320
0000
1000
0000
0130
0010
,
0200
0000
0010
0001
0000
0010
1000
0000
,
0310
0000
0000
0000
0110
0000
0000
0000
1000
0000
0001
1000
0100
0000
0010
0000
,
0100
0000
1000
0000
0010
0000
0100
0001
1000
0000
0100
0000
0001
0000
0100
0000
,
0010
0000
0001
1000
0001
0000
0100
0000
1000
0000
0100
0000
0010
0000
1000
0001
,
1000
0000
0100
0000
0001
0000
0100
0000
0010
0000
0001
0010
0001
0000
1000
0000
,
0010
0000
0001
0000
0010
0000
1000
0010
1000
0000
0001
0000
0010
0000
1000
0000
,
0010
0000
0100
1000
0100
0000
0010
0000
0001
0000
0100
0000
0010
0000
0100
0001
,
0100
0000
0010
0000
1000
0000
0100
0000
0010
0000
0001
0100
0001
0000
1000
0000
,
0100
1000
0100
0000
0010
0000
0001
1000
0001
0000
0100
0000
0010
1000
0010
0000
,
0100
0000
0010
1000
0100
0000
1000
0000
0001
0000
0100
0000
0001
0000
0010
0001
,
1000
0000
0001
0000
0100
0000
0010
0000
1000
0000
0100
0010
0001
0000
1000
0000
,
0010
0000
0100
0000
0010
0000
1000
0001
0100
0000
0010
0000
0100
0000
0001
0000
,
1000
0000
0100
0010
0001
0000
1000
0000
0010
0000
0100
0000
0001
0000
1000
0001
,
0100
0000
0010
0000
1000
0000
0100
0000
0010
0000
0001
1000
0001
0000
0100
0000
,
0010
1000
0010
0000
0100
0000
0001
1000
0100
0000
0010
0000
0001
1000
0010
0000
,
0220
0000
0000
0330
,
0100
0000
0001
0100
0000
1000
0100
0010
,
1000
0000
1000
0100
0000
0010
0001
1000
,
0010
0100
0010
1000
0100
0001
0100
1000
,
0001
0010
0001
0100
0001
1000
0100
1000
,
0010
0100
0010
0001
0010
0100
0010
1000
,
1001
0000
0101
0000
1100
0000
0000
0000
0000
0000
0000
0000
0000
0000
0000
1010
,
0000
0000
0000
0110
0000
0000
0000
0001
0000
1000
0000
0100
0000
0000
0000
0011
,
0000
0000
0000
2200
0000
0000
0000
0000
3300
0000
0000
0000
0000
0000
0000
0000
;

//---------------dance-single - ----------------
#NOTEDATA:;
#CHARTNAME:;
#STEPSTYPE:dance-single;
#DESCRIPTION:;
#CHARTSTYLE:;
#DIFFICULTY:Hard;
#METER:8;
#RADARVALUES:0.563722,0.572876,0.328256,0.153652,0.087302,565.000000,518.000000,47.000000,22.000000,0.000000,0.000000,0.000000,0.000000,0.000000,0.563722,0.572876,0.328256,0.153652,0.087302,565.000000,518.000000,47.000000,22.000000,0.000000,0.000000,0.000000,0.000000,0.000000;
#CREDIT:;
#DISPLAYBPM:164.000000;
#NOTES:
0000
0000
0000
0000
,
0000
0000
0000
0000
,
0000
0000
0000
0000
,
0000
0000
0000
0000
,
0101
0000
0001
1000
0000
0001
0100
0000
,
0010
0000
1000
0100
1000
0000
0001
0000
,
1100
0000
1000
0001
0000
1000
0010
0000
,
0100
0000
0010
1000
0001
0100
0010
0000
,
1001
1000
0001
0020
0000
0000
0031
0100
,
0001
0020
0000
0130
1000
0000
1000
0010
,
0100
0000
0000
0110
0000
0000
1010
0000
,
0000
0000
1000
0001
0010
0100
1000
0000
,
1100
1000
0010
0200
0000
0000
0301
1000
,
0001
0200
0000
0310
1000
0000
1000
0100
,
0020
0001
1000
0031
,
0100
0000
0110
0000
0001
1000
0100
0000
,
1100
0110
1001
0110
,
1001
0001
1000
0020
0000
0000
1030
0000
,
1000
0100
1000
0001
0100
0000
0101
0000
,
0001
0010
0100
1000
0000
1000
0010
0100
,
0001
0000
0001
0100
0001
0000
0101
0000
,
1000
0100
0010
0001
0000
0001
0100
0010
,
1000
0000
1000
0001
0100
0000
0110
0000
,
0001
0010
0001
0000
0010
1000
0010
0000
,
0001
1000
0001
0100
0010
0100
0001
0000
,
1001
0000
1000
0100
0000
0010
0001
1000
,
0010
0000
0110
0000
0001
0010
0001
1000
,
0000
1000
0100
0010
0100
0000
0110
0000
,
1000
0100
1000
0010
0000
0100
0001
1000
,
0100
0000
1001
0000
0010
1000
0001
0010
,
0000
0100
1000
0001
0100
0000
1010
0000
,
1000
0100
1000
0001
0000
0001
0100
0001
,
0010
0000
0011
0000
0010
0001
0010
0100
,
0000
0100
1000
0001
1000
0000
1001
0000
,
1000
0010
1000
0100
0000
0100
0010
0100
,
1000
0000
0101
0000
0001
0100
0010
1000
,
0000
1000
0001
1000
0010
0000
1001
0000
,
0100
0001
0010
0100
1000
0001
1000
0100
,
1000
0000
0000
0001
1000
0000
0000
0000
0010
0000
0100
0000
0001
0000
1000
0000
,
0100
0000
0010
0000
0001
0000
0010
0000
0100
0000
0000
1000
0100
0000
0000
0000
,
1000
0010
0100
0010
1000
0001
0100
0010
,
1000
0000
0000
0001
0010
0000
0000
0000
0001
0000
0100
0000
0010
0000
0100
0000
,
0001
0000
1000
0000
0010
0000
0100
0000
0001
0000
0000
0100
0001
0000
0000
0000
,
0011
0000
0010
0001
0000
0001
1000
0010
,
0100
0000
0010
1000
0010
0000
0000
0000
1001
0000
0000
0000
1000
0000
0100
0000
,
0000
0000
1000
0000
0001
0000
0100
0000
0010
0000
0100
0001
0100
0000
0000
0000
,
0110
0000
0100
1000
0000
1000
0001
0100
,
0010
0000
0100
0001
0100
0000
0000
0000
1010
0000
0000
0000
0010
0000
0100
0000
,
0000
0000
0001
0000
1000
0000
0010
0000
0100
0000
0001
1000
0001
0000
0000
0000
,
1001
0000
0000
0000
,
0000
0000
0000
0000
0001
0000
0000
0001
0010
0000
0000
0000
0100
0000
0000
1000
,
0001
0000
0101
0000
0001
1000
0010
0000
,
1000
0000
0000
0000
0100
0000
0000
0010
0001
0000
0000
0000
1001
0000
0000
0000
,
0010
0000
1000
0000
0100
0000
0000
0000
1000
0000
0000
0000
0010
0000
0000
0100
,
0001
0000
1100
0000
0100
0010
0001
0000
,
0010
0000
0000
0000
0100
0000
0000
1000
0010
0000
0000
0000
0110
0000
0000
0000
,
0100
0000
0001
0000
1000
0000
0000
1000
0010
0000
0000
0000
0100
0000
0000
0001
,
1000
0000
1100
0000
1000
0001
0010
0000
,
0001
0000
0000
0000
0100
0000
0000
0010
1000
0000
0000
0000
1001
0000
0000
0000
,
0010
0000
0001
0000
0100
0000
0000
0000
0001
0000
0000
0000
0010
0000
0000
0100
,
1000
0000
0101
0000
0100
0010
1000
0000
,
0010
0000
0000
0000
0100
0000
0000
0001
0010
0000
0000
0000
0110
0000
0000
0000
,
0100
1000
0001
0000
0000
0000
0000
0000
,
0000
0000
0000
0000
,
0201
0000
0000
1000
0000
0000
0020
0300
,
1000
0000
0100
0000
2000
0030
0000
0100
,
0000
0000
0200
3000
0001
0000
1000
0000
,
0020
0300
0000
0001
0000
0000
0002
0030
,
0003
2000
0000
0000
3100
0000
0100
0010
,
0000
0010
0001
1000
0010
0100
0001
1000
,
0100
0000
1000
0200
0000
0010
0310
0000
,
0101
0000
0001
0100
0001
0000
1000
0020
,
0000
0100
0130
0000
1001
0000
0001
1000
,
0100
0000
0100
0020
0000
0001
0031
0000
,
0101
0000
1100
0000
0010
1000
0100
1000
,
0001
1000
0001
0100
0010
0100
0001
0100
,
0001
0010
0001
1000
0100
0000
0001
0010
,
0001
1000
0100
0000
0010
1000
0010
0001
,
0100
0000
0010
1000
0010
0001
0100
0000
,
1000
0100
0001
0100
1000
0000
1000
0100
,
0001
0100
1000
0000
0110
0000
0001
0020
,
0000
0031
0200
0000
1300
0200
0000
0310
,
1000
0100
1000
0001
0010
0001
0100
0010
,
0100
0001
1000
0001
0100
1000
0100
0010
,
1000
0010
0100
0001
0100
0010
0001
0010
,
1000
0001
1000
0100
0010
0100
1000
0001
,
1000
0010
1000
0010
0100
0001
0010
0100
,
1000
0001
1000
0100
0010
0001
0100
0010
,
0200
0000
0000
0000
,
0000
0000
0000
0000
0000
0000
0301
1000
,
0100
0000
0100
0001
0000
0001
0100
0010
,
1000
0100
1000
0000
0001
0010
0001
0000
,
1010
0000
1000
0001
0000
0001
0010
0100
,
1000
0000
1000
0100
0001
0000
0110
0000
,
1000
0000
0001
0000
1001
0000
0000
0000
0000
0000
0000
0000
0000
0000
0000
0010
,
0000
0000
0000
1000
0000
0000
0000
0001
0000
1000
0000
0100
0000
0000
0000
0010
,
0000
0000
0000
2002
0000
0000
0000
0000
3003
0000
0000
0000
0000
0000
0000
0000
;

//---------------dance-single - ----------------
#NOTEDATA:;
#CHARTNAME:;
#STEPSTYPE:dance-single;
#DESCRIPTION:;
#CHARTSTYLE:;
#DIFFICULTY:Medium;
#METER:6;
#RADARVALUES:0.394107,0.471780,0.258414,0.460955,0.020953,395.000000,358.000000,37.000000,66.000000,0.000000,0.000000,0.000000,0.000000,0.000000,0.394107,0.471780,0.258414,0.460955,0.020953,395.000000,358.000000,37.000000,66.000000,0.000000,0.000000,0.000000,0.000000,0.000000;
#CREDIT:;
#DISPLAYBPM:164.000000;
#NOTES:
0000
0000
0000
0000
,
0000
0000
0000
0000
,
0000
0000
0000
0000
,
0000
0000
0000
0000
,
1000
0001
1000
0010
,
0001
0100
0001
1000
,
0001
0010
0100
0010
,
0001
1000
0010
0100
,
1002
0000
0000
0013
0000
0000
2001
0000
,
0000
3010
0000
0000
1000
0000
0001
0000
,
0100
0010
1000
0100
,
0001
0010
0100
0000
1000
0000
0001
0000
,
2001
0000
0000
3100
0000
0000
1002
0000
,
0000
0013
0000
0000
1001
0000
0100
0000
,
0210
0000
1000
0000
,
0010
0000
0301
0000
1000
0001
0100
0000
,
0110
1001
0110
1001
,
1000
0000
0000
0020
0000
0000
0130
0000
,
0001
0000
0001
0010
0100
0000
0110
0000
,
0001
0000
1000
0200
0000
0000
0310
0000
,
0001
0100
0001
0000
1000
0000
1001
0000
,
0010
0000
0000
0200
0000
0000
0301
0000
,
1000
0000
1000
0100
0010
0000
1001
0000
,
0001
0000
0100
0020
0000
0000
1030
0000
,
0100
0010
0001
0000
1000
0000
1001
0000
,
0001
1000
0100
0010
,
0001
1000
0010
0000
0100
0000
0001
0000
,
0010
0000
0100
0000
1000
0010
0100
0000
,
0010
1000
0001
0100
,
0010
0100
0001
0000
0010
0000
0100
0000
,
1000
0000
0001
0000
1000
0100
0010
0000
,
0001
1000
0001
0100
,
0010
1000
0100
0000
1000
0000
0010
0000
,
0100
0000
0001
0000
0010
0100
1000
0000
,
0001
1000
0010
0100
,
0001
1000
0010
0000
1000
0000
0100
0000
,
0010
0000
0001
0000
1000
0100
0010
0000
,
0001
0100
0001
0000
1000
0000
0010
0000
,
1000
0100
1000
0000
0010
0100
0010
0000
,
1000
0000
0001
0000
0100
0010
0100
0000
,
0001
1000
0001
0000
0010
0000
0100
0000
,
1000
0100
1000
0000
0010
1000
0001
0000
,
0010
0000
0100
0000
1000
0100
1000
0000
,
1002
0000
0000
0023
0000
0000
0031
0000
,
1000
0000
0100
0000
2000
0000
0000
3020
,
0000
1030
0001
1000
,
0020
0000
0000
0230
0000
0000
0301
0000
,
0010
0100
1000
0000
0200
0000
0000
0320
,
0000
0000
0031
0000
1000
0001
0100
0000
,
0110
0000
0000
0000
,
0000
1000
2010
0100
,
3010
0102
0010
0103
,
2001
0010
3001
0210
,
0301
1000
0010
0000
1002
0000
0100
0000
,
1003
0120
1000
0130
,
0012
1000
0013
1200
,
0310
0100
1000
0000
0021
0000
0100
0000
,
0031
1200
0010
1300
,
0120
0001
0130
2001
,
3100
1000
0001
0000
0210
0000
1000
0000
,
0310
1002
0010
1003
,
2100
0010
3100
0012
,
0103
0001
1000
0000
0000
0000
0000
0000
,
0000
0000
0000
0000
,
0201
0000
0000
1000
0000
0000
0320
0000
,
1000
0000
0100
0000
2030
0000
0000
0100
,
0000
3200
0001
1000
,
0320
0000
0000
0001
0000
0000
0032
0000
,
0000
0203
0000
0000
0320
0000
0000
2030
,
0000
0000
3002
0000
0000
0023
0000
0000
,
0230
0000
0000
0001
0000
0000
0010
0000
,
1000
0000
0310
0000
2000
0000
0000
0100
,
0000
0001
0100
0010
,
3002
0000
0000
0203
0000
0000
0310
0000
,
1000
0000
1001
0000
0001
0000
0001
1000
,
0000
1000
0100
0000
0000
0110
0000
0000
,
2001
0000
0000
0100
0000
0000
3020
0000
,
0100
0000
1030
0000
0200
0000
0000
0001
,
0000
0010
0001
0310
,
0002
0000
0000
0010
0000
0000
2003
0000
,
0000
3200
0000
0000
0320
0000
0000
0032
,
0000
0000
0203
0000
0000
0320
0000
0000
,
2030
0000
0000
0100
0000
0000
3020
0000
,
0001
0000
0130
0000
0002
0000
0000
0100
,
0000
2003
0010
0001
,
3020
0000
0000
0100
0000
0000
1030
0000
,
0100
0000
0001
0000
0010
0000
0010
0001
,
1000
0100
0010
0000
0001
0100
0010
1000
,
0200
0000
0000
0000
,
0000
0000
0000
0000
0000
0000
1300
0010
,
1000
0000
0000
0001
0000
0000
1000
0010
,
0100
0000
0001
0000
1000
0001
0100
0000
,
0001
0000
0000
1000
0000
0000
0010
1000
,
0001
0000
0010
0100
1000
0000
0001
0000
,
0100
0000
0100
0000
0100
0000
0000
0000
0000
0000
0000
0000
0000
0000
0000
0010
,
0000
0000
0000
0010
0000
0000
0000
0010
0000
0000
0000
1000
0000
0000
0000
0001
,
0000
0000
0000
2002
0000
0000
0000
0000
3003
0000
0000
0000
0000
0000
0000
0000
;

//---------------dance-single - ----------------
#NOTEDATA:;
#CHARTNAME:;
#STEPSTYPE:dance-single;
#DESCRIPTION:;
#CHARTSTYLE:;
#DIFFICULTY:Easy;
#METER:4;
#RADARVALUES:0.265398,0.302305,0.041905,0.356192,0.003492,266.000000,260.000000,6.000000,51.000000,0.000000,0.000000,0.000000,0.000000,0.000000,0.265398,0.302305,0.041905,0.356192,0.003492,266.000000,260.000000,6.000000,51.000000,0.000000,0.000000,0.000000,0.000000,0.000000;
#CREDIT:;
#DISPLAYBPM:164.000000;
#NOTES:
// measure 0
0000
0000
0000
0000
,  // measure 1
0000
0000
0000
0000
,  // measure 2
0000
0000
0000
0000
,  // measure 3
0000
0000
0000
0000
,  // measure 4
2000
0000
3001
0010
,  // measure 5
0100
1000
0100
0000
,  // measure 6
0002
0000
1003
0100
,  // measure 7
0001
0100
1000
0000
,  // measure 8
2001
0000
3010
0000
,  // measure 9
1002
0000
0013
0000
,  // measure 10
0100
0000
0010
0000
,  // measure 11
0001
0100
0010
1000
,  // measure 12
0002
0000
1003
0000
,  // measure 13
2000
0000
3001
0000
,  // measure 14
1000
0100
0001
0100
,  // measure 15
1000
0010
0100
0000
,  // measure 16
0001
0001
1000
1000
,  // measure 17
2002
3003
0020
0030
,  // measure 18
0001
0100
0010
0000
,  // measure 19
2000
3000
0002
0003
,  // measure 20
1000
0100
0010
0000
,  // measure 21
0200
0300
0020
0030
,  // measure 22
0001
0100
1000
0000
,  // measure 23
0020
0030
0200
0300
,  // measure 24
0001
1000
0100
0000
,  // measure 25
1000
0010
1000
0100
,  // measure 26
0010
0000
0001
0010
,  // measure 27
0001
0100
0010
0000
,  // measure 28
1000
0001
1000
0100
,  // measure 29
0001
0000
0001
1000
,  // measure 30
0001
0100
1000
0000
,  // measure 31
0001
0100
0001
0010
,  // measure 32
0100
1000
1000
0100
,  // measure 33
1000
0010
0100
0001
,  // measure 34
0001
0010
1000
1000
,  // measure 35
0010
0100
1000
0010
,  // measure 36
0001
0001
0010
0100
,  // measure 37
1000
0001
1000
0001
,  // measure 38
0100
0010
1000
0100
,  // measure 39
1000
0100
0001
0010
,  // measure 40
0100
0010
0100
0010
,  // measure 41
1000
0001
0010
0100
,  // measure 42
0010
0001
1000
0100
,  // measure 43
0001
0100
0001
1000
,  // measure 44
0100
0010
1000
0100
,  // measure 45
1000
0010
0001
0010
,  // measure 46
0100
0001
0100
1000
,  // measure 47
0100
0001
1000
0001
,  // measure 48
1000
0001
0010
0100
,  // measure 49
1000
0000
0000
0000
,  // measure 50
0000
0001
0020
0000
,  // measure 51
0130
0000
1000
0001
,  // measure 52
2000
0000
3010
0000
,  // measure 53
0001
0100
0002
0000
,  // measure 54
0013
0000
0100
1000
,  // measure 55
0020
0000
0130
0000
,  // measure 56
0001
1000
0200
0000
,  // measure 57
0310
0000
0001
1000
,  // measure 58
0020
0000
1030
0000
,  // measure 59
0100
1000
0002
0000
,  // measure 60
0103
0000
0010
1000
,  // measure 61
0200
0000
0310
0000
,  // measure 62
0100
1000
0000
0000
,  // measure 63
0000
0000
0000
0000
,  // measure 64
0201
0000
0000
0320
,  // measure 65
0000
0000
2030
0000
,  // measure 66
0000
3200
0000
0000
,  // measure 67
0320
0000
0000
0032
,  // measure 68
0000
2003
0000
0000
3020
0000
0000
0230
,  // measure 69
0000
0000
0302
0000
0000
0023
0000
0000
,  // measure 70
0230
0000
0000
2300
,  // measure 71
0000
0000
3020
0000
,  // measure 72
0000
0230
0000
0000
,  // measure 73
0302
0000
0000
0000
,  // measure 74
0000
0000
0000
0000
2003
0000
0000
3002
,  // measure 75
0000
0000
0203
0000
0000
0320
0000
0000
,  // measure 76
2030
0000
0000
3100
,  // measure 77
0010
0001
0002
0000
,  // measure 78
0000
1003
0010
0100
,  // measure 79
0020
0000
0000
1030
,  // measure 80
0001
0100
0001
0010
,  // measure 81
0100
1000
0001
1000
,  // measure 82
0010
0100
0001
0010
,  // measure 83
1000
0010
0001
0100
,  // measure 84
0010
1000
0100
1000
,  // measure 85
0001
0100
0010
1000
,  // measure 86
0001
0010
0100
1000
,  // measure 87
0001
1000
0100
0010
,  // measure 88
0200
0000
0000
0000
,  // measure 89
0000
0000
0000
0300
,  // measure 90
1000
0000
0001
1000
,  // measure 91
0010
0100
0001
0000
,  // measure 92
0010
0000
0100
1000
,  // measure 93
0001
0010
0100
0000
,  // measure 94
0220
0000
0000
0000
0330
0000
0000
0000
0000
0000
0000
0000
0000
0000
0000
2002
,  // measure 95
0000
0000
0000
0000
,  // measure 96
0000
0000
0000
3003
0000
0000
0000
0000
0000
0000
0000
0000
0000
0000
0000
0000
;

//---------------dance-single - ----------------
#NOTEDATA:;
#CHARTNAME:;
#STEPSTYPE:dance-single;
#DESCRIPTION:;
#CHARTSTYLE:;
#DIFFICULTY:Beginner;
#METER:2;
#RADARVALUES:0.133697,0.196954,0.006984,0.230478,0.000000,134.000000,133.000000,1.000000,33.000000,0.000000,0.000000,0.000000,0.000000,0.000000,0.133697,0.196954,0.006984,0.230478,0.000000,134.000000,133.000000,1.000000,33.000000,0.000000,0.000000,0.000000,0.000000,0.000000;
#CREDIT:;
#DISPLAYBPM:164.000000;
#NOTES:
// measure 0
0000
0000
0000
0000
,  // measure 1
0000
0000
0000
0000
,  // measure 2
0000
0000
0000
0000
,  // measure 3
0000
0000
0000
0000
,  // measure 4
0001
0000
0010
0000
,  // measure 5
1000
0000
0000
0000
,  // measure 6
1000
0000
0001
0000
,  // measure 7
1000
0000
0000
0000
,  // measure 8
0100
0000
0000
0000
,  // measure 9
0010
0000
0000
0000
,  // measure 10
0001
0000
0001
0000
,  // measure 11
1000
0000
1000
0000
,  // measure 12
0100
0000
0000
0000
,  // measure 13
0010
0000
0000
0000
,  // measure 14
0100
0000
0000
0000
,  // measure 15
0010
0000
0000
0000
,  // measure 16
0001
0000
1000
0000
,  // measure 17
0001
0000
0000
0000
,  // measure 18
0100
0000
0000
0000
,  // measure 19
1000
0000
0000
0000
,  // measure 20
1000
0000
0000
0000
,  // measure 21
0010
0000
0000
0000
,  // measure 22
0100
0000
0000
0000
,  // measure 23
0001
0000
0000
0000
,  // measure 24
0001
0000
0000
0000
,  // measure 25
0010
0000
0010
0000
,  // measure 26
0100
0000
0010
0000
,  // measure 27
0010
0000
0100
0000
,  // measure 28
0010
0000
0010
0000
,  // measure 29
0100
0000
0010
0000
,  // measure 30
0010
0000
0100
0000
,  // measure 31
1000
0000
1000
0000
,  // measure 32
0001
0000
1000
0000
,  // measure 33
1000
0000
0001
0000
,  // measure 34
1000
0000
1000
0000
,  // measure 35
0001
0000
1000
0000
,  // measure 36
1000
0000
0001
0000
,  // measure 37
0100
0000
0000
0000
,  // measure 38
0010
0000
1000
0000
,  // measure 39
0000
0000
0100
0000
,  // measure 40
0010
0000
0000
0000
,  // measure 41
0001
0000
0100
0000
,  // measure 42
0000
0000
0010
0000
,  // measure 43
1000
0000
0000
0000
,  // measure 44
0001
0000
0010
0000
,  // measure 45
0000
0000
0100
0000
,  // measure 46
1000
0000
0000
0000
,  // measure 47
0100
0000
0001
0000
,  // measure 48
0000
0000
0100
0000
,  // measure 49
1000
0000
0000
0000
,  // measure 50
0000
0000
0001
0000
,  // measure 51
0010
0000
0100
0000
,  // measure 52
1000
0000
0010
0000
,  // measure 53
0100
0000
0001
0000
,  // measure 54
0010
0000
0100
0000
,  // measure 55
1000
0000
0010
0000
,  // measure 56
0100
0000
0001
0000
,  // measure 57
0100
0000
1000
0000
,  // measure 58
0010
0000
0001
0000
,  // measure 59
0100
0000
1000
0000
,  // measure 60
0010
0000
0001
0000
,  // measure 61
0100
0000
1000
0000
,  // measure 62
0010
0000
0000
0000
,  // measure 63
0000
0000
0000
0000
,  // measure 64
0002
0000
0003
0200
,  // measure 65
0000
0300
0020
0000
,  // measure 66
0030
2000
0000
3000
,  // measure 67
0200
0000
0300
0020
,  // measure 68
0000
0030
0200
0000
,  // measure 69
0300
0020
0000
0030
,  // measure 70
0200
0000
0300
2000
,  // measure 71
0000
3000
0002
0000
,  // measure 72
0003
0020
0000
0030
,  // measure 73
0200
0000
0300
2000
,  // measure 74
0000
3000
0002
0000
,  // measure 75
0003
2000
0000
3000
,  // measure 76
0020
0000
0030
0020
,  // measure 77
0000
0030
0200
0000
,  // measure 78
0300
0200
0000
0300
,  // measure 79
0002
0000
0003
0002
,  // measure 80
0000
0003
2000
0000
,  // measure 81
3000
2000
0000
3000
,  // measure 82
0200
0000
0300
0020
,  // measure 83
0000
0030
0002
0000
,  // measure 84
0003
2000
0000
3000
,  // measure 85
0020
0000
0030
0200
,  // measure 86
0000
0300
0002
0000
,  // measure 87
0003
2000
0000
3000
,  // measure 88
0200
0000
0000
0000
,  // measure 89
0000
0000
0300
0000
,  // measure 90
0010
0000
0010
0000
,  // measure 91
0001
0000
0100
0000
,  // measure 92
1000
0000
0100
0000
,  // measure 93
0001
0000
0100
0000
,  // measure 94
1001
0000
0000
0000
;
