#VERSION:0.83;
#TITLE:Paradise Found & Homestead;
#SUBTITLE:Idyllshire;
#ARTIST:Masayoshi Soken;
#TITLETRANSLIT:;
#SUBTITLETRANSLIT:;
#ARTISTTRANSLIT:;
#GENRE:Heavensward;
#ORIGIN:;
#CREDIT:[Ness];
#BANNER:Final Fantasy XIV - Paradise Found & Homestead.png;
#BACKGROUND:Final Fantasy XIV - Paradise Found & Homestead-bg.png;
#PREVIEWVID:;
#JACKET:Final Fantasy XIV - Paradise Found & Homestead-jacket.png;
#CDIMAGE:;
#DISCIMAGE:Final Fantasy XIV - Paradise Found & Homestead-bg2.png;
#LYRICSPATH:;
#CDTITLE:;
#MUSIC:Final Fantasy XIV - Paradise Found & Homestead.mp3;
#OFFSET:0.010000;
#SAMPLESTART:10.115382;
#SAMPLELENGTH:8.999999;
#SELECTABLE:YES;
#BPMS:0.000=160.000,
183.000=114.000,
290.000=95.000,
293.000=114.000;
#STOPS:;
#DELAYS:;
#WARPS:;
#TIMESIGNATURES:0.000=3=4,
183.000=4=4,
215.000=3=4;
#TICKCOUNTS:0.000=2;
#COMBOS:0.000=1;
#SPEEDS:0.000=1.000=0.000=0;
#SCROLLS:0.000=1.000;
#FAKES:;
#LABELS:0.000=Song Start;
#LASTSECONDHINT:129.497498;
#BGCHANGES:182.000=Final Fantasy XIV - Paradise Found & Homestead-bg2.png=1.000=0=0=1===CrossFade_Fastest==,
99999=-nosongbg-=1.000=0=0=0 // don't automatically add -songbackground-
;
#KEYSOUNDS:;
#ATTACKS:
;

//---------------dance-single - [Ness]----------------
#NOTEDATA:;
#CHARTNAME:[Ness];
#STEPSTYPE:dance-single;
#DESCRIPTION:[Ness];
#CHARTSTYLE:;
#DIFFICULTY:Hard;
#METER:7;
#RADARVALUES:0.439177,0.514252,0.517300,0.155190,0.003695,416.000000,346.000000,70.000000,21.000000,0.000000,0.000000,0.000000,0.000000,0.000000,0.439177,0.514252,0.517300,0.155190,0.003695,416.000000,346.000000,70.000000,21.000000,0.000000,0.000000,0.000000,0.000000,0.000000;
#CREDIT:[Ness];
#NOTES:
// measure 0
0000
0000
0000
0000
,  // measure 1
0000
0000
0000
0000
,  // measure 2
0000
0000
0000
0000
,  // measure 3
0000
0000
0000
0000
,  // measure 4
0000
0000
0000
0000
,  // measure 5
0000
0000
0000
0000
,  // measure 6
0000
0000
0000
0000
0000
0000
0001
1000
,  // measure 7
0000
0010
0000
1000
0001
0010
0100
0000
,  // measure 8
0110
0000
0001
0100
0000
0010
0000
1000
,  // measure 9
0100
0000
0110
0000
1001
0000
0010
0001
,  // measure 10
0000
1000
0000
0010
1000
0001
0010
0000
,  // measure 11
0100
0000
1000
0100
0000
0010
0000
0001
,  // measure 12
0100
0110
1010
1001
,  // measure 13
0000
0011
0000
1000
0010
1000
0100
0000
,  // measure 14
0101
0000
1100
0000
0000
0011
0000
1000
,  // measure 15
0010
0110
0101
1001
,  // measure 16
0000
0011
0000
0001
0010
0001
0100
0000
,  // measure 17
0110
0000
1001
0000
0000
1010
0000
1000
,  // measure 18
0001
1001
0100
1001
,  // measure 19
0000
1010
0000
1001
0010
1000
0100
0000
,  // measure 20
0101
0000
1001
0000
0000
0011
0000
1000
,  // measure 21
0010
0110
0101
1001
,  // measure 22
0000
0011
0000
0001
0010
0001
0100
0000
,  // measure 23
0110
0000
1001
0000
0000
1010
0000
1001
,  // measure 24
0100
0000
0110
0000
1001
0000
0010
1000
,  // measure 25
0100
1000
0001
0010
0200
0000
0000
0000
,  // measure 26
0000
0000
1300
0100
0010
0001
0100
0010
,  // measure 27
2000
0000
0001
0000
0100
0000
3001
0001
,  // measure 28
0000
0100
0000
0010
0100
0000
0110
0000
,  // measure 29
1010
0000
1000
0010
0000
0010
1000
0100
,  // measure 30
0010
0000
0000
0000
0000
0000
0001
1000
,  // measure 31
0000
0010
0000
0100
0110
0000
1001
0000
,  // measure 32
1010
0000
1000
0100
0000
0100
0001
0100
,  // measure 33
0010
0000
0001
0000
0100
0000
0001
0002
,  // measure 34
0000
0010
0000
1003
0010
0001
0010
0000
,  // measure 35
0100
0000
1000
2000
0000
0010
0000
0001
,  // measure 36
3010
1000
0010
0000
0100
0000
0001
0002
,  // measure 37
0000
0010
0000
1000
0013
0001
0100
0000
,  // measure 38
0010
0000
1000
2000
0000
0100
0000
0001
,  // measure 39
3100
1000
0010
0100
0010
0000
2010
0010
,  // measure 40
0000
3100
0000
0100
0010
0001
0100
0000
,  // measure 41
0100
0000
0102
0100
0000
0013
0000
0001
,  // measure 42
0010
1000
0010
0000
1001
0000
0120
0100
,  // measure 43
0000
1030
0000
0001
0010
0100
1000
0000
,  // measure 44
0110
0000
0001
0100
0000
0010
0000
1000
,  // measure 45
0100
0101
1100
1002
,  // measure 46
0103
0000
2010
0000
3001
1000
0010
1000
,  // measure 47
0100
0000
0110
0000
0001
0000
1000
1000
,  // measure 48
0001
0000
0010
0000
0001
1000
0010
0000
,  // measure 49
0200
0000
1000
0000
0301
0000
0010
0010
,  // measure 50
0100
0000
1020
0000
1030
0100
0010
0001
,  // measure 51
0100
0000
0010
0000
1000
0000
0001
0001
,  // measure 52
0010
0000
0110
0000
0100
1000
0001
0100
,  // measure 53
0010
1000
0002
0000
1003
0000
0001
0100
,  // measure 54
0001
0010
1000
0010
0001
0100
0001
0010
,  // measure 55
1000
0010
0001
0100
0001
0010
0100
1000
,  // measure 56
0001
0000
0000
0000
1000
0000
0000
0000
0100
1000
0000
0000
0001
0000
0000
0000
0010
0000
0000
0000
0100
0000
0000
0000
2000
0000
0000
0000
0000
0000
0000
0000
,  // measure 57
0000
3010
0000
1000
0001
1000
0200
0000
,  // measure 58
0310
0000
0002
0000
0000
0013
0000
0001
,  // measure 59
2000
0000
0000
0000
3001
0010
0001
0100
,  // measure 60
0010
1000
0100
0000
0011
0000
0110
0000
,  // measure 61
1100
0000
1000
0001
1000
0200
0000
0010
,  // measure 62
0310
0000
0001
0100
0001
0000
1000
0010
,  // measure 63
0000
1000
1010
0000
0001
1000
1001
0000
,  // measure 64
0100
0000
0001
0011
0000
0011
0011
0000
,  // measure 65
0001
1000
1001
0000
0100
0000
0010
1010
,  // measure 66
0000
1010
1010
0000
0001
0100
1001
0000
,  // measure 67
0100
0000
0001
0101
0000
1001
0101
0000
,  // measure 68
0100
0001
1000
0100
1000
0000
0001
0010
,  // measure 69
0100
1000
0010
0100
0002
0000
1000
0000
,  // measure 70
0103
0000
1000
0100
0010
0001
0100
0010
,  // measure 71
2000
0001
0100
3001
,  // measure 72
0010
0100
1100
0101
,  // measure 73
1001
0010
0000
0000
;

//---------------dance-single - [Ness]----------------
#NOTEDATA:;
#CHARTNAME:[Ness];
#STEPSTYPE:dance-single;
#DESCRIPTION:[Ness];
#CHARTSTYLE:;
#DIFFICULTY:Medium;
#METER:6;
#RADARVALUES:0.228034,0.270659,0.066510,0.236480,0.000000,216.000000,207.000000,9.000000,32.000000,0.000000,0.000000,0.000000,0.000000,0.000000,0.228034,0.270659,0.066510,0.236480,0.000000,216.000000,207.000000,9.000000,32.000000,0.000000,0.000000,0.000000,0.000000,0.000000;
#CREDIT:[Ness];
#NOTES:
0000
0000
0000
0000
,
0000
0000
0000
0000
,
0000
0000
0000
0000
,
0000
0000
0000
0000
,
0000
0000
0000
0000
,
0000
0000
0000
0000
,
0000
0000
0000
0001
,
0000
0010
0000
0000
0100
0000
1000
0000
,
0001
0000
0100
0000
0000
0010
0000
0000
,
1000
0010
0100
0001
,
0000
0010
0000
0000
0100
0000
1000
0000
,
0001
0000
0100
0000
0000
0010
0000
0000
,
1000
0100
0010
0001
,
0000
1000
0000
0000
0001
1000
0001
0000
,
0100
0000
1000
0000
0000
0001
0000
0000
,
1000
0000
0000
0001
,
0000
1000
0000
0000
0001
0100
0001
0000
,
1000
0000
0001
0000
0000
0010
0000
0000
,
0100
0000
0000
1000
,
0000
0010
0000
0000
1000
0001
1000
0000
,
0100
0000
0010
0000
0000
0001
0000
0000
,
0100
0000
0000
0010
,
0000
1000
0000
0000
0001
1000
0001
0000
,
0010
0000
0100
0000
0000
1000
0000
0000
,
0001
0010
0100
1000
,
0010
1000
0200
0000
,
0000
0310
0001
0100
,
0010
1000
0001
0010
,
0000
0000
0100
1000
,
0100
0010
0000
0001
,
0100
0000
0000
0001
,
0000
0000
1000
0010
,
1000
0100
0000
0010
,
0001
0000
0000
1000
,
0000
0010
0000
0000
1000
0001
1000
0000
,
0100
0000
0010
0000
0000
0001
0000
0000
,
0101
0000
0000
0001
,
0000
0010
0000
0000
0001
1000
0001
0000
,
0100
0000
0010
0000
0000
1000
0000
0000
,
1100
0000
0000
0010
,
0000
0100
0000
0000
0001
1000
0001
0000
,
0010
0000
0100
0000
0000
1000
0000
0000
,
1001
0000
0000
0010
,
0000
0001
0000
0000
1000
0001
1000
0000
,
0010
0000
0100
0000
0000
0001
0000
0000
,
1001
0010
0100
0020
,
0030
0000
2000
0000
3000
0001
0010
0001
,
0100
0001
0000
0020
,
0030
0000
0200
0000
0300
1000
0020
0000
,
0000
0030
0000
2000
,
3000
0000
0002
0000
0003
0010
0001
0010
,
0001
0200
0300
0020
,
0030
0000
0200
0000
0300
0010
1000
0000
,
0100
0010
0000
0002
,
0100
0103
2000
0010
,
3010
0002
1000
1003
,
0200
0001
0301
2000
,
0000
3010
0000
0000
1001
0000
0010
0000
,
0001
0000
2000
0000
0000
3001
0000
0000
,
2002
0000
3003
0010
,
0001
0010
0100
0100
,
1000
0000
2000
0000
3000
0002
0000
0003
,
0200
0000
0300
0000
0000
0000
0000
0002
,
0000
0003
0020
0000
0030
0000
2002
0000
,
3003
0000
0000
0010
0000
0010
0010
0000
,
0000
0000
2002
0000
3003
0000
0000
0010
,
0000
1000
0010
0000
0000
0000
2002
0000
,
3003
0000
0000
0100
0000
0100
0100
0000
,
0010
1000
0100
0010
,
0001
0000
1000
0001
0200
0000
0000
0000
,
0300
0000
0010
0000
1000
0000
0001
1000
,
0200
0010
0010
0310
,
0000
0000
0001
1000
,
0001
0010
0000
0000
;

//---------------dance-single - [Ness]----------------
#NOTEDATA:;
#CHARTNAME:[Ness];
#STEPSTYPE:dance-single;
#DESCRIPTION:[Ness];
#CHARTSTYLE:;
#DIFFICULTY:Easy;
#METER:3;
#RADARVALUES:0.193196,0.216527,0.007390,0.125630,0.000000,183.000000,182.000000,1.000000,17.000000,0.000000,0.000000,0.000000,0.000000,0.000000,0.193196,0.216527,0.007390,0.125630,0.000000,183.000000,182.000000,1.000000,17.000000,0.000000,0.000000,0.000000,0.000000,0.000000;
#CREDIT:[Ness];
#NOTES:
0000
0000
0000
0000
,
0000
0000
0000
0000
,
0000
0000
0000
0000
,
0000
0000
0000
0000
,
0000
0000
0000
0000
,
0000
0000
0000
0000
,
0000
0000
0000
0001
,
0000
0010
0000
0000
0100
0000
0000
0000
,
0000
0000
1000
0000
0000
0010
0000
0000
,
1000
0000
0000
0001
,
0000
0100
0000
0000
0001
0000
0000
0000
,
0000
0000
0010
0000
0000
0100
0000
0000
,
0010
0000
0000
0001
,
0000
0010
0000
0000
0001
0000
0001
0000
,
0100
0000
0010
0000
0000
0010
0000
0000
,
1000
0000
0000
0100
,
0000
0010
0000
0000
0100
0000
0100
0000
,
1000
0000
0001
0000
0000
0001
0000
0000
,
0100
0000
0000
0010
,
0000
1000
0000
0000
0010
0000
1000
0000
,
0010
0000
0100
0000
0000
0001
0000
0000
,
0100
0000
0000
0001
,
0000
0010
0000
0000
0001
0000
0010
0000
,
0001
0000
1000
0000
0000
0100
0000
0000
,
1000
0000
0000
0001
,
0010
0001
0020
0000
,
0030
0100
1000
0100
,
2000
0000
3100
0010
,
0000
0000
0001
1000
,
0001
0100
0000
0010
,
1000
0000
0000
0010
,
0000
1000
0001
1000
,
0001
0010
0000
0001
,
0100
0000
0000
0010
,
0000
1000
0000
0000
0100
0000
0010
0000
,
0100
0000
0010
0000
0000
0001
0000
0000
,
0100
0000
0000
0010
,
0000
1000
0000
0000
0001
0000
1000
0000
,
0001
0000
0010
0000
0000
0100
0000
0000
,
0010
0000
0000
0001
,
0000
1000
0000
0000
0010
0000
0100
0000
,
0010
0000
0100
0000
0000
0001
0000
0000
,
1000
0000
0000
0100
,
0000
0010
0000
0000
0001
0000
1000
0000
,
0001
0000
1000
0000
0000
0010
0000
0000
,
0100
0000
0000
0002
,
0003
0020
0030
0100
,
1000
0001
0100
0020
,
0030
2000
3000
0001
,
0010
0100
1000
0002
,
0003
0020
0030
0001
,
0100
0010
0000
2000
,
3000
0200
0300
0010
,
0001
0100
0000
1000
,
0100
1000
0020
0030
,
0000
0100
0001
0100
,
0020
0030
1000
0001
,
0000
0010
0000
0000
0100
0000
1000
0000
,
0001
0000
1000
0000
0000
0010
0000
0000
,
0100
0001
1000
0010
,
1000
0010
0200
0300
,
0001
0000
0010
0000
0000
0100
0000
0000
,
2000
0000
3000
0001
,
0000
0010
0000
0000
0100
0000
1000
0000
,
0100
0000
1000
0000
0000
0010
0000
0000
,
0200
0000
0300
0010
,
0000
1000
0000
0000
0001
0000
0010
0000
,
0100
0000
1000
0000
0000
0001
0000
0000
,
0100
0010
0100
0010
,
1000
0001
0020
0000
,
0000
0130
1000
0001
,
0100
0010
0100
0020
,
0000
0000
1030
0100
,
0010
1001
0000
0000
;

//---------------dance-single - [Ness]----------------
#NOTEDATA:;
#CHARTNAME:[Ness];
#STEPSTYPE:dance-single;
#DESCRIPTION:[Ness];
#CHARTSTYLE:;
#DIFFICULTY:Beginner;
#METER:1;
#RADARVALUES:0.107683,0.162395,0.007390,0.000000,0.000000,102.000000,101.000000,1.000000,0.000000,0.000000,0.000000,0.000000,0.000000,0.000000,0.107683,0.162395,0.007390,0.000000,0.000000,102.000000,101.000000,1.000000,0.000000,0.000000,0.000000,0.000000,0.000000,0.000000;
#CREDIT:[Ness];
#NOTES:
0000
0000
0000
0000
,
0000
0000
0000
0000
,
0000
0000
0000
0000
,
0000
0000
0000
0000
,
0000
0000
0000
0000
,
0000
0000
0000
0000
,
0000
0000
0000
0001
,
0000
0001
0001
0000
,
0000
1000
0000
1000
,
1000
0000
0000
0010
,
0000
0010
0010
0000
,
0000
0100
0000
0100
,
0100
0000
0000
0010
,
0000
0000
1000
0000
,
0000
0100
0000
0000
,
0010
0000
0000
0001
,
0000
0000
1000
0000
,
0000
0001
0000
0000
,
0100
0000
0000
0010
,
0000
0000
1000
0000
,
0000
0001
0000
0000
,
0010
0000
0000
0100
,
0000
0000
1000
0000
,
0000
0001
0000
0000
,
0100
0000
0000
0010
,
0000
0000
1000
0000
,
0000
0100
0000
0000
,
0010
0000
0000
0001
,
0000
0000
0001
0000
,
0000
0100
0000
0000
,
0100
0000
0000
0010
,
0000
0000
0010
0000
,
0000
1000
0000
0000
,
1000
0000
0000
0100
,
0000
0000
0010
0000
,
0000
0001
0000
0000
,
1000
0000
0000
0010
,
0000
0000
0100
0000
,
0000
0001
0000
0000
,
0010
0000
0000
0100
,
0000
0000
0100
0000
,
0000
1000
0000
0000
,
0010
0000
0000
1000
,
0000
0000
0001
0000
,
0000
0010
0000
0000
,
0100
0000
0000
1000
,
0000
1000
0000
0001
,
0000
0010
0000
0001
,
0000
0001
0000
0100
,
0000
0000
0000
0010
,
0000
1000
0000
0001
,
0000
0001
0000
0010
,
0000
0100
0000
0010
,
0000
0000
0000
0100
,
0000
0000
1000
0000
,
0000
0010
0000
0100
,
0100
0100
0100
0100
,
0000
0000
0001
0000
,
0000
1000
0000
0000
,
0010
0000
0000
1000
,
0000
0000
0001
0000
,
0000
0010
0000
0100
,
0100
0000
0000
1000
,
0000
0000
0010
0000
,
0000
0001
0000
0000
,
0010
0000
0000
1000
,
0000
0000
0100
0000
,
0000
0010
0000
0000
,
0001
0000
0000
1000
,
0000
0000
0010
0000
,
0000
0001
0000
0000
,
0010
0000
0000
0100
,
0000
0000
1000
0000
,
0000
1001
0000
0000
;
