#TITLE:Locus - Duality;
#SUBTITLE:The Twinning;
#ARTIST:Masayoshi Soken;
#TITLETRANSLIT:;
#SUBTITLETRANSLIT:;
#ARTISTTRANSLIT:;
#GENRE:Death Unto Dawn;
#CREDIT:[Ness];
#BANNER:Final Fantasy XIV - Locus - Duality.png;
#BACKGROUND:Final Fantasy XIV - Locus - Duality-bg.png;
#LYRICSPATH:Final Fantasy XIV - Locus - Duality.lrc;
#CDTITLE:;
#MUSIC:Final Fantasy XIV - Locus - Duality.mp3;
#OFFSET:0.212000;
#SAMPLESTART:88.890610;
#SAMPLELENGTH:14.222221;
#LASTBEATHINT:267.000000;
#SELECTABLE:YES;
#DISPLAYBPM:135.000000;
#BPMS:0.000000=135.000000
,132.000000=162.000000
,135.000000=135.000000
;
#STOPS:39.500000=0.222000,
135.500000=0.222000
;
#BGCHANGES:;
#KEYSOUNDS:;
#ATTACKS:;

//---------------dance-single - ----------------
#NOTES:
     dance-single:
     :
     Challenge:
     9:
     0.504022,0.515728,0.350371,0.146667,0.008148,433.000000,390.000000,43.000000,18.000000,257.000000,0.000000,0.504022,0.515728,0.350371,0.146667,0.008148,433.000000,390.000000,43.000000,18.000000,257.000000,0.000000:
0000
0000
0000
0000
,
0000
0000
0000
0000
,
0000
0000
0000
0000
,
0000
0000
0000
0000
,
0000
0000
0000
0000
,
10M1
0000
1M00
0001
10M0
0000
M101
00M0
,
2M01
0000
31M0
0000
000M
0000
M000
000M
,
M110
0000
0M01
0010
100M
0000
M100
00M0
,
021M
M301
0M00
000M
,
0000
0000
0000
0000
,
1001
0100
0001
0010
0001
M100
0010
0001
,
0100
0010
0100
0001
M010
0001
0010
1000
,
0100
0010
0M01
1000
0001
1000
0010
0001
,
0100
10M0
0100
0001
1000
0001
0010
M100
,
0001
0100
1000
0100
0001
1000
01M0
0001
,
1000
0100
0001
0100
M010
0001
0010
1000
,
0100
0010
0001
M010
0100
0001
0010
1000
,
0100
00M1
0100
1000
0001
0010
0100
1000
,
1001
0101
0100
M001
0100
0100
0001
10M0
,
0001
0001
0010
1000
000M
1000
0010
0001
,
0000
0001
1000
01M0
1000
0001
0100
0001
,
1000
001M
0100
0001
0000
M010
0110
0000
,
1001
1100
1000
01M0
1000
1000
0001
1M00
,
0001
1000
1000
001M
0000
0100
0M00
0100
,
0M00
01M0
0M01
0000
0100
1000
0000
0100
,
0001
0100
1000
0100
0M00
0000
0000
0000
,
0010
1001
MMMM
0101
MMMM
1001
MMMM
1100
,
MMMM
1001
MMMM
0101
MMMM
1000
0010
0001
,
0010
1000
MMMM
0110
MMMM
0101
MMMM
0110
,
MMMM
1100
MMMM
0011
MMMM
0001
0010
1000
,
0010
0001
MMMM
1010
MMMM
0011
MMMM
1100
,
MMMM
0101
MMMM
0110
MMMM
0001
0100
1000
,
0100
0001
MMMM
1100
MMMM
0011
MMMM
0201
,
M0MM
0000
0000
0300
,
0110
1001
1000
00M1
1000
1000
0010
0100
,
M001
0010
0100
1000
00M0
0001
0100
0010
,
0000
0M01
0010
0100
1000
100M
0010
1000
,
00M1
0100
0010
100M
0000
0200
M3MM
0M00
,
1001
1010
0010
0100
M001
0010
0010
0100
,
10M0
0001
1000
1M00
0000
0101
0000
1100
,
000M
0010
0100
00M0
1000
0100
M000
0001
,
0100
1000
01M0
0001
M000
0M00
000M
0000
,
2001
0000
3010
0000
0001
0100
0010
1M00
,
0001
1000
0001
0100
0001
1000
001M
0100
,
0010
1000
0100
1000
001M
0100
0001
1000
,
0100
1000
0001
M010
0001
1000
0100
1000
,
0001
1M00
0001
0100
1000
0100
1000
0100
,
001M
1000
0001
0100
0001
1000
0M10
1000
,
0001
0010
0001
0010
1000
0010
M100
0010
,
0001
1000
0001
0100
0010
0010
M11M
0000
,
0010
1M00
0100
100M
0010
1M00
0001
0200
,
M0MM
0301
1000
001M
0100
M001
0010
2000
,
0MMM
3010
0001
M100
0010
010M
0001
0020
,
MM0M
0130
1000
00M1
1000
010M
0010
0002
,
MMM0
1003
0100
00M1
0100
M010
0001
0200
,
M0MM
0301
1000
001M
0100
M001
1000
0020
,
MM0M
1030
0100
M010
0001
01M0
0010
2000
,
0MMM
3100
0001
M100
0010
01M0
1000
0002
,
MMM0
1003
0010
010M
0010
1M00
0001
0200
,
M0MM
1300
0100
M001
0010
010M
0010
2000
,
0MMM
3001
0010
1M00
0010
M100
0001
0020
,
MM0M
0130
1000
00M1
1000
010M
0010
0M01
,
1000
001M
1000
00M1
0100
100M
0100
M001
,
0M10
100M
0010
M100
10M0
0M01
0100
001M
,
1M00
00M1
M100
100M
01M0
0M01
10M0
0M10
,
MMMM
0011
MMMM
1010
MMMM
0110
MMMM
1000
,
1001
0000
0202
0000
0000
0000
0303
M000
0M00
000M
00M0
0000
0000
0000
0000
0000
;

//---------------dance-single - ----------------
#NOTES:
     dance-single:
     :
     Hard:
     7:
     0.434181,0.511858,0.293334,0.073333,0.000000,373.000000,337.000000,36.000000,9.000000,0.000000,0.000000,0.434181,0.511858,0.293334,0.073333,0.000000,373.000000,337.000000,36.000000,9.000000,0.000000,0.000000:
0000
0000
0000
0000
,
0000
0000
0000
0000
,
0000
0000
0000
0000
,
0000
0000
0000
0000
,
0000
0000
0000
0000
,
1000
0000
0001
1000
0010
0000
0100
0000
,
1002
0103
0000
0000
,
0010
0000
1000
0100
0010
0000
0100
0000
,
2001
3010
0000
0000
,
0000
0000
0000
0000
,
1001
0000
0101
0000
1000
0001
1000
0010
,
1000
0100
1000
0000
0001
1000
0010
0100
,
0001
0010
0001
0000
0100
0001
1000
0100
,
1000
0010
0100
0000
0010
1000
0100
1000
,
0001
0010
0100
0000
0010
0001
1000
0001
,
0100
1000
0100
0000
0100
0010
1000
0001
,
0010
0100
0010
0000
0010
0001
1000
0010
,
0100
0001
0010
0100
1000
0010
0100
0000
,
1001
0000
0100
0000
1000
0100
0001
0000
,
0010
0001
1000
0001
0000
0010
0100
1000
,
0000
0001
0100
0000
0001
0010
1000
0000
,
1000
0010
1000
0100
0000
0010
0100
0000
,
1001
0000
0100
0000
0010
1000
0001
0000
,
0010
0001
0010
0100
0000
0010
0000
1001
,
0000
0001
1000
0000
0001
1000
0000
0001
,
0100
1000
0100
0001
0000
0000
0000
0000
,
1000
0100
0000
1100
0000
0100
0000
0101
,
0000
0001
0000
0101
0000
1000
0001
0100
,
0001
0010
0000
0011
0000
0010
0000
1010
,
0000
1000
0000
1010
0000
1000
0100
0001
,
0100
0010
0000
0110
0000
1000
0000
1010
,
0000
0100
0000
1100
0000
1000
0100
0001
,
0100
1000
0000
0110
0000
0010
0000
0011
,
0000
0000
0000
0000
,
1001
0000
0010
0000
0001
0010
0001
0000
,
1000
0100
0010
0001
0000
1000
0010
1000
,
0000
0100
1000
0000
0001
0100
0010
0000
,
1000
0001
1000
0100
0000
0010
0100
0000
,
0001
1000
0010
0100
0001
0000
1000
0000
,
0100
1000
0010
0100
0000
0010
1000
0100
,
0000
0010
0100
0000
1000
0100
0000
0001
,
0100
1000
0100
0001
0000
0000
0000
0000
,
2000
0000
3001
0000
0010
1000
0010
0000
,
0002
0000
1003
0000
0100
0001
0100
0000
,
2000
0000
3100
0000
0010
1000
0100
0000
,
0002
0000
0013
0000
0100
0001
0010
0000
,
0100
0001
0100
0001
1000
0100
1000
0000
,
0010
1000
0010
1000
0001
0010
0001
0000
,
0010
0100
0010
0001
1000
0001
1000
0001
,
0100
0010
1000
0001
0000
0000
0000
0000
,
1000
0010
0000
0011
0000
0001
0100
0001
,
0000
0101
0000
1100
0000
0010
0001
0010
,
0000
0011
0000
0101
0000
1000
0010
1000
,
0000
1010
0000
0011
0000
0100
1000
0100
,
0000
1100
0000
1010
0000
0010
0100
1000
,
0000
0110
0000
0101
0000
0001
1000
0100
,
0000
1001
0000
1010
0000
0100
0001
0010
,
0000
0101
0000
1001
0000
0010
0100
1000
,
0000
0001
1000
0010
0000
0100
0001
2000
,
0000
3100
1000
0010
0000
1000
0001
0200
,
0000
0310
1000
0001
0000
0010
0100
0020
,
0000
0031
1000
0100
0000
0010
0001
1000
,
0010
0100
0010
1000
0001
1000
0100
1000
,
0001
0100
0010
0100
0001
1000
0010
0100
,
0001
0010
0100
1000
0100
0010
0001
1000
,
0010
0100
0001
1000
0100
0010
0100
0010
,
1001
1100
0000
0000
0000
0000
0000
0000
;

//---------------dance-single - ----------------
#NOTES:
     dance-single:
     :
     Medium:
     6:
     0.311958,0.376445,0.130371,0.179260,0.000000,268.000000,252.000000,16.000000,22.000000,0.000000,0.000000,0.311958,0.376445,0.130371,0.179260,0.000000,268.000000,252.000000,16.000000,22.000000,0.000000,0.000000:
0000
0000
0000
0000
,
0000
0000
0000
0000
,
0000
0000
0000
0000
,
0000
0000
0000
0000
,
0000
0000
0000
0000
,
1000
0100
1000
0001
,
0100
0202
0303
0000
,
0001
0100
0001
1000
,
0100
2020
3030
0000
,
0000
0000
0000
0000
,
1000
0000
1100
0000
0001
1000
0001
0000
,
0100
0000
0101
0000
0010
0001
0010
0000
,
1000
0000
1001
0000
0010
0100
0010
0000
,
0100
0000
0110
0000
0100
0001
1000
0000
,
0100
0000
1100
0000
0010
0100
0001
0000
,
0010
0000
0110
0000
0001
0010
0100
0000
,
1000
0010
1000
0000
0001
0100
0001
0000
,
1000
0100
1000
0000
0001
0010
0001
0000
,
0020
0100
0000
0000
0001
0000
0031
0000
,
0100
1000
0010
0001
,
1000
0010
0100
0001
,
1000
0000
0001
0000
0000
0010
0100
0000
,
2000
0001
0000
0000
0100
0000
3100
0000
,
1000
0001
0100
0010
,
1000
0100
1000
0000
0100
1000
0000
0001
,
1000
0001
0000
1001
0000
0000
0000
0000
,
1000
0001
0000
0100
0000
0010
0000
1000
,
0000
0100
0000
0001
0000
0010
0000
0100
,
1000
0001
0000
0100
0000
0010
0000
1000
,
0000
0001
0000
0010
0000
0100
0000
1000
,
0010
0001
0000
0010
0000
0100
0000
1000
,
0000
0100
0000
0010
0000
0001
0000
1000
,
0100
0001
0000
0100
0000
0010
0000
1001
,
0000
0000
0000
0000
,
0002
0100
0000
0000
1000
0000
1003
0000
,
0001
0010
0100
1000
,
0010
0100
0001
1000
,
0100
0000
0010
0000
0000
0001
1000
0000
,
0020
1000
0000
0000
0100
0000
0130
0000
,
0001
1000
0100
0010
,
0001
0100
0001
0000
0100
0001
0000
1000
,
0001
0010
0000
0110
0000
0000
0000
0000
,
2000
3100
0002
0013
,
0100
0000
1000
0000
0001
0100
0010
0000
,
2000
3010
0002
0103
,
0010
0000
1000
0000
0001
1000
0100
0000
,
1000
0000
0001
0000
0100
0010
0100
0000
,
0001
0000
0010
0000
0100
1000
0001
0000
,
1000
0000
0010
0000
1000
0001
0100
0000
,
0001
1000
0001
1000
0000
0000
0000
0000
,
1000
0001
0100
0010
0000
0100
0000
0001
,
0000
2000
0000
3000
0000
0000
0000
0002
,
0000
0013
0100
0010
0000
0001
0000
1000
,
0000
0200
0000
0300
0000
0000
1000
0002
,
0000
0013
0100
0010
0000
0001
0000
0100
,
0000
0110
0000
0000
0000
0000
0001
2000
,
0000
3010
1000
0010
0000
1000
0000
0100
,
0000
1001
0000
0000
0000
0000
0000
0010
,
0000
0001
0100
0001
0000
0100
0000
0010
,
0000
2000
0000
3000
0000
0000
0000
0002
,
0000
0013
0100
1000
0000
0001
0000
0100
,
0000
0020
0000
0030
0000
0000
1000
0200
,
0000
0310
0100
1000
0000
0001
0000
0100
,
0000
0101
0000
0000
0000
0000
0000
2000
,
0000
3010
0100
0001
0000
0010
0000
0100
,
0000
1001
0000
0010
0000
0100
0000
0010
,
1001
0000
0000
0000
;

//---------------dance-single - ----------------
#NOTES:
     dance-single:
     :
     Easy:
     4:
     0.254921,0.268889,0.040741,0.130371,0.000000,219.000000,214.000000,5.000000,16.000000,0.000000,0.000000,0.254921,0.268889,0.040741,0.130371,0.000000,219.000000,214.000000,5.000000,16.000000,0.000000,0.000000:
// measure 0
0000
0000
0000
0000
,  // measure 1
0000
0000
0000
0000
,  // measure 2
0000
0000
0000
0000
,  // measure 3
0000
0000
0000
0000
,  // measure 4
0000
0000
0000
0000
,  // measure 5
0010
1000
0010
1000
,  // measure 6
0100
0000
0000
0000
,  // measure 7
0001
1000
0001
1000
,  // measure 8
0010
0000
0000
0000
,  // measure 9
0000
0000
0000
0000
,  // measure 10
0001
0100
0001
1000
,  // measure 11
0001
0100
0010
1000
,  // measure 12
0001
0100
0001
1000
,  // measure 13
0001
0100
0010
1000
,  // measure 14
0100
1000
0001
1000
,  // measure 15
0010
1000
0001
1000
,  // measure 16
0100
0001
1000
0001
,  // measure 17
0010
0001
1000
0001
,  // measure 18
2002
3003
0010
0000
,  // measure 19
0001
0100
0001
0000
,  // measure 20
1000
0100
1000
0001
,  // measure 21
0010
0100
1000
0000
,  // measure 22
2002
3003
0010
0000
,  // measure 23
1000
1000
0100
0000
,  // measure 24
0010
0001
0100
1000
,  // measure 25
0100
0001
0010
0000
,  // measure 26
0001
0001
1000
1000
,  // measure 27
0001
0100
1000
0010
,  // measure 28
0001
0001
1000
1000
,  // measure 29
0001
0100
1000
0010
,  // measure 30
0001
0100
0001
1000
,  // measure 31
0001
0100
1000
0010
,  // measure 32
0001
0100
0010
1000
,  // measure 33
0100
0000
0000
0000
,  // measure 34
2002
3003
0010
0010
,  // measure 35
1000
0100
0010
0000
,  // measure 36
0001
1000
0010
0100
,  // measure 37
0001
1000
0001
0000
,  // measure 38
2002
3003
0100
0100
,  // measure 39
0001
1000
0100
0000
,  // measure 40
0010
0100
0010
0001
,  // measure 41
1000
0100
0001
0000
,  // measure 42
2000
3001
0002
1003
,  // measure 43
0010
0100
0010
0000
,  // measure 44
0002
1003
2000
3001
,  // measure 45
0100
0010
0100
0000
,  // measure 46
2000
3100
0002
0103
,  // measure 47
1000
0100
0001
0000
,  // measure 48
2000
3010
0002
0013
,  // measure 49
1000
0001
0100
0000
,  // measure 50
0001
0001
1000
0010
,  // measure 51
1000
0100
0010
0100
,  // measure 52
1000
1000
0001
0100
,  // measure 53
0010
0100
0001
1000
,  // measure 54
0001
0001
1000
1000
,  // measure 55
0010
0001
0010
0100
,  // measure 56
1000
1000
0001
0001
,  // measure 57
0010
1000
0010
0100
,  // measure 58
0001
0100
1000
0100
,  // measure 59
0010
1000
0100
0001
,  // measure 60
1000
0010
0001
0010
,  // measure 61
0100
0001
0010
1000
,  // measure 62
0001
0100
0001
1000
,  // measure 63
0001
0100
0010
1000
,  // measure 64
0100
1000
0001
0100
,  // measure 65
0001
1000
0010
0100
,  // measure 66
1001
0000
0000
0000
;

//---------------dance-single - ----------------
#NOTES:
     dance-single:
     :
     Beginner:
     2:
     0.148995,0.242001,0.008148,0.024444,0.000000,128.000000,127.000000,1.000000,3.000000,0.000000,0.000000,0.148995,0.242001,0.008148,0.024444,0.000000,128.000000,127.000000,1.000000,3.000000,0.000000,0.000000:
// measure 0
0000
0000
0000
0000
,  // measure 1
0000
0000
0000
0000
,  // measure 2
0000
0000
0000
0000
,  // measure 3
0000
0000
0000
0000
,  // measure 4
0000
0000
0000
0000
,  // measure 5
0010
0000
0000
0000
,  // measure 6
0100
0000
0000
0000
,  // measure 7
0001
0000
0000
0000
,  // measure 8
1000
0000
0000
0000
,  // measure 9
0000
0000
0000
0000
,  // measure 10
0000
0010
0000
0010
,  // measure 11
0000
0100
0000
0100
,  // measure 12
0000
0010
0000
0010
,  // measure 13
0000
1000
0000
1000
,  // measure 14
0000
0001
0000
0001
,  // measure 15
0000
1000
0000
1000
,  // measure 16
0000
0100
0000
0100
,  // measure 17
0000
0010
0000
0000
,  // measure 18
0020
0030
0000
0000
,  // measure 19
0100
0000
0000
0000
,  // measure 20
0001
0000
1000
0000
,  // measure 21
0001
0000
1000
0000
,  // measure 22
0200
0300
0000
0000
,  // measure 23
0010
0000
0000
0000
,  // measure 24
1000
0000
0001
0000
,  // measure 25
1000
0000
0001
0000
,  // measure 26
0100
0100
0100
0100
,  // measure 27
0100
0100
0100
0000
,  // measure 28
0010
0010
0010
0010
,  // measure 29
0010
0010
0010
0000
,  // measure 30
1000
1000
1000
1000
,  // measure 31
1000
1000
1000
0000
,  // measure 32
0001
0001
0001
0001
,  // measure 33
0001
0000
0000
0000
,  // measure 34
0000
0000
0000
0000
,  // measure 35
0010
0000
0000
0000
,  // measure 36
0100
0000
0100
0000
,  // measure 37
0100
0000
0100
0000
,  // measure 38
2000
3000
0000
0000
,  // measure 39
0001
0000
0000
0000
,  // measure 40
0100
0000
0010
0000
,  // measure 41
0100
0000
0010
0000
,  // measure 42
1000
0000
0100
0000
,  // measure 43
0001
0000
0000
0000
,  // measure 44
0001
0000
0100
0000
,  // measure 45
1000
0000
0000
0000
,  // measure 46
1000
0000
0100
0000
,  // measure 47
0001
0000
0100
0000
,  // measure 48
1000
0000
0100
0000
,  // measure 49
0001
0000
0000
0000
,  // measure 50
0001
0001
0001
0001
,  // measure 51
0001
0000
0000
0000
,  // measure 52
1000
1000
1000
1000
,  // measure 53
1000
0000
0000
0000
,  // measure 54
0010
0010
0010
0010
,  // measure 55
0010
0000
0000
0000
,  // measure 56
0100
0100
0100
0100
,  // measure 57
0100
0000
0000
0000
,  // measure 58
0001
0001
0001
0001
,  // measure 59
0001
0001
0000
0000
,  // measure 60
0010
0010
0010
0010
,  // measure 61
0010
0010
0000
0000
,  // measure 62
0100
0100
0100
0100
,  // measure 63
0100
0100
0000
0000
,  // measure 64
1000
1000
1000
1000
,  // measure 65
1000
1000
1000
0000
,  // measure 66
1001
0000
0000
0000
;
