#VERSION:0.83;
#TITLE:Ink Long Dry;
#SUBTITLE:The Great Gubal Library;
#ARTIST:Masayoshi Soken;
#TITLETRANSLIT:;
#SUBTITLETRANSLIT:;
#ARTISTTRANSLIT:;
#GENRE:Heavensward;
#ORIGIN:;
#CREDIT:[Ness];
#BANNER:Final Fantasy XIV - Ink Long Dry.png;
#BACKGROUND:Final Fantasy XIV - Ink Long Dry-bg.png;
#PREVIEWVID:;
#JACKET:Final Fantasy XIV - Ink Long Dry-jacket.png;
#CDIMAGE:;
#DISCIMAGE:Final Fantasy XIV - Ink Long Dry-Fast-bg.png;
#LYRICSPATH:;
#CDTITLE:;
#MUSIC:Final Fantasy XIV - Ink Long Dry.mp3;
#OFFSET:-0.037000;
#SAMPLESTART:40.902142;
#SAMPLELENGTH:15.619049;
#SELECTABLE:YES;
#DISPLAYBPM:50.000000:180.000000;
#BPMS:0.000=70.000,
23.500=78.750,
28.000=70.000,
32.000=280.000,
44.000=180.000,
108.000=140.000,
172.000=35.000,
174.000=70.000,
175.750=75.000,
178.000=80.000,
182.000=82.500,
184.000=80.000,
186.000=70.000,
188.000=55.000,
190.000=25.000,
192.000=50.000;
#STOPS:74.500=0.333,
75.500=0.333,
106.500=0.333,
107.500=0.333;
#DELAYS:;
#WARPS:;
#TIMESIGNATURES:0.000=4=4;
#TICKCOUNTS:0.000=2;
#COMBOS:0.000=1;
#SPEEDS:0.000=1.000=0.000=0;
#SCROLLS:0.000=1.000;
#FAKES:;
#LABELS:0.000=Song Start;
#LASTSECONDHINT:108.323273;
#BGCHANGES:23.500=Final Fantasy XIV - Ink Long Dry-bg.png=1.000=0=0=1===CrossFade_Faster=#808080=,
28.000=Final Fantasy XIV - Ink Long Dry-bg.png=1.000=0=0=1===CrossFade_Faster==,
44.000=Final Fantasy XIV - Ink Long Dry-Fast-bg.png=1.000=0=0=1===CrossFade_Fastest==,
74.500=Final Fantasy XIV - Ink Long Dry-bg.png=1.000=0=0=1=====,
75.000=Final Fantasy XIV - Ink Long Dry-Fast-bg.png=1.000=0=0=1=====,
75.500=Final Fantasy XIV - Ink Long Dry-bg.png=1.000=0=0=1=====,
76.000=Final Fantasy XIV - Ink Long Dry-Fast-bg.png=1.000=0=0=1=====,
106.500=Final Fantasy XIV - Ink Long Dry-bg.png=1.000=0=0=1=====,
107.000=Final Fantasy XIV - Ink Long Dry-Fast-bg.png=1.000=0=0=1=====,
107.500=Final Fantasy XIV - Ink Long Dry-bg.png=1.000=0=0=1=====,
107.521=Final Fantasy XIV - Ink Long Dry-Slow-bg.png=1.000=0=0=1===CrossFade_Faster==,
172.000=Final Fantasy XIV - Ink Long Dry-Slow-bg.png=1.000=0=0=1===CrossFade_Fastest=#808080=,
174.000=Final Fantasy XIV - Ink Long Dry-bg.png=1.000=0=0=1===CrossFade_Fastest==,
190.000=Final Fantasy XIV - Ink Long Dry-Fast-bg.png=1.000=1=0=1===CrossFade=#808080=,
192.000=Final Fantasy XIV - Ink Long Dry-Slow-bg.png=1.000=1=0=1===CrossFade==,
99999=-nosongbg-=1.000=0=0=0 // don't automatically add -songbackground-
;
#KEYSOUNDS:;
#ATTACKS:
;

//---------------dance-single - [Ness]----------------
#NOTEDATA:;
#CHARTNAME:[Ness];
#STEPSTYPE:dance-single;
#DESCRIPTION:[Ness];
#CHARTSTYLE:;
#DIFFICULTY:Hard;
#METER:9;
#RADARVALUES:0.415705,0.493318,0.344947,0.088448,0.163628,329.000000,290.000000,39.000000,10.000000,0.000000,0.000000,0.000000,0.000000,0.000000,0.415705,0.493318,0.344947,0.088448,0.163628,329.000000,290.000000,39.000000,10.000000,0.000000,0.000000,0.000000,0.000000,0.000000;
#CREDIT:[Ness];
#DISPLAYBPM:50.000000:180.000000;
#NOTES:
// measure 0
0000
0000
0000
0000
,  // measure 1
0000
0000
0000
0000
,  // measure 2
0110
1100
0101
1001
,  // measure 3
1010
0110
0011
1001
,  // measure 4
0011
1100
1010
0101
,  // measure 5
0110
1100
0101
0110
,  // measure 6
0001
0000
0000
0000
0000
0000
0000
0000
0000
0000
0000
0000
0000
0000
0000
0000
0000
0000
0000
0000
0000
0000
0000
0000
0000
0000
0000
0000
0000
0000
0010
0000
0000
0000
0000
0000
0000
0000
0000
0000
0000
0000
0000
0000
0000
0000
0000
0000
0000
0000
0000
0000
0000
0000
0000
0000
0000
0000
0000
0000
0100
0000
0000
0000
0000
0000
0000
0000
0000
0000
0000
0000
0000
0000
0000
0000
0000
0000
0000
0000
0000
0000
0000
0000
0000
0000
0000
0000
1000
0000
0000
0000
0000
0000
0000
0000
0000
0000
0000
0000
0000
0000
0000
0000
0000
0000
0000
0000
0000
0000
0000
0000
0000
0000
0001
0000
0000
0000
0000
0000
0000
0000
0000
0000
0000
0000
0000
0000
0000
0000
0000
0000
0000
0000
0000
0000
0010
0000
0000
0000
0000
0000
0000
0000
0000
0000
0000
0000
0000
0000
0000
0000
0000
0000
0000
0000
0100
0000
0000
0000
0000
0000
0000
0000
0000
0000
0000
0000
0000
0000
0000
0000
0000
0000
0000
0000
0000
0000
0000
0000
1000
0000
0000
0000
0000
0000
0000
0000
0000
0000
0000
0000
,  // measure 7
1001
0000
0000
0000
0000
0000
0000
0000
1000
0000
0000
0000
0000
0010
0000
0000
1000
0000
0000
0000
0000
0000
0000
0000
1001
0000
0000
0000
0000
0000
0000
0000
1000
0000
0000
0000
0000
0000
0000
0000
0001
0000
0000
0000
0000
0000
0000
0000
,  // measure 8
0020
0000
0032
0000
,  // measure 9
0203
0000
0320
0000
,  // measure 10
2030
0000
3200
0000
,  // measure 11
1300
0010
1000
0000
0100
0001
0010
0001
,  // measure 12
0000
0001
0100
0010
1000
0100
0010
1000
,  // measure 13
0010
0001
1000
0000
1001
0000
0001
0100
,  // measure 14
0010
1000
0000
0001
0000
0010
0100
0000
,  // measure 15
0110
0000
1000
0000
0001
0000
1010
1010
,  // measure 16
0000
0100
0001
0100
0010
0001
0010
0100
,  // measure 17
0002
0000
0013
0000
0100
0001
0100
1000
,  // measure 18
0100
1000
0010
1000
0010
0001
0000
1000
,  // measure 19
0100
0001
0010
0000
1000
0010
0001
0100
,  // measure 20
0000
0010
1000
0100
0010
1000
0010
0100
,  // measure 21
1000
0100
0020
0000
0130
0000
1000
0010
,  // measure 22
0100
0001
0000
0100
0000
1000
0100
1000
,  // measure 23
0100
0010
1000
0010
1000
0000
1100
1100
,  // measure 24
0000
0010
1000
0010
1000
0010
0001
1000
,  // measure 25
0001
0100
0010
0001
0010
0001
0010
0100
,  // measure 26
0001
0100
0001
0100
0010
1000
0000
0001
,  // measure 27
0100
0001
1000
0010
0010
1000
0001
0010
,  // measure 28
0010
0000
0100
1000
1000
0001
0100
0000
,  // measure 29
0010
0000
1000
0001
0000
0001
0010
0100
,  // measure 30
1000
0010
1000
0100
0010
0001
0100
0001
,  // measure 31
0100
0000
0010
1000
0000
1000
0001
0010
,  // measure 32
0100
1000
0100
0010
1000
0010
0001
0010
,  // measure 33
0100
0000
1000
0001
0000
0001
0100
1000
,  // measure 34
0100
0010
0100
0001
1000
0010
0100
0010
,  // measure 35
1000
0000
0001
0100
0000
0001
1000
0010
,  // measure 36
1000
0000
0000
0000
1000
0000
0100
0000
0010
0000
0100
0000
1000
0000
1000
0100
,  // measure 37
0010
0000
0001
0100
1000
0100
0010
1000
,  // measure 38
0010
0100
0001
0010
0100
1000
0001
1000
,  // measure 39
0100
0000
0100
0001
0000
0001
0100
1000
,  // measure 40
0010
0000
1000
0010
0100
0001
0100
0010
,  // measure 41
1000
0000
0000
0000
0001
0000
0000
0000
0100
0000
0001
0000
1000
0000
0100
0010
,  // measure 42
0100
0000
0000
0001
1000
0000
0001
0000
,  // measure 43
0102
0000
0000
0000
0000
0000
0003
0000
0000
0000
0000
0000
2010
0000
0000
0000
0000
0000
3000
0000
0000
0000
0000
0000
1001
0000
0000
0000
0000
0000
0000
0000
0010
0000
0000
0000
0000
0001
0000
0000
0100
0000
0000
0000
0000
0000
0000
0000
,  // measure 44
1001
0000
0000
0000
0000
0000
0000
0000
1000
0000
0000
0000
0000
0000
0000
0000
0001
0000
0000
0000
0000
0000
0000
0000
1001
0000
0000
0000
0000
0000
0000
0000
0010
0000
0000
0000
0000
1000
0000
0000
0100
0000
0000
0000
0000
0000
0000
0000
,  // measure 45
1001
0000
0000
0000
0000
0000
0000
0000
0001
0000
0000
0000
0000
0000
0000
0000
1000
0000
0000
0000
0000
0000
0000
0000
1001
0000
0000
0000
0000
0000
0000
0000
0001
0000
0000
0000
0000
0010
0000
0000
0001
0000
0000
0000
0000
0000
0000
0000
,  // measure 46
1001
0000
0000
0000
0000
0000
0000
0000
1000
0000
0000
0000
0000
0000
0000
0000
0001
0000
0000
0000
0000
0000
0000
0000
1001
0000
0000
0000
0000
0000
0000
0000
1000
0000
0000
0000
0000
0100
0000
0000
1000
0000
0000
0000
0000
0000
0000
0000
,  // measure 47
1001
0000
0000
0000
0000
0000
0000
0001
0000
0000
0000
0000
1000
0000
0010
0000
0000
0000
0000
0000
0000
0000
0000
0000
1001
0000
0000
0000
0000
0000
1010
0000
0000
0000
0000
0000
0110
0000
0000
0000
0000
0000
0000
0000
0000
0000
0000
0000
,  // measure 48
1001
0000
0000
0000
0000
0000
0000
0000
0001
0000
0000
0000
0000
1000
0000
0000
0100
0000
0000
0000
0000
0000
0000
0000
0101
0000
0000
0000
0000
0000
0000
0000
0000
0000
0000
0000
0000
0000
0000
0000
0000
0000
0000
0000
0000
0000
0000
0000
;

//---------------dance-single - [Ness]----------------
#NOTEDATA:;
#CHARTNAME:[Ness];
#STEPSTYPE:dance-single;
#DESCRIPTION:[Ness];
#CHARTSTYLE:;
#DIFFICULTY:Medium;
#METER:6;
#RADARVALUES:0.300723,0.343178,0.371481,0.159206,0.000000,238.000000,196.000000,42.000000,18.000000,0.000000,0.000000,0.000000,0.000000,0.000000,0.300723,0.343178,0.371481,0.159206,0.000000,238.000000,196.000000,42.000000,18.000000,0.000000,0.000000,0.000000,0.000000,0.000000;
#CREDIT:[Ness];
#DISPLAYBPM:50.000000:180.000000;
#NOTES:
0000
0000
0000
0000
,
0000
0000
0000
0000
,
0010
1000
0001
1000
,
0010
0100
0001
0100
,
0010
1000
0100
0010
,
0100
1000
0001
0100
,
0000
0000
0000
0000
,
1001
0010
1001
0100
,
0002
0000
0203
0000
,
2300
0000
3200
0000
,
0302
0000
2003
0000
,
3001
0000
0010
0000
0001
1000
0001
1000
,
0000
0010
0100
0010
,
1100
0000
1100
0000
0000
1001
0000
1001
,
0000
0101
0101
0010
,
1001
0000
0100
0001
,
0010
0100
1000
0010
,
0001
0000
0010
0000
1010
0000
0000
0011
,
0000
0000
0100
0000
0000
1010
0000
0011
,
1001
0000
0010
0000
0001
0010
0100
1000
,
0000
1000
0010
0100
,
1010
0000
0000
0000
0011
0000
0000
0110
,
0000
0110
0000
0000
0001
0000
0100
0000
,
1001
0000
0000
0000
0101
0000
0000
1100
,
0000
0101
0000
0000
0010
0100
0010
0000
,
1000
0100
1000
0000
0001
0010
0100
1000
,
0010
0100
0001
0010
0100
1000
0000
0001
,
0200
0000
0310
1000
,
1100
0000
0001
0010
0010
0001
0100
0010
,
2000
3100
0002
0013
,
1000
0100
0001
0000
0001
0100
1000
0000
,
0110
0010
1000
0001
,
0010
0000
1000
0010
0001
0010
1000
0000
,
1001
0000
0010
0000
0001
0000
1000
0010
,
1000
0000
0100
1000
0000
1000
0100
0010
,
0001
0000
0000
0011
0000
0000
1000
0010
,
1000
0000
0001
0100
0000
0100
0010
0000
,
1001
0000
0010
0000
0100
0000
0001
0010
,
0001
0100
0010
1000
0000
1000
0010
0100
,
0002
0103
2000
3010
,
0001
0000
1000
0010
0000
0100
0001
1000
,
0200
0000
0300
0000
0010
0001
0100
0010
,
2002
0000
3003
0000
0010
0001
0100
0010
,
2002
0000
0000
3003
0001
0000
0101
0000
,
1010
0101
0010
1100
,
0011
1100
0010
0110
,
1000
1001
0010
0011
,
0100
0000
1100
0000
0101
1000
0100
0000
,
0220
0330
1001
0000
;

//---------------dance-single - [Ness]----------------
#NOTEDATA:;
#CHARTNAME:[Ness];
#STEPSTYPE:dance-single;
#DESCRIPTION:[Ness];
#CHARTSTYLE:;
#DIFFICULTY:Easy;
#METER:4;
#RADARVALUES:0.209748,0.214486,0.141517,0.300723,0.000000,166.000000,150.000000,16.000000,34.000000,0.000000,0.000000,0.000000,0.000000,0.000000,0.209748,0.214486,0.141517,0.300723,0.000000,166.000000,150.000000,16.000000,34.000000,0.000000,0.000000,0.000000,0.000000,0.000000;
#CREDIT:[Ness];
#DISPLAYBPM:50.000000:180.000000;
#NOTES:
0000
0000
0000
0000
,
0000
0000
0000
0000
,
0010
0100
0001
0100
,
1000
0100
0001
0100
,
0010
1000
0010
0100
,
0001
0010
0100
1000
,
0000
0000
0000
0000
,
0001
0010
0100
1000
,
0020
0000
0000
0000
,
0230
0000
0000
0000
,
0302
0000
0000
0000
,
1003
0000
1001
0000
,
0010
0001
0100
0010
,
1000
0200
0000
0310
,
0001
1000
0010
0100
,
2002
3003
0202
0303
,
2002
3003
2200
3300
,
0001
0010
0100
1000
,
0010
0000
0100
0000
0002
0000
0000
0003
,
1000
0100
0001
0100
,
1000
1000
0010
0100
,
0001
1000
0010
0010
,
0100
0001
0010
0100
,
2200
3300
2002
3003
,
0202
0303
2002
3003
,
0010
1000
0100
0010
,
0001
0000
0100
0000
0020
0000
0000
0030
,
1000
0100
0010
0010
,
0001
1000
0010
0100
,
0202
0303
2020
3030
,
0100
0010
1000
0001
,
0010
0100
0010
0001
,
1000
0100
0010
0001
,
2200
3300
0022
0033
,
1000
0010
0100
0001
,
0020
0000
0100
0130
,
1000
0010
0100
0001
,
0010
0010
0001
0001
,
1000
0010
0100
0001
,
2000
0000
0100
3100
,
0010
0001
0100
0010
,
2000
0000
3001
0010
,
0200
0000
0310
0001
,
1001
0000
0010
0001
,
0100
0001
0010
1000
,
0100
1000
0100
0001
,
0010
0001
0010
1000
,
0100
0010
0001
0000
,
1001
0000
1001
0000
;

//---------------dance-single - [Ness]----------------
#NOTEDATA:;
#CHARTNAME:[Ness];
#STEPSTYPE:dance-single;
#DESCRIPTION:[Ness];
#CHARTSTYLE:;
#DIFFICULTY:Beginner;
#METER:2;
#RADARVALUES:0.136462,0.193037,0.035379,0.000000,0.000000,108.000000,104.000000,4.000000,0.000000,0.000000,0.000000,0.000000,0.000000,0.000000,0.136462,0.193037,0.035379,0.000000,0.000000,108.000000,104.000000,4.000000,0.000000,0.000000,0.000000,0.000000,0.000000,0.000000;
#CREDIT:[Ness];
#DISPLAYBPM:50.000000:180.000000;
#NOTES:
0000
0000
0000
0000
,
0000
0000
0000
0000
,
0010
0010
0001
0001
,
0010
0010
1000
1000
,
0001
0001
1000
1000
,
0100
0100
0010
0010
,
0000
0000
0000
0000
,
0001
0001
1000
1000
,
0000
0000
0000
0000
,
0000
0000
0000
0000
,
0000
0000
0000
0000
,
0010
0000
0100
0000
,
0001
0000
0010
0000
,
0100
0000
1000
0000
,
0001
0000
0010
0000
,
0110
0000
1000
0000
,
0100
0000
1000
0000
,
0010
0000
0100
0000
,
0001
0000
0010
0000
,
0100
0000
1000
0000
,
0010
0000
0100
0000
,
0001
0000
1000
0000
,
0010
0000
0100
0000
,
0110
0000
0001
0000
,
1000
0000
0100
0000
,
0010
0000
0001
0000
,
1000
0000
0010
0000
,
1001
0000
0010
0000
,
0001
0000
0001
0000
,
0010
0000
1000
0000
,
0100
0000
0010
0000
,
0001
0000
0100
0000
,
0010
0000
1000
0000
,
0100
0000
0010
0000
,
0001
0000
1000
0000
,
0010
0000
0100
0000
,
0001
0000
1000
0000
,
0100
0000
0010
0000
,
0001
0000
1000
0000
,
0010
0000
0100
0000
,
0001
0000
0010
0000
,
0100
0000
1000
0000
,
0010
0000
0100
0000
,
0001
0000
1000
1000
,
0100
0100
0001
0001
,
0010
0010
0100
0100
,
0100
0100
1000
1000
,
0010
0010
0100
0000
,
0010
0000
1001
0000
;
