#TITLE:In The Balance;
#SUBTITLE:Aglaia;
#ARTIST:Masayoshi Soken;
#TITLETRANSLIT:;
#SUBTITLETRANSLIT:;
#ARTISTTRANSLIT:;
#GENRE:Endwalker;
#CREDIT:[Ness];
#BANNER:Final Fantasy XIV - In The Balance.png;
#BACKGROUND:Final Fantasy XIV - In The Balance-bg.png;
#LYRICSPATH:Final Fantasy XIV - In The Balance.lrc;
#CDTITLE:;
#MUSIC:Final Fantasy XIV - In The Balance.mp3;
#OFFSET:-0.427000;
#SAMPLESTART:83.717033;
#SAMPLELENGTH:14.476189;
#LASTBEATHINT:250.000000;
#SELECTABLE:YES;
#BPMS:0.000000=105.000000
;
#STOPS:
;
#BGCHANGES:;
#KEYSOUNDS:;
#ATTACKS:;

//---------------dance-single - ----------------
#NOTES:
     dance-single:
     :
     Challenge:
     10:
     0.509332,0.602647,0.382247,0.264098,0.545571,513.000000,450.000000,55.000000,38.000000,10.000000,53.000000,0.509332,0.602647,0.382247,0.264098,0.545571,513.000000,450.000000,55.000000,38.000000,10.000000,53.000000:
0000
0000
0000
0000
,
0000
0000
0000
0000
,
0000
0000
0000
0000
,
0000
0000
0000
0000
,
0000
1011
1110
0111
,
1001
0000
0000
0100
0000
0001
0010
0001
0100
0000
0010
0000
1000
0100
0000
0010
,
0000
0001
1000
0001
0100
0000
0110
0000
1010
0000
1000
0100
0000
0100
1000
0001
,
0100
0000
0010
0000
1000
0001
0000
0010
0000
0100
0010
0001
0100
0000
0101
0000
,
1001
0000
0000
0010
0000
0001
1000
0100
0010
0000
0100
0000
1000
0001
0000
1000
,
0000
0010
1000
0100
0010
0000
0011
0000
1010
0000
0000
1000
0000
0001
1000
0100
,
1000
0000
0001
0000
0100
0010
0000
1000
0000
0001
1000
0100
0010
0000
1100
0000
,
0101
0000
0000
0010
0000
0100
1000
0010
0100
0000
0001
0000
1000
0100
0000
0001
,
0000
0100
0010
0001
0010
0100
1000
0001
1000
0000
0000
0010
0000
0100
0001
0010
,
0001
0000
1000
0010
1000
0100
0000
0010
0000
0001
1000
0001
0100
0000
0010
0000
,
1000
0000
0000
0001
0000
1000
0010
0100
0001
0000
1000
0100
1000
0001
0000
1000
,
0000
0010
0100
0000
0110
0000
1001
0000
0001
0000
0000
1000
0000
0001
0010
0100
,
1000
0000
0001
1000
0001
0100
0000
1000
0000
0100
0010
1000
0100
0000
0010
0000
,
1002
0000
0000
0023
0000
0000
0031
0000
0100
0000
1000
0000
0200
0000
0000
0000
,
0010
0000
0000
0000
0301
0000
1000
0000
0020
0000
0000
2030
0000
0000
3200
0000
,
0001
1000
0320
0000
1000
0000
0031
1000
,
1100
0000
0000
0002
0000
0000
0103
0000
0020
0000
1000
0000
0230
0000
0000
0000
,
1000
0000
0010
0000
0301
0000
0000
0000
0102
0000
0000
0013
0000
0000
0100
0000
,
2000
0002
0010
0000
0000
0000
3003
0000
,
0002
0000
0200
0000
0010
1000
0020
0000
,
0000
0333
2000
0200
,
0001
0010
0002
0000
0000
3313
0010
MM0M
,
0020
0000
0200
0000
1000
0001
2000
0000
,
3330
0000
0000
0000
0000
0000
0000
0000
0002
0000
0000
0000
0003
1000
0010
0100
,
0001
1000
0200
0000
0020
0000
0330
0000
,
0202
0000
0000
1000
0010
0000
0000
0010
1000
0000
0010
1000
0010
0000
0000
0000
,
1000
0010
1303
0000
2200
0000
0010
0001
,
0010
0000
0001
0000
0010
0000
0000
0001
0010
0000
0001
0000
0010
0001
0010
0000
,
0001
0000
0000
0000
0010
0000
0001
0000
0010
0000
0001
0010
0001
0000
0000
0000
,
0010
0010
0001
0000
0010
0000
0001
0000
3310
0000
0000
0000
0000
0000
0000
0000
,
0220
2002
0000
0000
,
0330
0000
0000
00M0
0M00
00M0
0M00
00M0
0M00
00M0
0000
0000
3003
0000
0000
0000
,
0000
0000
0000
0001
1000
0100
1000
0001
0100
0000
0000
0000
1001
0000
0001
1000
,
0100
0000
1000
0001
1000
0000
0010
1000
0001
0000
0011
0000
0101
0000
0100
0010
,
1000
0000
0010
0100
0010
0000
0001
0010
0100
0000
0101
0000
1100
0000
1000
0001
,
0010
0000
0001
1000
0001
0000
0100
0001
1000
0000
1100
0000
1010
0000
0010
0100
,
0001
0000
0100
0010
0100
0000
1000
0100
0010
0000
1010
0000
0011
0000
0001
1000
,
0001
0000
0100
0010
1000
0000
0100
1000
0001
0000
1000
0100
1000
0000
0001
0100
,
0010
1000
0200
0000
0000
0000
0310
0001
1000
0000
0010
0100
0001
0000
0010
0001
,
0010
0000
1000
0010
1000
0000
0001
1000
0001
0000
0100
0000
0110
0000
1000
0100
,
1000
0000
0001
0000
0011
0000
0000
0110
0000
0000
0101
0000
1001
0000
0001
0010
,
0000
0010
1000
0000
0001
1000
0100
0000
0010
0000
0001
0000
1000
0000
0010
0100
,
0000
0010
0100
0000
0001
0010
0000
0100
1000
0000
0001
0000
0101
0000
0100
0010
,
0000
0100
0010
0000
1000
0001
0100
0000
0010
1000
0100
0000
1100
0000
1000
0010
,
0000
0010
0001
0000
1001
0000
0000
0011
0000
0000
0110
0000
1010
0000
0000
1100
,
0000
1000
0010
0100
0001
0000
1000
0001
0100
0000
0001
0010
0100
0000
1000
0100
,
0000
0010
0001
1000
0000
0001
0100
0000
0010
1000
0100
0000
1100
0000
0000
0010
,
0100
0000
0100
0000
0100
0001
0000
0001
0010
0000
0100
0000
0110
0000
0000
0010
,
0100
0000
0100
0000
1000
0000
0001
1000
0010
0000
0100
0000
0001
0000
0000
0010
,
0100
0000
0010
0000
0001
1000
0000
0100
1000
0000
0010
1000
0100
0000
0000
0010
,
0001
0000
0100
0000
0101
0000
0000
1000
0010
0000
0100
0000
1001
0001
0000
1000
,
0000
0000
0000
0000
0000
0000
0100
0000
0000
0000
0000
0000
0000
0000
0000
1000
0000
0000
0000
0000
0000
0010
0000
0000
0100
0000
0010
0000
0100
0000
0010
0000
0000
1000
0000
0000
0100
0000
0000
0100
0000
0000
0000
0000
0000
0010
0000
0000
,
0000
0000
0101
0000
0000
0001
1000
0100
0000
0000
0010
0000
1001
1000
0100
0000
,
0000
0000
0000
0000
0000
0000
1100
0000
0000
0000
0000
0000
0000
0000
0000
0000
0000
0000
0000
0000
0000
0000
0000
0000
0010
0000
0000
0000
1000
0000
0000
0000
0001
0000
0000
0000
0010
0000
0000
0100
0000
0000
0000
0000
0000
1000
0000
0000
,
0000
0011
0000
1100
0000
0000
0000
0000
,
1011
0000
0000
0000
1110
0000
0000
0000
0111
0000
0000
0000
0100
0100
0000
0000
,
0000
2222
0000
0000
0000
0000
0000
0000
,
0000
0000
0000
0000
0000
0000
0000
0000
0000
0000
0000
0000
0000
0000
0000
3333
;

//---------------dance-single - ----------------
#NOTES:
     dance-single:
     :
     Hard:
     7:
     0.337569,0.408802,0.305798,0.271048,0.177224,340.000000,296.000000,44.000000,39.000000,0.000000,0.000000,0.337569,0.408802,0.305798,0.271048,0.177224,340.000000,296.000000,44.000000,39.000000,0.000000,0.000000:
0000
0000
0000
0000
,
0000
0000
0000
0000
,
0000
0000
0000
0000
,
0000
0000
0000
0000
,
0000
0001
1000
0110
,
1001
0000
0000
0001
0000
0000
1000
0000
0100
0000
0000
0000
1100
0000
0000
0010
,
0000
0000
0100
0000
0001
0000
0000
0000
0011
0000
0000
1000
0000
0000
0010
0000
,
0100
0000
0000
0000
1010
0000
0000
1000
0000
0000
0001
0000
0010
0000
0000
0000
,
0110
0000
0000
0001
0000
0000
0100
0000
0010
0000
1000
0000
1100
0000
0000
1000
,
0000
0000
0001
0000
0100
0000
0010
0000
1001
0000
0000
0010
0000
0000
0001
0000
,
1000
0000
0100
0000
0101
0000
0000
0100
0000
0000
0010
0000
1000
0000
0100
0000
,
1001
0000
0000
0010
0000
0001
1000
0000
0010
0000
0100
0000
0001
0000
0000
0010
,
0000
0100
1000
0000
0001
0000
1000
0000
0010
0000
0000
0100
0000
0010
1000
0000
,
0100
0000
0010
0000
0001
0000
0000
0100
0000
0000
0001
2000
0000
0000
3100
0000
,
0020
0000
0000
0001
0030
0001
0100
0000
0001
0000
1000
0000
2020
0000
0000
0000
,
0000
0000
3030
0000
1001
0000
1100
0000
1000
0000
0000
0001
0000
0010
0001
0000
,
0100
0000
0010
0000
1000
0100
0000
1000
0000
0001
1000
0000
0100
0000
1000
0000
,
0002
0000
0000
0010
0000
0000
1000
0000
1003
0000
0000
0000
2100
0000
0000
0100
,
0000
0000
0100
0000
3100
0000
0000
0000
0020
0000
0000
0100
0000
0000
1000
0000
,
0130
0000
0000
0000
0201
0000
0000
0010
0000
0000
0001
0000
0310
0000
0000
0000
,
2010
0000
0000
0001
0000
0000
3100
0000
0010
0000
0001
0000
0102
0000
0000
0010
,
0000
0000
0103
0000
0001
0000
1000
0000
0001
0000
0000
1100
0000
0000
0100
0000
,
0010
0000
0100
0000
1000
0000
0000
0101
0000
0000
0001
0000
0100
0000
0000
0000
,
0002
0000
0100
0000
0010
1000
0020
0000
,
0000
0033
2000
0100
,
0001
0010
0002
0000
3000
0010
0013
0000
,
0020
0000
0100
0000
0001
0100
0002
0000
,
0000
0000
0033
0000
2000
0000
3000
0001
,
0100
0001
0020
0000
0200
0000
0330
0000
,
2000
0000
0100
0000
0010
0001
3020
1000
,
0000
1000
0000
0000
1030
0000
0000
0000
0002
0000
0000
0000
0100
0000
0000
0000
,
1000
0010
2000
0000
0003
0010
3001
0000
,
0020
0000
1000
0000
0130
0010
0200
0000
,
0300
0102
2000
3003
,
2001
0020
0000
3000
,
0200
0000
0000
0330
,
0000
0000
0002
1003
,
1001
0000
1001
0000
1000
0010
0100
0000
,
0110
0000
0110
0000
1000
0100
0001
0000
,
1100
0000
0101
0000
1000
0010
0100
0000
,
0001
0000
0010
0000
1000
0000
0010
0000
0001
0000
0000
0000
0011
0000
0000
0010
,
0000
0100
1000
0000
0001
0000
0101
0000
,
1000
0001
0100
0000
1002
0000
0010
0000
,
1000
0013
2100
0001
,
3010
0000
0000
0000
0110
0000
0000
0100
0000
0000
0001
0000
0010
0000
0000
0011
,
0000
0000
0010
0000
0100
0000
1000
0000
0001
0000
1000
0000
0010
0000
0000
1000
,
0000
0000
0100
0000
1000
0000
0001
0000
0100
0000
0000
0000
0001
0000
0000
1100
,
0000
0000
1000
0000
0001
0000
1000
0000
0010
0000
0100
0000
0001
0000
0000
0010
,
0000
0000
0100
0000
1100
0000
0000
0110
0000
0000
0011
0000
0001
0000
0000
0100
,
0000
0000
0010
0000
1000
0000
0001
0000
1000
0000
0100
0000
0010
0000
0000
0100
,
0000
0000
1000
0000
0000
0000
0001
0000
0010
0000
0100
0000
1000
0000
0000
1000
,
0010
0000
0010
0000
0100
0000
0000
0000
0110
0000
0000
0000
0001
0000
0000
0010
,
0001
0000
1000
0000
0100
0000
0000
0000
0110
0000
0000
0000
1000
0000
0000
0100
,
1000
0000
0010
0000
0100
0000
0000
0000
1100
0000
0000
0000
1001
0000
0000
1000
,
0001
0000
1000
0000
0100
0000
0000
0010
0001
0000
0100
0000
0002
0000
0000
1000
,
0000
0000
0103
0000
0000
0010
0000
0000
1000
0000
0100
0000
2000
0000
0000
0001
,
0000
0000
0100
0000
0000
3001
0000
0001
0000
0000
0010
0000
0200
0000
0000
0000
,
0000
0001
0000
0000
1300
0000
0020
0000
,
0000
0130
0000
1001
0000
0000
0000
0000
,
1000
0001
0110
0100
,
0000
2002
0000
0000
0000
0000
0000
0000
,
0000
0000
0000
0000
0000
0000
0000
0000
0000
0000
0000
3003
;

//---------------dance-single - ----------------
#NOTES:
     dance-single:
     :
     Medium:
     5:
     0.234312,0.297371,0.145949,0.180699,0.010425,236.000000,215.000000,21.000000,26.000000,0.000000,0.000000,0.234312,0.297371,0.145949,0.180699,0.010425,236.000000,215.000000,21.000000,26.000000,0.000000,0.000000:
0000
0000
0000
0000
,
0000
0000
0000
0000
,
0000
0000
0000
0000
,
0000
0000
0000
0000
,
0000
0010
0100
0110
,
1001
0000
1000
0000
0001
0010
0200
0000
,
0000
1300
0010
1000
,
0001
0100
0020
0000
0000
0000
0030
0000
,
1000
0000
0001
0000
1000
0100
2000
0000
,
0000
3000
0010
0100
,
0001
0010
0002
0000
0000
0000
0003
0000
,
0010
0000
0100
0000
1000
0100
0001
0000
,
0100
1000
0010
1000
,
0001
0100
1000
0000
0100
0000
0010
0000
,
1000
0000
0001
0000
0010
0100
0020
0000
,
0030
0000
0110
1001
0010
0000
1000
0000
,
0001
1000
0100
0000
0010
0000
0001
0000
,
2000
0000
0001
0000
3100
0010
0100
0000
,
0000
0000
0002
1000
,
0013
0100
0010
0000
0000
0000
0000
0000
,
0002
0000
0103
0000
1000
0100
1000
0000
,
0000
0000
2000
3010
,
0001
1000
0100
0000
0000
0000
0000
0000
,
0001
0000
0100
0000
0010
1000
0020
0000
,
0000
0030
1000
0100
,
0001
0010
0002
0000
0000
0000
0013
0000
,
0010
0000
0100
0000
0001
0100
0002
0000
,
0000
0003
2000
3000
,
0001
0100
0010
0000
0200
0000
0300
0000
,
1000
0000
0100
0000
0010
0001
0020
0000
,
0100
0130
0001
0100
,
1000
0010
1000
0000
1000
0010
0001
0000
,
0010
0000
1000
0000
0100
0010
0001
0000
,
0100
0102
2000
3003
,
2001
0020
0000
3000
,
0200
0000
0000
0330
,
0000
0000
0002
1003
,
1001
0000
0010
0000
1000
0100
0001
0000
,
0110
0000
0001
0000
1000
0001
0100
0000
,
1001
0000
0100
0000
0001
0010
1000
0000
,
0100
0010
0100
0000
0010
0000
0001
0000
,
0100
1000
0100
0001
,
0010
0100
1000
0000
0100
0000
0010
0000
,
0010
0010
1001
0100
,
0100
0000
0000
0000
0110
0000
0000
0000
1000
0000
0000
0000
0001
0000
0000
0001
,
0000
1000
0010
0100
,
0001
0000
0000
0000
0010
0000
0000
0000
0100
0000
0000
0000
1000
0000
0000
1000
,
0000
0000
0010
1000
,
0100
0000
0000
0000
0010
0000
0000
0000
0001
0000
0000
0000
0100
0000
0000
0010
,
0000
1000
0001
0100
,
0010
0000
1000
0001
0100
0000
1001
0000
,
0010
0000
1000
0001
1000
0000
1001
0000
,
0010
0000
0001
1000
0001
0000
1001
0000
,
0010
0000
1000
0100
0001
0000
0110
0000
,
0100
1001
0010
2001
,
0000
0000
3100
0002
,
0000
0000
0013
0200
,
0000
0000
0000
0000
1300
0010
0100
0000
,
0000
0110
0000
1001
0000
0000
0000
0000
,
1000
0001
0110
0100
,
0000
2002
0000
0000
0000
0000
0000
0000
,
0000
3003
0000
0000
0000
0000
0000
0000
;

//---------------dance-single - ----------------
#NOTES:
     dance-single:
     :
     Easy:
     3:
     0.161834,0.191167,0.020850,0.264098,0.000000,163.000000,160.000000,3.000000,38.000000,0.000000,0.000000,0.161834,0.191167,0.020850,0.264098,0.000000,163.000000,160.000000,3.000000,38.000000,0.000000,0.000000:
// measure 0
0000
0000
0000
0000
,  // measure 1
0000
0000
0000
0000
,  // measure 2
0000
0000
0000
0000
,  // measure 3
0000
0000
0000
0000
,  // measure 4
0000
0001
0100
0001
,  // measure 5
2000
3000
0100
0002
,  // measure 6
0003
0100
2000
3000
,  // measure 7
0010
0002
0003
0010
,  // measure 8
2000
3000
0100
0002
,  // measure 9
0003
0010
2000
3000
,  // measure 10
0100
0220
0000
0330
,  // measure 11
0100
1000
0001
1000
,  // measure 12
0100
0010
0001
0100
,  // measure 13
0001
1000
0001
1000
,  // measure 14
0100
1000
0001
0020
,  // measure 15
0000
0130
1000
0001
,  // measure 16
1000
0002
0000
0003
,  // measure 17
0100
0010
1000
0200
,  // measure 18
0000
0300
1000
0001
,  // measure 19
0100
0002
0000
0003
,  // measure 20
0010
0001
0010
0200
,  // measure 21
0000
0300
1000
0010
,  // measure 22
1000
0200
0000
0300
,  // measure 23
0001
0100
0010
2000
,  // measure 24
0000
3000
1000
0100
,  // measure 25
0010
0002
0000
0003
,  // measure 26
0010
0100
1000
0002
,  // measure 27
0000
0003
2000
3000
,  // measure 28
0001
0010
0200
0300
,  // measure 29
1000
0100
0010
0002
,  // measure 30
0000
0003
0001
0100
,  // measure 31
0010
2000
0000
3000
,  // measure 32
0010
1000
0100
0020
,  // measure 33
0030
0002
2000
3003
,  // measure 34
0010
0200
0000
0300
,  // measure 35
0220
0000
0000
0330
,  // measure 36
0000
0000
0001
1000
,  // measure 37
1000
1000
0010
0001
,  // measure 38
0001
0001
0100
0010
,  // measure 39
0010
0010
1000
0100
,  // measure 40
0100
0010
0010
0001
,  // measure 41
0100
0010
1000
0001
,  // measure 42
0001
1000
1000
0100
,  // measure 43
0100
0100
0010
0100
,  // measure 44
0100
0010
0010
0001
,  // measure 45
0100
0001
0000
1000
,  // measure 46
0010
0100
0000
1000
,  // measure 47
0100
1000
0000
0001
,  // measure 48
0010
0100
0000
0010
,  // measure 49
0001
0100
0010
1000
,  // measure 50
0100
1000
0001
0200
,  // measure 51
0000
0300
0010
0200
,  // measure 52
0000
0300
0010
0200
,  // measure 53
0000
0300
0010
0200
,  // measure 54
0300
0002
0003
2000
,  // measure 55
0000
3000
0100
0002
,  // measure 56
0000
0003
0100
0020
,  // measure 57
0000
0030
1000
0100
,  // measure 58
0000
0010
0000
0010
0000
0000
0000
0000
,  // measure 59
0000
0000
0000
0100
,  // measure 60
0000
2002
0000
0000
0000
0000
0000
0000
,  // measure 61
0000
3003
0000
0000
0000
0000
0000
0000
;

//---------------dance-single - ----------------
#NOTES:
     dance-single:
     :
     Beginner:
     1:
     0.081414,0.103815,0.006950,0.000000,0.000000,82.000000,81.000000,1.000000,0.000000,0.000000,0.000000,0.081414,0.103815,0.006950,0.000000,0.000000,82.000000,81.000000,1.000000,0.000000,0.000000,0.000000:
// measure 0
0000
0000
0000
0000
,  // measure 1
0000
0000
0000
0000
,  // measure 2
0000
0000
0000
0000
,  // measure 3
0000
0000
0000
0000
,  // measure 4
0000
0000
0000
0000
,  // measure 5
1000
0000
0000
0100
,  // measure 6
0000
0000
0010
0000
,  // measure 7
0000
0001
0000
0000
,  // measure 8
0100
0000
0000
0001
,  // measure 9
0000
0000
1000
0000
,  // measure 10
0000
0100
0000
0000
,  // measure 11
0010
0000
0000
0001
,  // measure 12
0000
0000
0100
0000
,  // measure 13
0000
0010
0000
0000
,  // measure 14
1000
0000
0000
0100
,  // measure 15
0000
0000
0010
0000
,  // measure 16
0000
0001
0000
0000
,  // measure 17
1000
0000
0000
0001
,  // measure 18
0000
0000
0100
0000
,  // measure 19
0000
0010
0000
0000
,  // measure 20
1000
0000
0000
0001
,  // measure 21
0000
0000
0010
0000
,  // measure 22
0000
0100
0000
0000
,  // measure 23
1000
0000
1000
1000
,  // measure 24
0000
0000
0001
0000
,  // measure 25
0001
0001
0000
0000
,  // measure 26
0100
0000
0000
0100
,  // measure 27
0000
0000
0010
0000
,  // measure 28
0000
0010
0000
0000
,  // measure 29
1000
0000
0000
0001
,  // measure 30
0000
0000
0100
0000
,  // measure 31
0000
0010
0000
0000
,  // measure 32
1000
0000
0000
0100
,  // measure 33
0000
0000
0010
0000
,  // measure 34
0000
0001
0000
0000
,  // measure 35
1001
0000
0000
0000
,  // measure 36
0000
0000
0010
0010
,  // measure 37
0000
0000
1000
1000
,  // measure 38
0000
0000
0001
0001
,  // measure 39
0000
0000
0100
0100
,  // measure 40
0000
0010
0000
0100
,  // measure 41
0000
0001
0000
1000
,  // measure 42
0000
0100
0000
0010
,  // measure 43
0000
0100
0000
1000
,  // measure 44
0000
0001
0000
0100
,  // measure 45
0000
0000
0000
0010
,  // measure 46
0000
0100
0000
0001
,  // measure 47
0000
0000
0010
0010
,  // measure 48
0000
0100
0000
1000
,  // measure 49
0000
0000
0100
0100
,  // measure 50
0000
0010
0000
1000
,  // measure 51
0000
0000
0000
0001
,  // measure 52
0000
0000
0000
1000
,  // measure 53
0000
0000
0000
0001
,  // measure 54
0000
0100
0000
1000
,  // measure 55
0000
0000
0000
0010
,  // measure 56
0000
0000
0000
0100
,  // measure 57
0000
0000
0000
0001
,  // measure 58
0000
0000
0000
0000
,  // measure 59
0000
0000
0000
0100
;
