#TITLE:In Fulgur and Fire;
#SUBTITLE:Vanguard;
#ARTIST:Masayoshi Soken;
#TITLETRANSLIT:;
#SUBTITLETRANSLIT:;
#ARTISTTRANSLIT:;
#GENRE:Dawntrail;
#CREDIT:[Ness];
#BANNER:Final Fantasy XIV - In Fulgur and Fire.png;
#BACKGROUND:Final Fantasy XIV - In Fulgur and Fire-bg.png;
#LYRICSPATH:;
#CDTITLE:;
#MUSIC:In Fulgur and Fire.mp3;
#OFFSET:-0.526000;
#SAMPLESTART:27.651224;
#SAMPLELENGTH:14.014597;
#LASTBEATHINT:306.000000;
#SELECTABLE:YES;
#BPMS:0.000000=137.000000
;
#STOPS:
;
#BGCHANGES:;
#KEYSOUNDS:;
#ATTACKS:;

//---------------dance-single - ----------------
#NOTES:
     dance-single:
     :
     Challenge:
     10:
     0.648693,0.720122,0.116619,0.065598,0.710647,623.000000,607.000000,16.000000,9.000000,0.000000,0.000000,0.648693,0.720122,0.116619,0.065598,0.710647,623.000000,607.000000,16.000000,9.000000,0.000000,0.000000:
0000
0000
0000
0000
,
0000
0000
0000
0000
,
0000
0000
0000
0000
,
0000
0000
0000
0000
,
0001
0000
1000
0000
0001
0100
0000
0000
0010
0000
1000
0010
0000
0100
0001
1000
,
0000
0000
0100
0000
0010
0100
0000
0000
1000
0000
0010
1000
0000
0001
0010
0100
,
0000
0000
0010
0000
0001
1000
0000
0000
0001
0000
0100
0010
0000
1000
0100
0010
,
0000
0000
0001
0000
1000
0001
0000
0000
0100
0000
0010
0000
0000
0000
1001
0000
,
1000
0010
0100
0010
1000
0001
1000
0100
,
0010
0001
0100
0001
0010
0100
0010
0001
,
0100
0001
1000
0001
0010
0100
1000
0010
,
0100
0001
1000
0001
0010
0100
1000
0010
,
1000
0000
0100
0000
1000
0001
1000
0000
0010
0000
0100
0001
0000
0010
0001
0100
,
0010
0000
1000
0000
0001
1000
0100
0000
1000
0000
0010
0100
0000
0010
1000
0100
,
0010
0000
0001
0000
0100
0001
1000
0000
0100
0000
1000
0001
0000
0100
0001
1000
,
0100
0000
0010
0000
0001
1000
0000
0000
0001
0000
0100
0000
0000
0000
1001
0000
,
0010
0000
0001
0000
0010
0001
1000
0000
0010
0000
1000
0100
0000
1000
0001
0100
,
0001
0000
0010
0000
0100
1000
0010
0000
1000
0000
0001
1000
0000
0100
1000
0001
,
0100
0000
0010
0000
1000
0100
0010
0000
0001
0000
0010
0100
0000
1000
0010
0100
,
0001
0000
1000
0000
0001
1000
0100
0000
1000
0000
0010
0000
0000
0000
0021
0000
,
0000
0000
1000
0000
0000
0030
0201
0000
0000
0000
1000
0000
0000
0300
1020
0000
,
0000
0000
0001
0000
0000
0030
1200
0000
0000
0000
0001
0000
0000
0300
1000
0000
,
0010
0000
0001
0000
0100
0000
0010
0000
1000
0000
0100
0010
0000
0001
1000
0010
,
0100
0000
0001
0000
1000
0001
0000
0000
1000
0000
0010
0000
0000
0000
0110
0000
,
0001
0000
1000
0000
0100
1000
0010
0000
0100
0000
0001
1000
0000
0010
0100
0001
,
1000
0000
0100
0000
0010
0001
0100
0000
0001
0000
1000
0010
0000
0100
0001
1000
,
0010
0000
0100
0000
0001
0010
0100
0000
0010
0000
0001
1000
0000
0100
0010
0001
,
1000
0000
0010
0000
0100
0001
1000
0000
0001
0000
0100
0000
0000
0000
1100
0000
,
0010
1000
0100
0001
0000
1001
0010
0100
,
0000
1100
0010
0001
0000
0110
0001
1000
,
0100
0000
0010
0001
0100
0000
0000
0000
0001
0000
1000
0001
0000
1000
0100
1000
,
0010
0100
0001
0000
2100
0000
3010
0000
,
1001
0000
0000
0010
0000
0000
0001
0000
0100
0010
0000
0000
1000
0000
0100
0010
,
0001
0000
0100
0001
0000
1000
0100
0000
0010
0001
1000
0000
0010
0000
0100
0010
,
1000
0000
0000
0100
0000
0000
0010
0000
0001
0100
0000
0000
0001
0000
1000
0010
,
0100
0000
0001
0000
0010
0000
0100
0000
0000
0000
1000
0000
0001
0000
0000
0000
1000
0000
0100
0000
0010
0000
0000
0000
0001
0100
0001
0000
1000
0000
0001
0000
,
0100
0000
0000
0010
0000
0000
1000
0000
0100
1000
0000
0000
0001
0000
0100
0001
,
1000
0000
0100
1000
0000
0001
1000
0000
0010
1000
0001
0000
0010
0000
0100
1000
,
0010
0000
0000
0100
0000
0000
0001
0000
0010
0100
0000
0000
1000
0000
0010
0100
,
0001
0000
0000
0000
0010
0000
0001
0000
0000
0000
0010
0000
0001
0000
0000
0000
1000
0000
0100
0000
0000
0000
0010
0000
0100
1000
0100
0000
1000
0000
0001
0000
,
0100
0000
0001
0010
0000
0000
0100
0000
1000
0001
0000
0000
0100
0000
0001
1000
,
0100
0000
1000
0001
0000
1000
0001
0000
0100
0010
1000
0000
0001
0000
0010
0100
,
1000
0000
0010
0100
0000
0000
0001
0000
0010
0001
0000
0000
0100
0000
0001
1000
,
0010
0000
0100
0000
0001
0000
1000
0000
0000
0000
0100
0000
0010
0000
0000
0000
0001
0000
1000
0000
0001
0000
0000
0000
1000
0100
1000
0000
0001
0000
0100
0000
,
0010
0000
1000
0010
0000
0000
1000
0000
0100
1000
0000
0000
0001
0000
0100
0001
,
1000
0000
0100
0010
0000
0100
0010
0000
0001
0100
0010
0000
1000
0000
0010
0100
,
0001
0000
1000
0100
0000
0000
1000
0000
0001
0010
0000
0000
0100
0000
1000
0010
,
0100
0000
0000
0000
0001
0000
0010
0000
0000
0000
0001
0000
0100
0000
0000
0000
0001
0000
1000
0000
0001
0000
0100
0000
0010
1000
0010
0000
1000
0000
0001
0000
,
0100
0000
0000
0010
1000
0000
0000
0100
0010
0000
0000
0001
0100
0000
0000
0001
,
0010
0000
0000
0100
1000
0000
0010
0000
0000
0000
1000
0000
0001
0000
0100
0000
,
0001
0000
0000
0010
0100
0000
1000
0000
0000
0000
0000
0010
0100
0000
0000
0001
,
1000
0000
0000
0100
0010
0000
0001
0000
1000
0000
0010
0000
0000
0000
1001
0000
,
0000
0000
0000
1000
0001
0000
0000
0001
0100
0000
0000
0100
0010
0000
0000
0010
,
1000
0000
0000
0100
0010
0000
0001
0000
0000
0000
1000
0000
0000
0000
0010
0100
,
0001
0000
0000
0001
1000
0000
0100
0000
0000
0000
0000
0010
0001
0000
0000
0100
,
0010
0000
0000
1000
0100
0000
1000
0000
0001
0100
0010
1000
0100
0010
0001
1000
,
0001
0000
0100
0001
1000
0000
0100
1000
0010
0000
1000
0001
0010
0000
0100
0010
,
0001
0000
1000
0010
0100
0000
0001
0000
0000
0000
1000
0000
0010
0000
0001
0000
,
1000
0000
0100
0000
0000
0000
0001
0000
0010
0000
0100
1000
0010
0000
0100
0001
,
1000
0000
0100
1000
0010
0000
1000
0010
1000
0000
0001
0010
0100
0000
0010
0001
,
1000
0000
0001
1000
0010
0000
0100
0001
0010
0000
0100
1000
0001
0000
1000
0100
,
0010
0000
0001
0100
0001
0000
1000
0010
0100
0000
0001
0010
0100
1000
0100
0000
,
0010
0000
0001
1000
0010
0000
0100
0000
0000
0000
0001
0000
1000
0100
0010
0000
,
0001
0000
0000
0000
0100
0001
1000
0000
0000
0000
0000
0000
0100
0000
0010
0000
,
2002
0000
0000
0000
,
0000
0000
0000
3003
,
0000
0000
0100
0000
0100
0000
0000
0000
0001
0000
0000
1000
0000
0000
0100
0000
,
0000
0000
0010
0000
0010
0000
0000
0000
1000
0000
0000
0010
0000
0000
0001
0000
,
0000
0000
0100
0000
0001
0100
0000
0000
0010
0000
0000
1000
0000
0000
0001
0000
,
0000
0000
1000
0000
0100
1000
0000
0000
0001
0000
0000
0010
0000
0000
0100
0000
,
0000
0010
0001
0000
1000
0001
0000
0000
1000
0000
0000
0010
0000
0000
0100
0001
,
0000
1000
0100
0000
0010
0100
0000
0000
1000
0000
0000
0010
0000
0000
1000
0001
,
0000
0100
0001
0000
1000
0100
0000
0010
0001
0000
0001
0010
0000
0100
1000
0001
,
0000
1000
0100
0000
0100
0010
0000
0000
0001
0000
1000
0000
0000
0000
2002
0000
,
0000
0000
0000
0000
,
0000
0000
0000
0000
,
3003
0000
0000
0000
;

//---------------dance-single - ----------------
#NOTES:
     dance-single:
     :
     Hard:
     8:
     0.461269,0.470849,0.269681,0.123908,0.134841,443.000000,406.000000,37.000000,17.000000,0.000000,0.000000,0.461269,0.470849,0.269681,0.123908,0.134841,443.000000,406.000000,37.000000,17.000000,0.000000,0.000000:
0000
0000
0000
0000
,
0000
0000
0000
0000
,
0000
0000
0000
0000
,
0000
0000
0000
0000
,
0100
0000
0001
0000
1000
0000
0000
0000
0100
0000
0000
1010
0000
0000
1000
0000
,
0001
0000
0100
0000
0010
0000
0000
0000
1000
0000
0000
1001
0000
0000
0001
0000
,
0010
0000
0100
0000
1000
0000
0000
0000
0010
0000
0000
0110
0000
0000
0100
0000
,
0001
1000
0100
0000
1000
0001
0000
1001
,
0000
0010
1000
0001
1000
0100
1000
0001
,
0100
0001
1000
0100
1000
0001
1000
0001
,
0010
0001
1000
0001
1000
0010
1000
0001
,
1000
0100
1000
0001
0100
0001
1000
0000
,
0001
0100
0010
0100
0001
1000
0001
0100
,
0001
0010
0100
0010
0100
1000
0010
1000
,
0010
0100
0001
1000
0100
1000
0001
1000
,
0010
1000
0100
0000
1000
0001
0000
1001
,
0000
0001
0100
0010
1000
0001
1000
0100
,
0010
0100
1000
0100
0010
0001
0000
1001
,
0000
1000
0010
0100
0001
0100
0010
1000
,
0001
1000
0010
1000
0100
0010
0000
0011
,
0000
1000
0000
1100
0000
0001
0000
0101
,
0000
0010
0000
1010
0000
0001
0000
1000
,
0001
0100
0000
0010
0000
1000
0000
0001
,
0000
1000
0100
0010
0001
1000
0000
1001
,
0000
1000
0010
1000
0001
0010
0001
1000
,
0001
0100
0001
1000
0100
0010
0000
1001
,
0000
1000
0010
1000
0001
1000
0100
0010
,
0001
1000
0010
0100
0001
0010
0000
0110
,
0000
1000
0010
1000
0000
0001
0010
0100
,
0000
0010
0001
1000
0000
0001
0100
0001
,
0000
1000
0100
0000
0010
0001
0100
0000
,
0001
1000
0010
0100
0001
0000
0000
0000
,
1001
0000
0000
1000
0000
0000
0010
0000
0000
0100
0000
0000
0001
0000
1000
0000
,
0100
0000
0000
1000
0000
0000
0001
0000
0000
0010
0000
0000
0001
0000
0100
0000
,
0010
0000
0000
1000
0000
0000
0001
0000
0000
1000
0000
0000
0010
0000
0100
0000
,
0001
0000
0000
0010
0000
0000
0100
0000
0000
1000
0000
0000
0010
0000
1000
0000
,
0100
0000
0000
1000
0000
0000
0001
0000
0000
0100
0000
0000
0001
0000
1000
0000
,
0001
0000
0000
0010
0000
0000
0001
0000
0000
1000
0000
0000
0010
0000
1000
0000
,
0001
0000
0000
1000
0000
0000
0100
0000
0000
1000
0000
0000
0001
0000
0100
0000
,
0010
0000
0000
1000
0000
0000
0100
0000
0000
0010
0001
0000
0100
0000
0010
0000
,
1000
0100
0000
0202
0000
0303
0001
0010
,
0100
0000
0000
1000
0000
0000
0010
0000
0000
1000
0000
0000
0100
0000
0010
0000
,
0001
1000
0000
0022
0000
0033
1000
0010
,
0100
0000
0000
0001
0000
0000
0010
0000
0000
0100
0000
0000
1000
0000
0001
0000
,
0100
0010
0000
2200
0000
3300
0010
1000
,
0001
0000
0000
0100
0000
0000
0010
0000
0000
1000
0000
0000
0001
0000
1000
0000
,
0010
0100
0000
2020
0000
3030
1001
0000
,
1000
0000
0000
0001
0000
0000
0010
0000
0100
0000
1000
0000
0000
0000
2002
0000
,
0000
3003
0101
0000
1100
0000
1001
0000
,
0010
0000
1001
0000
1000
0001
1000
0100
,
0000
0010
0100
0000
0010
0000
0101
0000
,
0001
0000
1100
0000
1000
0001
0000
2002
,
0000
3003
1010
0000
0011
0000
1001
0000
,
0010
0000
0000
0000
0101
0000
0000
0000
0001
0000
1000
0000
0000
0000
0010
1000
,
0010
1010
0100
1100
,
0001
0000
1001
0000
1000
0100
0001
0100
,
0010
0000
1001
0000
0010
0001
1000
0000
,
0010
1000
0100
1000
0000
0001
0100
0020
,
0000
0100
0130
0000
0001
1000
0001
0000
,
0010
0001
1000
0000
0010
1000
0100
1000
,
0010
0100
0001
0000
1000
0100
1000
0001
,
0100
0000
0000
0000
0010
0000
1000
0000
0100
0000
0000
0000
1000
0001
1000
0000
,
0000
0000
0010
0000
0100
0000
0000
0000
0001
0000
0010
0000
0100
0010
0100
0000
,
0000
0000
0000
0000
1000
0001
1000
0000
0000
0000
0000
0000
0100
0000
0010
0000
,
2002
0000
0000
0000
,
0000
0000
0000
3003
,
0000
0000
0100
0000
0100
0000
0000
0000
0001
0000
0000
1000
0000
0000
0100
0000
,
0000
0000
0010
0000
0010
0000
0000
0000
1000
0000
0000
0010
0000
0000
0001
0000
,
0000
0000
0100
0000
0100
0000
0000
0000
0010
0000
0000
1000
0000
0000
0001
0000
,
0000
0000
1000
0000
0100
0000
0000
0000
1000
0000
0000
0010
0000
0000
0100
0000
,
0000
0000
0001
0000
1000
0000
0000
0000
0001
0000
0000
0010
0000
0000
0100
0000
,
1000
0000
0010
0000
0100
0000
0000
0000
0001
0000
0000
1000
0000
0000
0100
0000
,
0010
0000
0001
0000
1000
0000
0010
0000
0100
0000
0000
0001
0000
0000
0010
0000
,
0100
0010
0001
1000
0100
0010
0000
2002
,
0000
0000
0000
0000
,
0000
0000
0000
0000
,
3003
0000
0000
0000
;

//---------------dance-single - ----------------
#NOTES:
     dance-single:
     :
     Medium:
     6:
     0.348816,0.387758,0.284259,0.116619,0.000000,335.000000,296.000000,39.000000,16.000000,0.000000,0.000000,0.348816,0.387758,0.284259,0.116619,0.000000,335.000000,296.000000,39.000000,16.000000,0.000000,0.000000:
0000
0000
0000
0000
,
0000
0000
0000
0000
,
0000
0000
0000
0000
,
0000
0000
0000
0000
,
2000
0000
3100
0001
,
0020
0000
0130
0001
,
0200
0000
0310
1000
,
0002
0000
0000
0000
0103
0010
0000
1001
,
0000
1000
0001
0010
,
1000
0010
1000
0000
0001
0100
0010
0000
,
0100
0001
0010
0100
,
1000
0001
1000
0000
0001
0100
0010
0000
,
1000
0100
0010
0001
,
0010
0100
0010
0000
0001
1000
0010
0000
,
0100
1000
0100
0001
,
1000
0001
0100
0000
0010
1000
0000
1001
,
0000
0010
1000
0100
,
0010
0001
0100
0000
0001
1000
0000
0010
,
0000
0100
0100
0000
0010
0000
1000
0000
,
0100
0000
0010
0000
0001
1000
0000
0001
,
0000
0010
0000
0110
0000
1000
0000
0001
,
0000
0100
0000
1001
0000
0100
0000
0010
,
1000
0100
0000
0000
0000
0000
0000
0000
,
0000
0000
0000
0000
1000
0001
0000
1001
,
0000
0000
1000
0010
1000
0000
1100
0000
,
0001
0010
0100
0000
1000
0001
0000
0100
,
0000
0010
0100
0000
0001
0000
0101
0000
,
0001
0000
0010
0000
0100
1000
0000
0010
,
0000
0000
1000
0001
0100
0000
0010
1000
,
0100
0000
1000
0001
0000
0100
0001
0100
,
0000
0010
0100
0000
0000
0000
0000
0000
,
0101
1100
1001
0000
,
0020
0000
0000
0030
0100
0000
0010
0110
,
0110
0000
1000
0000
0001
1000
0010
0000
,
0210
0000
0000
0000
0301
0000
1000
1001
,
1001
0000
0100
0000
1000
0100
0010
0000
,
0012
0000
0000
0000
0103
0000
0010
0110
,
0110
0000
0001
0000
1000
0001
0100
0000
,
2010
0000
0000
0000
3100
0000
0010
1001
,
1001
0000
0100
0000
0001
1000
0100
0000
,
0101
0200
0000
0010
0000
0000
0300
0000
,
1000
0001
0010
0100
,
1100
0200
0000
0010
0000
0000
1300
0000
,
0010
0000
0100
0000
0001
1000
0100
0000
,
0110
0200
0000
0010
0000
0000
0300
0000
,
1000
0000
0010
0000
0100
0001
1000
0000
,
0110
0200
0000
0010
0000
0000
0301
0000
,
0010
0000
0100
0000
1000
0001
0000
1001
,
0000
1100
0110
0011
,
0001
0010
1000
0000
1000
0001
0010
0000
,
0100
0000
1000
0000
0001
0000
0100
0010
,
1000
0000
0001
0000
0100
0010
0000
1001
,
0000
0101
0110
1010
,
1000
0100
0010
0000
0001
0100
1000
0000
,
0001
0000
0100
0000
0010
0000
1000
0001
,
0010
0000
0100
0000
1000
0001
1000
0001
,
1000
0100
0001
0101
,
1000
0000
0100
1000
0100
0000
0001
0100
,
0001
0110
1000
0010
,
0001
0000
1000
0010
0100
0000
0100
0000
,
0001
0100
1000
1100
,
0001
0000
0100
0001
0100
0000
1000
0100
,
1000
0000
0110
0000
0001
0000
0010
0100
,
1000
0000
0001
0010
0100
0000
0010
0000
,
2002
0000
0000
0000
,
0000
0000
0000
3003
,
0000
0000
0100
0000
0001
0000
0000
0010
,
0000
0000
1000
0000
0100
0000
0000
0010
,
0000
0000
0001
0000
0100
0000
0000
1000
,
0000
0000
0010
0000
0100
0000
0001
0010
,
0000
0000
0100
0000
1000
0000
0010
0100
,
0000
0000
0001
0000
1000
0000
0100
0010
,
0000
0000
0001
0000
1000
0000
0010
0100
,
0001
0000
1000
0000
0100
0010
0000
2002
,
0000
0000
0000
0000
,
0000
0000
0000
0000
,
3003
0000
0000
0000
;

//---------------dance-single - ----------------
#NOTES:
     dance-single:
     :
     Easy:
     4:
     0.260310,0.276970,0.043732,0.145774,0.000000,250.000000,244.000000,6.000000,20.000000,0.000000,0.000000,0.260310,0.276970,0.043732,0.145774,0.000000,250.000000,244.000000,6.000000,20.000000,0.000000,0.000000:
// measure 0
0000
0000
0000
0000
,  // measure 1
0000
0000
0000
0000
,  // measure 2
0000
0000
0000
0000
,  // measure 3
0000
0000
0000
0000
,  // measure 4
2000
0000
3001
0100
,  // measure 5
0002
0000
0013
0100
,  // measure 6
0020
0000
0130
0010
,  // measure 7
0200
0000
0310
0000
,  // measure 8
0001
0100
0001
0010
,  // measure 9
0100
1000
0001
0100
,  // measure 10
0001
1000
0010
0100
,  // measure 11
0001
0010
0100
1000
,  // measure 12
0001
1000
0100
0010
,  // measure 13
0001
0100
0001
0010
,  // measure 14
0100
1000
0100
0001
,  // measure 15
1000
0001
0100
0000
,  // measure 16
0001
1000
0100
0010
,  // measure 17
0001
0100
0010
0010
,  // measure 18
1000
0100
1000
0001
,  // measure 19
0100
0010
1000
0001
,  // measure 20
0100
0010
0100
0010
,  // measure 21
1000
0010
1000
0010
,  // measure 22
0100
0001
0010
0100
,  // measure 23
1000
0001
0100
0000
,  // measure 24
0010
1000
0100
1000
,  // measure 25
0001
0100
0001
1000
,  // measure 26
0010
0100
0001
0010
,  // measure 27
0100
1000
0001
0100
,  // measure 28
0010
1000
0100
1000
,  // measure 29
0100
0001
0100
0001
,  // measure 30
0100
0010
0100
0010
,  // measure 31
1000
0001
0100
0000
,  // measure 32
0002
0000
1003
0001
,  // measure 33
0100
0010
1000
0000
,  // measure 34
0200
0000
0310
0001
,  // measure 35
1000
0100
1000
0000
,  // measure 36
0020
0000
1030
0001
,  // measure 37
0010
0001
0100
0000
,  // measure 38
2000
0000
3010
0100
,  // measure 39
0001
1000
0100
0010
,  // measure 40
0001
0010
0022
0033
,  // measure 41
1000
0001
0010
0100
,  // measure 42
1000
0100
2200
3300
,  // measure 43
0010
0100
0001
0100
,  // measure 44
0010
1000
2002
3003
,  // measure 45
1000
0001
0010
0100
,  // measure 46
1000
0010
0220
0330
,  // measure 47
0001
0010
0100
1000
,  // measure 48
0001
0001
1000
1000
,  // measure 49
0010
1000
0100
1000
,  // measure 50
0010
0100
0010
0100
,  // measure 51
0001
1000
0001
1000
,  // measure 52
0001
0010
0010
0100
,  // measure 53
0100
1000
0001
1000
,  // measure 54
0001
0100
0010
1000
,  // measure 55
0100
0010
0001
0100
,  // measure 56
0001
1000
0001
0100
,  // measure 57
1000
0100
0001
0100
,  // measure 58
0010
1000
0001
0010
,  // measure 59
0100
1000
0100
0001
,  // measure 60
1000
0100
1000
1000
,  // measure 61
0001
0100
0001
0001
,  // measure 62
1000
0010
0001
0010
,  // measure 63
1000
0100
0010
0001
,  // measure 64
2002
0000
0000
0000
,  // measure 65
0000
0000
0000
3003
,  // measure 66
0000
0100
0001
0000
,  // measure 67
0000
1000
0100
0000
,  // measure 68
0000
0001
0100
0000
,  // measure 69
0000
0010
0100
0001
,  // measure 70
0000
0100
1000
0010
,  // measure 71
0000
0001
1000
0100
,  // measure 72
0000
0001
1000
0010
,  // measure 73
0001
1000
0100
0000
,  // measure 74
2002
0000
0000
0000
,  // measure 75
0000
0000
0000
0000
,  // measure 76
3003
0000
0000
0000
;

//---------------dance-single - ----------------
#NOTES:
     dance-single:
     :
     Beginner:
     1:
     0.123908,0.136207,0.007289,0.102042,0.000000,119.000000,118.000000,1.000000,14.000000,0.000000,0.000000,0.123908,0.136207,0.007289,0.102042,0.000000,119.000000,118.000000,1.000000,14.000000,0.000000,0.000000:
// measure 0
0000
0000
0000
0000
,  // measure 1
0000
0000
0000
0000
,  // measure 2
0000
0000
0000
0000
,  // measure 3
0000
0000
0000
0000
,  // measure 4
0002
0000
0003
0000
,  // measure 5
0020
0000
0030
0000
,  // measure 6
0200
0000
0300
0000
,  // measure 7
2000
0000
3000
0000
,  // measure 8
0010
0000
0010
0000
,  // measure 9
0100
0000
0100
0000
,  // measure 10
0001
0000
0001
0000
,  // measure 11
1000
0000
1000
0000
,  // measure 12
0100
0000
0010
0000
,  // measure 13
0100
0000
0010
0000
,  // measure 14
0001
0000
0100
0000
,  // measure 15
0010
0000
1000
0000
,  // measure 16
0100
0000
0100
0000
,  // measure 17
0010
0000
0010
0000
,  // measure 18
0001
0000
0001
0000
,  // measure 19
0100
0000
0100
0000
,  // measure 20
0010
0000
1000
0000
,  // measure 21
0100
0000
1000
0000
,  // measure 22
0010
0000
0100
0000
,  // measure 23
0010
0000
0100
0000
,  // measure 24
0001
0000
1000
0000
,  // measure 25
0100
0000
1000
0000
,  // measure 26
0001
0000
0100
0000
,  // measure 27
0001
0000
0010
0000
,  // measure 28
0100
0000
1000
0000
,  // measure 29
0010
0000
0100
0000
,  // measure 30
0001
0000
1000
0000
,  // measure 31
0001
0000
1000
0000
,  // measure 32
0010
0000
0000
0000
,  // measure 33
1000
0000
0100
0000
,  // measure 34
2000
0000
3000
0000
,  // measure 35
0001
0000
0100
0000
,  // measure 36
0002
0000
0003
0000
,  // measure 37
0010
0000
0001
0000
,  // measure 38
0020
0000
0030
0000
,  // measure 39
0100
0000
1000
0000
,  // measure 40
0200
0000
0300
0000
,  // measure 41
0010
0000
0100
0000
,  // measure 42
2000
0000
3000
0000
,  // measure 43
0001
0000
0100
0000
,  // measure 44
0002
0000
0003
0000
,  // measure 45
0010
0000
0001
0000
,  // measure 46
2000
0000
3000
0000
,  // measure 47
0002
0000
0003
0000
,  // measure 48
0100
0000
0100
0000
,  // measure 49
0010
0000
0010
0000
,  // measure 50
1000
0000
0100
0000
,  // measure 51
0010
0000
0001
0000
,  // measure 52
0100
0000
0010
0000
,  // measure 53
1000
0000
0001
0000
,  // measure 54
0100
0000
0010
0000
,  // measure 55
1000
0000
0001
0000
,  // measure 56
0010
0000
0010
0000
,  // measure 57
0100
0000
0100
0000
,  // measure 58
1000
0000
0100
0000
,  // measure 59
0001
0000
0100
0000
,  // measure 60
0010
0000
0100
0000
,  // measure 61
0001
0000
0010
0000
,  // measure 62
0100
0000
0010
0000
,  // measure 63
0100
0000
1000
0000
,  // measure 64
0001
0000
0000
0000
,  // measure 65
0100
0000
0000
0000
,  // measure 66
0010
0000
0000
0000
,  // measure 67
1000
0000
0000
0000
,  // measure 68
0001
0000
0000
0000
,  // measure 69
0010
0000
0000
0000
,  // measure 70
0100
0000
0000
0000
,  // measure 71
0010
0000
0000
0000
,  // measure 72
0100
0000
0000
0000
,  // measure 73
0010
0000
0000
0000
,  // measure 74
2002
0000
0000
3003
;
