#TITLE:Grandma - Destruction;
#SUBTITLE:The Puppet's Bunker;
#ARTIST:Keiichi Okabe;
#TITLETRANSLIT:;
#SUBTITLETRANSLIT:;
#ARTISTTRANSLIT:;
#GENRE:NieR Automata - FFXIV Death Unto Dawn;
#CREDIT:[Ness];
#BANNER:Final Fantasy XIV - Grandma - Destruction.png;
#BACKGROUND:Final Fantasy XIV - Grandma - Destruction-bg.png;
#LYRICSPATH:Final Fantasy XIV - Grandma - Destruction.lrc;
#CDTITLE:;
#MUSIC:Final Fantasy XIV - Grandma - Destruction.mp3;
#OFFSET:-0.015000;
#SAMPLESTART:107.053963;
#SAMPLELENGTH:12.972977;
#LASTBEATHINT:336.000000;
#SELECTABLE:YES;
#BPMS:0.000000=148.000000
;
#STOPS:
;
#BGCHANGES:;
#KEYSOUNDS:;
#ATTACKS:;

//---------------dance-single - ----------------
#NOTES:
     dance-single:
     :
     Challenge:
     10:
     0.652430,0.919006,0.091060,0.350231,0.987651,652.000000,639.000000,13.000000,50.000000,502.000000,0.000000,0.652430,0.919006,0.091060,0.350231,0.987651,652.000000,639.000000,13.000000,50.000000,502.000000,0.000000:
0000
0000
0000
0000
,
0000
0000
0000
0000
,
0000
0000
0000
0000
,
1001
1001
0100
0010
1000
0100
1001
1001
,
0100
0010
0001
1000
0010
0100
0001
1000
,
0100
0010
0010
0001
0001
1000
1000
0010
,
0100
0001
0001
1000
1000
0100
0010
0001
,
0001
0100
0010
1000
0100
0001
0100
0100
,
0010
1000
0001
1000
0100
0001
0100
1000
,
2002
0000
3003
0010
2000
0000
3000
0100
,
0002
0000
0000
0000
0003
0000
0010
0000
0100
0000
1000
0000
0001
0100
0010
0100
,
0002
0000
0003
0010
2000
0000
3000
0010
,
0200
0000
0000
0000
0300
0000
1000
0000
0010
0000
0100
0000
0010
1000
0100
0010
,
0002
0000
0003
1000
0200
0000
0310
0001
,
1000
0000
0001
0000
0100
0000
1000
0000
0100
0000
0001
0000
0010
0100
1000
0001
,
0100
0010
0100
0001
1000
0100
0010
0001
,
1000
1000
0001
0001
0100
1000
0100
0001
,
1001
0000
0000
1000
0100
0000
0110
0000
0000
0010
0001
0000
0100
0001
1000
0001
,
0100
0000
0000
0010
1000
0000
0100
0000
0000
0100
0010
0000
0001
1000
0010
0100
,
0001
0000
0000
0001
0010
0000
1000
0000
0000
1000
0010
0000
0100
0001
1000
0100
,
0010
0000
0000
0010
0100
0000
1000
0000
0000
1000
0010
0000
0100
0001
0010
0001
,
0100
0000
0000
0010
1000
0000
0100
0000
0000
0100
0001
0000
0100
0010
0001
0010
,
0100
0000
0000
1000
0100
0000
0010
0000
0000
0001
0100
0000
0001
1000
0010
0100
,
0001
0000
0010
0100
1000
0100
0010
0001
1000
0100
0010
0100
1000
0010
0100
0001
,
1000
0010
1000
0001
0100
0010
0100
0001
1000
0100
1000
0001
0100
0010
1000
0100
,
1000
0000
0000
1000
0100
0000
0001
0000
0000
0001
0100
0000
1000
0100
0010
0001
,
0100
0000
0000
0010
1000
0000
0100
0000
0000
0100
0001
0000
0100
0010
0001
0010
,
0100
0000
0000
1000
0001
0000
0100
0000
0000
0010
1000
0000
1000
0100
0010
0100
,
1000
0000
0000
0010
0100
0000
0001
0000
0000
0001
0010
0000
0100
1000
0001
0100
,
0010
0000
0000
0010
1000
0000
0001
0000
0000
0010
0100
0000
1000
0010
0100
0010
,
1000
0000
0000
1000
0100
0000
0010
0000
0000
0001
0100
0000
0010
0100
0001
0100
,
0010
0000
0000
1000
0001
0000
0100
0000
0000
0001
0010
0000
0100
1000
0001
1000
,
0100
0000
0000
0010
0001
0100
0001
0010
0100
1000
0010
1000
0001
0100
0010
0100
,
0001
0000
0000
1000
0100
0000
0010
0000
0001
1000
0010
0000
0100
0000
0001
0000
,
1000
0000
0000
0100
0010
0000
0001
0000
1000
0100
1000
0000
0010
0000
0100
0000
,
0001
0000
0000
0010
0100
0000
1000
0000
0001
0100
0010
0000
1000
0100
0010
0001
,
0100
0000
0000
0010
1000
0000
0100
0000
0010
0001
0100
0000
0010
1000
0001
0100
,
0001
0000
0000
0010
0100
0000
1000
0000
0001
0100
0010
0000
1000
0000
0100
0000
,
0010
0000
0000
0001
1000
0000
0010
0000
0100
0001
0010
0000
0100
0000
1000
0000
,
0001
0000
0000
0100
0001
0000
0010
0000
0100
1000
0001
0000
0100
0000
0010
0000
,
1000
0000
0000
0001
1000
0000
0100
0000
0100
0010
0001
0000
1000
0100
1000
0000
,
1001
0000
0000
0010
0100
0000
1000
0000
0001
0010
0100
0000
1000
0000
0001
0000
,
0100
0000
0000
0001
0010
0000
0100
0000
1000
0001
0100
0000
0010
0000
1000
0000
,
0100
0000
0000
0100
0010
0000
0001
0000
1000
0001
0100
0000
0010
0000
1000
0000
,
0001
0000
0000
1000
0100
0000
0010
0000
0001
0100
0010
0000
0100
0001
1000
0001
,
0101
0000
0000
0010
1000
0000
0100
0000
0010
0001
0100
0000
0001
1000
0100
0010
,
1001
0000
0000
1000
0100
0000
1000
0000
0001
0100
0010
0000
1000
0001
0100
0010
,
1001
0000
0000
1000
0010
0000
0100
0000
0001
0010
0100
0000
1000
0001
0100
0010
,
0110
0000
0000
0001
0010
0000
0100
0000
0100
1000
0010
0000
0010
0100
0001
0100
,
0001
0000
0000
0000
0000
0000
0000
0000
0100
0000
0000
0000
0000
0000
0000
0000
1000
0000
0000
0000
0000
0000
0000
0000
0000
0000
0000
0000
0000
0000
1000
0000
0000
0001
0000
0000
0010
0000
0000
0100
0000
0000
1000
0000
0000
0001
0000
0000
,
0200
0000
0000
0000
M00M
0000
M31M
0000
000M
1000
0000
0000
0MM2
0000
MMM0
0000
0MM0
0000
1MM3
0000
0MM0
0000
00M0
0000
,
M2MM
M0MM
M0MM
M3MM
M0MM
M00M
MM2M
MM0M
MM0M
MM3M
MM0M
MM00
,
MMM2
MMM0
MMM0
MMM3
MMM0
M0M0
M2MM
M0MM
M0MM
M3MM
M0MM
00MM
,
2MMM
0MMM
0MMM
3MMM
0MMM
0M0M
MM2M
MM0M
MM0M
MM3M
MM0M
M00M
,
M2MM
M0MM
M0MM
M3MM
M0MM
M0M0
MMM2
MMM0
MMM0
MMM3
MMM0
MM00
,
MM2M
MM0M
MM0M
MM3M
MM0M
0M0M
2MMM
0MMM
0MMM
3MMM
0MMM
00MM
,
M2MM
M0MM
M0MM
M3MM
M0MM
M00M
MM2M
MM0M
MM0M
MM3M
MM0M
0M0M
,
2MMM
0MMM
0MMM
3MMM
0MMM
0MM0
MMM2
MMM0
MMM0
MMM3
MMM0
M0M0
,
M2MM
0000
M0MM
0000
M00M
0000
M01M
0000
M00M
0300
000M
0000
20MM
0000
0MMM
0000
00MM
0000
01MM
0000
00MM
3000
00M0
0000
,
0MM2
0000
MMM0
0000
MM00
0000
MM10
0000
MM00
0003
M000
0000
M2M0
0000
M0MM
0000
M0M0
0000
M0M1
0000
M0M0
0300
M000
0000
,
M02M
0000
MM0M
0000
0M0M
0000
1M0M
0000
0M0M
0030
000M
0000
M20M
0000
M0MM
0000
M00M
0000
M01M
0000
M00M
0300
000M
0000
,
20MM
0000
0MMM
0000
0MM0
0000
0MM1
0000
0MM0
3000
0M00
0000
0M2M
0000
MM0M
0000
M00M
0000
M10M
0000
M00M
0030
M000
0000
,
MM02
0000
MMM0
0000
MM00
0000
MM10
0000
MM00
0003
0M00
0000
2MM0
0000
0MMM
0000
00MM
0000
01MM
0000
00MM
3000
000M
0000
,
0M2M
0000
MM0M
0000
0M0M
0000
1M0M
0000
0M0M
0030
000M
0000
M20M
0000
M0MM
0000
M0M0
0000
M0M1
0000
M0M0
0300
00M0
0000
,
20MM
0000
0MMM
0000
00MM
0000
01MM
0000
00MM
3000
00M0
0000
0MM2
0000
MMM0
0000
0MM0
0000
1MM0
0000
0MM0
0003
0M00
0000
,
MM20
0000
MM0M
0000
MM00
0000
MM01
0000
MM00
0030
0M00
0000
2M0M
0000
0MMM
0000
00MM
0000
01MM
0000
00MM
3000
000M
0000
,
022M
0000
M330
0010
2000
000M
3010
0100
,
0002
0000
00M0
0000
1003
0000
0010
0000
010M
0000
1000
0000
0001
M100
0010
1000
,
0200
00M0
0000
0000
0310
0000
0001
0000
2000
0000
0M00
0000
3001
0000
0100
0000
,
0020
0000
000M
0000
1030
0000
0100
0000
M001
0000
0100
0000
001M
1000
0100
0010
,
0002
0000
0M13
1000
020M
0000
M310
0001
,
1000
0000
0001
0000
0100
0000
100M
0000
0100
0000
M001
0000
0010
0100
1000
00M1
,
0100
0010
M100
0001
10M0
0100
0010
0M01
,
1000
1000
00M1
M001
0100
1000
01M0
0001
,
0010
0000
M010
0000
0100
0000
010M
0000
1000
0000
10M0
0000
0M01
1000
0010
0100
,
0001
0000
00M1
0000
1000
0000
100M
0000
0100
0000
M010
0000
0001
1000
0010
0100
,
001M
0000
0M10
0000
1000
0000
10M0
0000
0100
0000
M010
0000
0100
1000
0001
1000
,
0100
0000
001M
0000
0010
0000
M001
0000
0001
0000
01M0
0000
0100
0010
100M
0100
,
0010
0000
0010
0000
M001
0000
0001
0000
10M0
0000
1000
0000
0M01
0010
0100
1000
,
0010
0000
010M
0000
0100
0000
0001
0000
00M1
0000
1M00
0000
1000
0100
0010
M001
,
0100
0000
1000
000M
0100
0000
0001
0000
10M0
0000
1M00
0000
0001
1000
0010
0100
,
0001
0000
M010
0000
001M
0000
M100
0000
0100
0000
10M0
0000
1M00
0001
0100
0010
,
100M
0000
0000
0000
;

//---------------dance-single - ----------------
#NOTES:
     dance-single:
     :
     Hard:
     7:
     0.494326,0.545660,0.175115,0.497328,0.126083,494.000000,469.000000,25.000000,71.000000,96.000000,0.000000,0.494326,0.545660,0.175115,0.497328,0.126083,494.000000,469.000000,25.000000,71.000000,96.000000,0.000000:
0000
0000
0000
0000
,
0000
0000
0000
0000
,
0000
0000
0000
0000
,
1002
0000
0103
0000
1000
0100
2100
0000
,
3010
0100
0001
0000
1000
0100
0010
0001
,
0120
0000
1030
0001
0100
0010
1002
0000
,
0013
0100
1000
0000
0001
1000
0010
0100
,
0001
0001
0010
0100
1000
0001
1000
0100
,
0010
0001
1000
0001
0100
0010
0100
0001
,
2002
0000
3003
0100
0020
0000
0030
1000
,
0200
0000
0310
0000
0001
1000
0001
0000
,
0202
0000
0303
1000
0020
0000
0030
0100
,
0002
0000
0013
0000
0100
1000
0001
0000
,
1200
0000
0310
1001
,
0001
1000
0010
0000
0100
0001
1000
0000
,
0100
1000
0001
0000
0010
0001
1000
0000
,
0010
1000
0100
1000
0001
0100
0010
1000
,
0100
0000
0000
0000
0000
0000
0110
0000
0000
1000
0001
0000
1000
0000
0100
0000
,
0010
0000
0000
0000
0001
0000
1000
0000
0000
0001
0100
0000
0010
0000
1000
0000
,
0100
0000
0000
0000
0010
0000
0100
0000
0000
1000
0010
0000
0100
0000
0001
0000
,
1000
0000
0000
0000
0001
0000
0010
0000
0000
0001
1000
0000
0100
0000
0010
0000
,
0100
0000
0000
0000
1000
0000
0010
0000
0000
0100
0001
0000
0010
0000
0001
0000
,
0100
0000
0000
0000
0010
0000
1000
0000
0000
0001
0010
0000
0100
0000
1000
0000
,
0001
1000
0001
0100
0001
1000
0001
0100
,
0010
1000
0001
1000
0010
0100
0001
0010
,
0200
0000
0000
0000
0300
0000
1100
0000
0000
1000
0010
0000
1000
0000
0001
0000
,
0100
0000
0000
0001
0010
0000
0100
0000
0000
1000
0001
0000
1000
0000
0100
0000
,
0010
0000
0000
0001
0010
0000
0100
0000
0000
0010
0001
0000
1000
0000
0001
0000
,
0100
0000
0000
0010
1000
0000
0010
0000
0000
0100
0001
0000
1000
0000
0001
0000
,
0100
0000
0000
0100
0010
0000
1000
0000
0000
1000
0100
0000
0010
0000
0001
0000
,
1000
0000
0000
1000
0001
0000
0100
0000
0000
0100
0010
0000
1000
0000
0001
0000
,
0010
0000
0000
0001
1000
0000
0010
0000
0000
1000
0001
0000
0100
0000
0010
0000
,
0100
0001
1000
0100
1000
0001
0010
0100
,
2000
0000
0000
0000
3010
0000
0100
0000
0000
0001
0010
0000
0001
0000
1000
0000
,
0002
0000
0000
0000
0103
0000
0010
0000
0000
1000
0001
0000
1000
0000
0100
0000
,
0020
0000
0000
0000
0130
0000
1000
0000
0000
0001
1000
0000
0010
0000
0100
0000
,
0020
0000
0000
0000
1030
0000
0001
0000
0000
0010
0100
0000
0010
0000
0001
0000
,
0200
0000
0000
0000
0310
0000
1000
0000
0000
0100
1000
0000
0001
0000
1000
0000
,
0020
0000
0000
0000
0130
0000
0001
0000
0000
1000
0001
0000
0100
0000
0010
0000
,
2000
0000
0000
0000
3100
0000
0010
0000
0000
0100
1000
0000
0001
0000
1000
0000
,
0020
0000
0000
0000
0130
0000
0001
0000
0000
1000
0001
0000
0100
0000
0010
0000
,
2010
0000
3100
0010
0012
0000
0103
0000
,
0201
0000
0310
1000
0002
0000
0013
0100
,
0110
0000
0000
1000
0010
0000
0100
0000
0000
0001
1000
0000
0001
0000
0010
0000
,
0100
0000
0000
1000
0010
0000
0100
0000
0000
0010
1000
0000
0001
0000
0100
0000
,
0110
0000
0000
1000
0100
0000
1000
0000
0001
0000
1000
0000
0010
0000
0100
0000
,
0101
0000
0000
0001
1000
0000
0001
0000
0010
0000
0100
0000
1000
0000
0000
0000
,
0110
0000
0000
1000
0010
0000
0000
0000
0110
0000
0000
0001
0100
0000
0010
0000
,
0100
0000
0001
1000
0100
0000
0101
0000
,
1100
0000
0000
0100
0000
0101
0000
0000
,
0200
M000
031M
1000
00M2
0M00
1003
0000
,
0200
M000
030M
0000
0020
0M00
M030
0000
,
0002
00M0
0M03
0000
0200
0000
030M
00M0
,
2000
0000
3M00
000M
0020
0000
0M30
M000
,
0200
0000
03M0
M000
0002
0000
00M3
0M00
,
0020
0000
003M
0M00
2000
0000
3M00
00M0
,
0200
0000
M300
000M
0020
0000
0M30
000M
,
2000
0000
30M0
0M00
0002
M000
00M3
M000
,
0200
000M
M010
0300
2000
00M0
010M
3000
,
0002
0M00
M010
0003
0200
0000
00M1
M300
,
0020
0000
1M00
003M
0200
0000
M010
030M
,
2000
0000
00M1
3M00
0020
0000
010M
M030
,
0002
0000
M010
0M03
2000
0000
01M0
300M
,
0020
0000
1M00
003M
0200
0000
M001
03M0
,
2000
0000
010M
30M0
0002
0000
10M0
0M03
,
0020
0000
M001
0M30
2000
0000
010M
3000
,
0220
0000
033M
0010
2000
0M00
3010
0100
,
0002
0000
1M03
0010
0100
00M1
1000
0001
,
0200
M000
0310
1000
0002
0M00
1003
0100
,
0020
0000
0031
0100
100M
0100
0010
1M00
,
0002
0000
M013
0100
2000
00M0
3001
0010
,
0001
M000
0101
0000
1000
00M0
1100
0000
,
0100
0010
0001
M100
0010
1000
010M
0000
,
1000
1000
00M1
0001
0100
100M
0100
0001
,
0020
0000
0130
000M
1000
00M1
0100
0010
,
2000
0M00
3001
0000
M100
0010
1000
0100
,
0010
0000
0000
0000
0M01
0000
0001
0000
1000
00M0
0100
0000
0010
0000
0001
0000
,
0100
0000
001M
0010
1M00
0001
0100
0010
,
0200
0000
M301
0000
0010
010M
1000
0001
,
0020
M000
0130
0000
1000
0M10
1000
0001
,
0010
M000
0100
0100
1000
00M1
0100
0001
,
0010
0100
001M
0100
1000
00M1
0100
0010
,
1001
0000
0000
0000
;

//---------------dance-single - ----------------
#NOTES:
     dance-single:
     :
     Medium:
     6:
     0.340224,0.402065,0.266175,0.574378,0.000000,340.000000,302.000000,38.000000,82.000000,47.000000,0.000000,0.340224,0.402065,0.266175,0.574378,0.000000,340.000000,302.000000,38.000000,82.000000,47.000000,0.000000:
// measure 0
0000
0000
0000
0000
,  // measure 1
0000
0000
0000
0000
,  // measure 2
0000
0000
0000
0000
,  // measure 3
1100
1000
0001
0101
,  // measure 4
0001
0000
1000
0000
0010
1000
0001
0000
,  // measure 5
0011
0010
0100
1100
,  // measure 6
0100
0000
0010
0000
0001
1000
0010
0000
,  // measure 7
0110
0000
1000
0000
0001
1000
0010
0000
,  // measure 8
0110
0000
1000
0000
0001
1000
0100
0000
,  // measure 9
2200
3300
0010
0100
,  // measure 10
2002
3003
0200
0300
,  // measure 11
0220
0330
1000
0001
,  // measure 12
0022
0033
0200
0300
,  // measure 13
2020
3030
1000
0001
,  // measure 14
0010
0100
0010
0001
,  // measure 15
1000
0100
0001
0100
,  // measure 16
1000
0100
0010
0001
1000
0100
0010
0001
,  // measure 17
1000
0000
0000
1000
0000
0000
0010
0100
,  // measure 18
0010
0000
0000
0010
0000
0000
0100
0001
,  // measure 19
1000
0000
0000
0001
0000
0000
0010
0100
,  // measure 20
1000
0000
0000
0010
0000
0000
1000
0100
,  // measure 21
0010
0000
0000
0001
0000
0000
0100
0001
,  // measure 22
1000
0000
0000
0001
0000
0000
0010
0100
,  // measure 23
1000
0000
0000
0010
0000
0000
0100
0001
,  // measure 24
1000
0000
0000
0001
0000
0000
0010
0100
,  // measure 25
1000
0000
0100
1000
0000
0100
1000
0000
,  // measure 26
0001
0000
0100
0001
0000
0100
0001
0000
,  // measure 27
0010
0000
0001
0010
0000
0001
0010
0000
,  // measure 28
0100
0000
1000
0100
0000
1000
0100
0000
,  // measure 29
0010
0000
0001
1000
0000
0010
0100
0000
,  // measure 30
0010
0000
1000
0001
0000
0100
0010
0000
,  // measure 31
1000
0000
0100
0010
0000
0100
0010
0000
,  // measure 32
0001
0000
0100
0010
0000
1000
0001
0000
,  // measure 33
2002
3003
2020
3030
,  // measure 34
2002
0000
3003
0001
0020
0000
0030
0100
,  // measure 35
2000
0000
0002
3003
,  // measure 36
0202
0300
0020
0033
,  // measure 37
0220
0030
1300
0001
,  // measure 38
2002
0000
3003
0010
0100
0000
0010
0000
,  // measure 39
2002
0000
3003
0000
0200
0000
0300
0010
,  // measure 40
0002
0000
1000
0100
,  // measure 41
1003
1000
1100
0101
,  // measure 42
0100
0000
0001
1000
0010
0000
1000
0001
,  // measure 43
0100
0100
2002
3003
,  // measure 44
0010
0010
0220
0330
,  // measure 45
2002
3003
0010
0001
,  // measure 46
1000
0000
0001
0100
0010
1000
0001
0000
,  // measure 47
2002
0000
3003
0000
0100
0000
0010
1000
,  // measure 48
0100
0000
0010
0001
0100
0000
0100
0000
,  // measure 49
0101
0000
0000
0000
,  // measure 50
M200
0000
0310
1000
0002
0000
10M3
0000
,  // measure 51
0200
0300
M020
0030
,  // measure 52
0002
00M3
0200
0300
,  // measure 53
200M
3000
0020
0M30
,  // measure 54
0200
0300
M002
0003
,  // measure 55
0020
003M
2000
3000
,  // measure 56
02M0
0300
0020
0M30
,  // measure 57
2000
3000
00M2
0003
,  // measure 58
0200
031M
2000
31M0
,  // measure 59
0002
M013
0200
03M1
,  // measure 60
0020
1M30
0200
031M
,  // measure 61
2000
30M1
0020
M130
,  // measure 62
0002
0M13
2000
31M0
,  // measure 63
0020
103M
0200
M301
,  // measure 64
2000
31M0
0002
1M03
,  // measure 65
0020
M031
2000
310M
,  // measure 66
2200
0000
3300
1000
00M1
0000
0100
0000
,  // measure 67
0010
1000
010M
0010
,  // measure 68
1001
0000
0001
0010
M100
0000
1000
0000
,  // measure 69
0001
1000
001M
0100
,  // measure 70
0202
0303
10M0
0001
,  // measure 71
0010
0010
M100
0100
,  // measure 72
1000
0010
0M01
0010
,  // measure 73
1000
0100
0010
0000
M001
0000
1000
0000
,  // measure 74
2002
3MM0
0020
0033
,  // measure 75
2002
0MM3
0020
3030
,  // measure 76
1001
01M0
1001
0M10
,  // measure 77
1001
01M0
1001
0M10
,  // measure 78
1001
0000
0001
0100
0010
0000
1M00
0000
,  // measure 79
1001
0000
1000
0100
0010
0000
0M01
0000
,  // measure 80
1001
0100
0001
M010
,  // measure 81
0100
1000
0010
01M0
,  // measure 82
0101
0000
0000
0000
;

//---------------dance-single - ----------------
#NOTES:
     dance-single:
     :
     Easy:
     3:
     0.207136,0.258470,0.112074,0.623411,0.000000,207.000000,191.000000,16.000000,89.000000,16.000000,0.000000,0.207136,0.258470,0.112074,0.623411,0.000000,207.000000,191.000000,16.000000,89.000000,16.000000,0.000000:
// measure 0
0000
0000
0000
0000
,  // measure 1
0000
0000
0000
0000
,  // measure 2
0000
0000
0000
0000
,  // measure 3
1001
0000
0100
0110
,  // measure 4
0000
0001
1000
0000
,  // measure 5
1001
0000
0010
0110
,  // measure 6
0000
1000
0001
0000
,  // measure 7
0110
0000
0010
0001
,  // measure 8
0100
0010
0100
0000
,  // measure 9
2002
3003
0020
0030
,  // measure 10
0200
0300
0020
0030
,  // measure 11
2002
3003
0200
0300
,  // measure 12
0020
0030
0200
0300
,  // measure 13
0002
0003
1000
0001
,  // measure 14
1000
0001
0100
0010
,  // measure 15
0100
0010
1000
0001
,  // measure 16
1000
0001
1000
0001
,  // measure 17
0200
0000
0000
0300
,  // measure 18
0001
0001
0010
0010
,  // measure 19
0100
0100
1000
1000
,  // measure 20
0001
0000
0000
0010
,  // measure 21
0200
0000
0000
0000
,  // measure 22
0300
1000
0001
1000
,  // measure 23
0002
0000
0103
0000
,  // measure 24
2000
0000
3010
0100
,  // measure 25
0020
0000
0000
0030
,  // measure 26
0000
1000
0100
0100
,  // measure 27
0010
0010
0001
0001
,  // measure 28
1000
0000
0000
0010
,  // measure 29
0200
0000
0000
0300
,  // measure 30
0000
0001
1000
0010
,  // measure 31
0200
0000
0301
0000
,  // measure 32
2000
0000
3100
0000
,  // measure 33
2002
3003
0020
0030
,  // measure 34
0002
0003
2000
3000
,  // measure 35
0200
0000
0310
0000
,  // measure 36
0220
0000
0000
0330
,  // measure 37
0002
0000
0013
0000
,  // measure 38
2000
0000
3100
0010
,  // measure 39
0200
0000
1300
0000
,  // measure 40
0002
0000
0103
0000
,  // measure 41
0010
0010
1000
1000
,  // measure 42
0100
0100
0001
0001
,  // measure 43
0100
0000
0020
0030
,  // measure 44
2000
3000
0002
0003
,  // measure 45
2002
0000
3003
0000
,  // measure 46
2002
0000
3003
0000
,  // measure 47
0020
0030
2000
3000
,  // measure 48
0002
0003
0020
0030
,  // measure 49
0100
0000
0000
0000
,  // measure 50
02M0
0300
0002
0003
,  // measure 51
02M0
0300
0020
0030
,  // measure 52
0M02
0003
0200
0300
,  // measure 53
200M
3000
0020
0030
,  // measure 54
M200
0300
0002
0003
,  // measure 55
0M20
0030
2000
3000
,  // measure 56
02M0
0300
0020
0030
,  // measure 57
2M00
3000
0002
0003
,  // measure 58
M200
0300
2000
3000
,  // measure 59
0M02
0003
0200
0300
,  // measure 60
002M
0030
0200
0300
,  // measure 61
20M0
3000
0020
0030
,  // measure 62
M002
0003
2000
3000
,  // measure 63
002M
0030
0200
0300
,  // measure 64
20M0
3000
0002
0003
,  // measure 65
M020
0030
2000
3000
,  // measure 66
2002
3003
0010
0000
,  // measure 67
0001
0001
0100
0000
,  // measure 68
0220
0330
1000
0000
,  // measure 69
0100
0100
0010
0000
,  // measure 70
0002
0003
1000
0001
,  // measure 71
1000
1000
0010
0010
,  // measure 72
0100
0100
0001
0001
,  // measure 73
0010
0010
0100
0100
,  // measure 74
2000
0000
3010
0000
,  // measure 75
0002
0000
0013
0000
,  // measure 76
0100
1000
0100
0000
,  // measure 77
0010
0001
0010
0000
,  // measure 78
0220
0330
0002
0003
,  // measure 79
0220
0330
2000
3000
,  // measure 80
2002
3003
0010
0100
,  // measure 81
0010
0100
0001
1000
,  // measure 82
0001
0000
0000
0000
;

//---------------dance-single - ----------------
#NOTES:
     dance-single:
     :
     Beginner:
     1:
     0.134088,0.172314,0.056037,0.112074,0.000000,134.000000,126.000000,8.000000,16.000000,0.000000,0.000000,0.134088,0.172314,0.056037,0.112074,0.000000,134.000000,126.000000,8.000000,16.000000,0.000000,0.000000:
// measure 0
0000
0000
0000
0000
,  // measure 1
0000
0000
0000
0000
,  // measure 2
0000
0000
0000
0000
,  // measure 3
1001
0000
0000
0010
,  // measure 4
0000
0000
0000
0000
,  // measure 5
1001
0000
0000
0100
,  // measure 6
0000
0000
0000
0000
,  // measure 7
0010
0000
0001
0000
,  // measure 8
1000
0000
0100
0000
,  // measure 9
2002
3003
0010
0000
,  // measure 10
0100
0000
0010
0000
,  // measure 11
0001
0000
0100
0000
,  // measure 12
1000
0000
0100
0000
,  // measure 13
0001
0000
0010
0000
,  // measure 14
0100
0000
1000
0000
,  // measure 15
0010
0000
0100
0000
,  // measure 16
0010
0000
0100
0000
,  // measure 17
0020
0000
0000
0030
,  // measure 18
0000
0000
1000
0000
,  // measure 19
0010
0000
0100
0000
,  // measure 20
0001
0000
0000
1000
,  // measure 21
2000
0000
3000
0000
,  // measure 22
0000
0000
0100
0000
,  // measure 23
0002
0000
0003
0000
,  // measure 24
0000
0000
0000
0100
,  // measure 25
0200
0000
0300
0000
,  // measure 26
0000
0000
0010
0000
,  // measure 27
1000
0000
0100
0000
,  // measure 28
0001
0000
0000
0100
,  // measure 29
0200
0000
0300
0000
,  // measure 30
0000
0000
0010
0000
,  // measure 31
0020
0000
0030
0000
,  // measure 32
0000
0000
0000
0000
,  // measure 33
2002
3003
0010
0000
,  // measure 34
0001
0000
0010
0000
,  // measure 35
0100
0000
0000
0000
,  // measure 36
1000
0000
0000
0000
,  // measure 37
0001
0000
0100
0000
,  // measure 38
1000
0000
0100
0000
,  // measure 39
0001
0000
0000
0000
,  // measure 40
1000
0000
0000
0000
,  // measure 41
0010
0000
1000
0000
,  // measure 42
0100
0000
0001
0000
,  // measure 43
0100
0000
0010
0000
,  // measure 44
1000
0000
0001
0000
,  // measure 45
2002
0000
3003
0000
,  // measure 46
2002
0000
3003
0000
,  // measure 47
0010
0000
1000
0000
,  // measure 48
0001
0000
0010
0000
,  // measure 49
0100
0000
0000
0000
,  // measure 50
0100
0000
0000
0000
,  // measure 51
0001
0000
0000
0000
,  // measure 52
0010
0000
0000
0000
,  // measure 53
1000
0000
0000
0000
,  // measure 54
0010
0000
0000
0000
,  // measure 55
0001
0000
0000
0000
,  // measure 56
0100
0000
0000
0000
,  // measure 57
1000
0000
0001
0000
,  // measure 58
0100
0000
1000
0000
,  // measure 59
0001
0000
0100
0000
,  // measure 60
0010
0000
0100
0000
,  // measure 61
1000
0000
0010
0000
,  // measure 62
0001
0000
1000
0000
,  // measure 63
0010
0000
0100
0000
,  // measure 64
1000
0000
0001
0000
,  // measure 65
0010
0000
1000
0000
,  // measure 66
2002
3003
0000
0000
,  // measure 67
0001
0000
0001
0000
,  // measure 68
0100
0000
0000
0000
,  // measure 69
1000
0000
1000
0000
,  // measure 70
0010
0000
0100
0000
,  // measure 71
0001
0000
0010
0000
,  // measure 72
0100
0000
1000
0000
,  // measure 73
0010
0000
0100
0000
,  // measure 74
0001
0000
0100
0000
,  // measure 75
1000
0000
0100
0000
,  // measure 76
0010
0000
0001
0000
,  // measure 77
0010
0000
1000
0000
,  // measure 78
0001
0000
0100
0000
,  // measure 79
0010
0000
1000
0000
,  // measure 80
0001
0000
0010
0000
,  // measure 81
0100
0000
1000
0000
,  // measure 82
1001
0000
0000
0000
;
