#VERSION:0.83;
#TITLE:Good King Moggle Mog XII;
#SUBTITLE:Thornmarch;
#ARTIST:Masayoshi Soken;
#TITLETRANSLIT:;
#SUBTITLETRANSLIT:;
#ARTISTTRANSLIT:;
#GENRE:A Realm Reborn;
#ORIGIN:;
#CREDIT:[Ness];
#BANNER:Final Fantasy XIV - Good King Moggle Mog XII.png;
#BACKGROUND:Final Fantasy XIV - Good King Moggle Mog XII-bg.png;
#PREVIEWVID:;
#JACKET:Final Fantasy XIV - Good King Moggle Mog XII-jacket.png;
#CDIMAGE:;
#DISCIMAGE:;
#LYRICSPATH:Final Fantasy XIV - Good King Moggle Mog XII.lrc;
#CDTITLE:;
#MUSIC:Final Fantasy XIV - Good King Moggle Mog XII.mp3;
#OFFSET:-0.024000;
#SAMPLESTART:2.671050;
#SAMPLELENGTH:21.333332;
#SELECTABLE:YES;
#BPMS:0.000=180.000;
#STOPS:;
#DELAYS:;
#WARPS:;
#TIMESIGNATURES:0.000=4=4;
#TICKCOUNTS:0.000=2;
#COMBOS:0.000=1;
#SPEEDS:0.000=1.000=0.000=0;
#SCROLLS:0.000=1.000;
#FAKES:;
#LABELS:0.000=Song Start;
#LASTSECONDHINT:100.731049;
#BGCHANGES:;
#KEYSOUNDS:;
#ATTACKS:
;

//---------------dance-single - ----------------
#NOTEDATA:;
#CHARTNAME:[Ness];
#STEPSTYPE:dance-single;
#DESCRIPTION:[Ness];
#CHARTSTYLE:;
#DIFFICULTY:Hard;
#METER:8;
#RADARVALUES:0.574299,0.737954,0.908972,0.590363,0.000000,429.000000,332.000000,97.000000,63.000000,0.000000,0.000000,0.000000,0.000000,0.000000,0.574299,0.737954,0.908972,0.590363,0.000000,429.000000,332.000000,97.000000,63.000000,0.000000,0.000000,0.000000,0.000000,0.000000;
#CREDIT:[Ness];
#NOTES:
0000
0000
0000
0000
,
0000
0000
0000
0000
,
2001
0000
3010
0000
0001
0100
1000
0100
,
0002
0013
2002
3003
,
0201
0310
1020
0130
,
0210
1000
0301
1001
,
1010
0000
2100
0000
3010
1000
0100
1000
,
0010
0011
1020
0001
,
1030
0101
2010
3100
,
1001
0110
1001
1001
,
0011
0010
1100
0000
1100
0100
0011
0000
,
1010
0110
2002
3003
,
0201
1300
1020
0031
,
1100
0011
0202
0303
,
2001
0000
3010
0000
0001
0100
1000
0100
,
0002
0000
0013
0000
2002
0000
3003
0001
,
1000
0001
0100
1000
0100
0001
1000
0010
,
0100
0000
0220
0330
,
1001
0001
1000
0001
,
1100
0010
0100
0010
,
1100
0001
0100
0001
,
0011
1000
0010
0000
0200
0000
0300
0000
,
1010
0010
0100
0100
,
0010
1000
0100
1000
0002
0000
0003
0010
,
0100
1000
0001
1000
0010
0000
0100
0001
,
1000
0010
0022
0033
,
0201
1000
0001
0310
,
1020
0001
1000
0130
,
0010
1000
0100
0000
1100
0000
0101
0000
,
0100
0001
0010
0000
2020
0000
3030
0000
,
1000
0010
0001
0010
1000
0000
0110
0000
,
0001
0100
1000
0100
0001
0000
0110
0000
,
1000
0010
1000
0010
0100
0001
0100
0001
,
1000
0100
0202
0303
,
0110
0100
0110
0000
1001
0000
1010
0010
,
1010
0000
0101
0000
0011
1000
0011
0000
,
1100
0000
0110
0001
0110
0000
1001
0000
,
2020
3030
0022
0033
,
1001
0010
0001
0010
,
1000
0100
0001
0000
0001
0100
1000
0000
,
1000
0010
0001
0000
0001
0010
1000
0000
,
1000
0010
0100
0001
1000
0000
0001
0000
,
0101
0010
0100
0010
,
0001
0100
0010
1000
0100
0000
0010
0100
,
1000
0100
0010
0001
0100
0000
0010
1000
,
0001
0010
0100
1000
0001
0000
0000
0000
,
1001
1010
0001
1010
,
1100
0001
1100
0010
,
0100
0001
0100
0010
1000
0000
0001
0000
,
1010
0001
0100
0010
0100
0000
1001
0000
,
0000
0101
1000
0100
,
0010
0001
0100
0000
0100
0001
0010
0000
,
0010
1000
0010
0000
0010
0001
0010
0000
,
0010
0100
0010
0001
1000
0000
0001
0000
,
0000
0000
0000
0000
,
0000
0000
0000
0000
,
1002
0000
0013
0000
1000
0100
0001
0100
,
2000
3010
2002
3003
,
1200
0310
0021
0130
,
0210
0001
1300
1001
,
0012
0000
0100
0000
0013
0001
0100
0001
,
0020
1000
0001
1000
,
0001
0100
1000
0031
,
0100
0110
1001
1001
,
1010
0001
1010
0000
0101
1000
0101
0000
,
0011
0110
2002
3003
,
1200
0301
0021
1030
,
0101
1010
2200
3300
,
1002
0000
0013
0000
1000
0100
0001
0100
,
2000
0000
3010
0000
2002
0000
3003
1000
,
0010
1000
0100
0010
2002
0000
3003
0000
,
0100
0001
1000
0010
0220
0000
0330
0000
,
0001
0100
1000
0100
2002
0000
3003
0000
,
0000
0000
0000
0000
0010
0001
1000
0010
,
2002
0000
0000
0000
,
3003
0000
0000
0000
;

//---------------dance-single - ----------------
#NOTEDATA:;
#CHARTNAME:[Ness];
#STEPSTYPE:dance-single;
#DESCRIPTION:[Ness];
#CHARTSTYLE:;
#DIFFICULTY:Challenge;
#METER:9;
#RADARVALUES:0.610443,1.483053,1.087018,0.590363,1.583672,456.000000,339.000000,116.000000,63.000000,88.000000,3.000000,8.000000,0.000000,0.000000,0.610443,1.483053,1.087018,0.590363,1.583672,456.000000,339.000000,116.000000,63.000000,88.000000,3.000000,8.000000,0.000000,0.000000;
#CREDIT:[Ness];
#OFFSET:-0.024000;
#BPMS:0.000000=360.000000
,479.916656=90.000000
,487.416656=105.000000
,488.000000=360.000000
;
#STOPS:0.000000=0.013889
,535.166687=0.027772
,542.916687=0.013894
,550.625000=0.020836
,558.000000=0.020836
;
#DELAYS:;
#WARPS:;
#TIMESIGNATURES:0.000000=4=4
;
#TICKCOUNTS:0.000000=2
;
#COMBOS:0.000000=1
;
#SPEEDS:0.000000=1.000000=0.000000=0
;
#SCROLLS:0.000000=1.000000
;
#FAKES:;
#LABELS:0.000000=Song Start
;
#ATTACKS:TIME=50.731045:LEN=4.666668:MODS=Dizzy, Overhead:TIME=56.064381:LEN=4.666665:MODS=Roll, Overhead:TIME=61.397713:LEN=4.666665:MODS=Bumpy, Overhead:TIME=66.731049:LEN=4.000000:MODS=Wave, Overhead:TIME=78.731049:LEN=1.000001:MODS= Overhead:TIME=80.064377:LEN=4.333336:MODS=Boost, Brake, Overhead:TIME=95.876877:LEN=0.020836:MODS=Overhead:TIME=90.731049:LEN=9.416665:MODS=C360, Overhead;
#NOTES:
0000
0000
0000
0000
,
0000
0000
0000
0000
,
0000
0000
0000
0000
,
0000
0000
0000
0000
0000
0000
0000
0000
0000
0000
0000
0000
0000
0000
0000
0000
0000
0000
0000
0000
0000
0000
0000
0000
0000
0000
0000
0000
0000
0000
0000
0000
0000
0000
0000
0000
0000
0000
0000
0000
0000
0000
0000
0000
0000
0000
0000
2001
,
0000
0000
0000
0000
0000
0000
0000
0000
0000
0000
0000
0000
0000
0000
0000
0000
0000
0000
0000
0000
0000
0000
0000
3010
0000
0000
0000
0000
0000
0000
0000
0000
0000
0000
0000
0000
0000
0000
0000
0000
0000
0000
0000
0000
0000
0000
0000
1001
,
0000
0000
0000
0000
0000
0000
0000
0000
0000
0000
0000
0100
0000
0000
0000
0000
0000
0000
0000
0000
0000
0000
0000
1000
0000
0000
0000
0000
0000
0000
0000
0000
0000
0000
0000
0100
0000
0000
0000
0000
0000
0000
0000
0000
0000
0000
0000
1001
,
0000
0000
0000
0000
0000
0000
0000
0000
0000
0000
0000
0000
0000
0000
0000
0000
0000
0000
0000
0000
0000
0000
0000
0010
0000
0000
0000
0000
0000
0000
0000
0000
0000
0000
0000
0000
0000
0000
0000
0000
0000
0000
0000
0000
0000
0000
0000
2002
,
0000
0000
0000
0000
0000
0000
0000
0000
0000
0000
0000
0000
0000
0000
0000
0000
0000
0000
0000
0000
0000
0000
0000
3003
0000
0000
0000
0000
0000
0000
0000
0000
0000
0000
0000
0000
0000
0000
0000
0000
0000
0000
0000
0000
0000
0000
0000
0201
,
0000
0000
0000
0000
0000
0000
0000
0000
0000
0000
0000
0000
0000
0000
0000
0000
0000
0000
0000
0000
0000
0000
0000
0310
0000
0000
0000
0000
0000
0000
0000
0000
0000
0000
0000
0000
0000
0000
0000
0000
0000
0000
0000
0000
0000
0000
0000
1020
,
0000
0000
0000
0000
0000
0000
0000
0000
0000
0000
0000
0000
0000
0000
0000
0000
0000
0000
0000
0000
0000
0000
0000
0130
0000
0000
0000
0000
0000
0000
0000
0000
0000
0000
0000
0000
0000
0000
0000
0000
0000
0000
0000
0000
0000
0000
0000
0210
,
0000
0000
0000
0000
0000
0000
0000
0000
0000
0000
0000
0000
0000
0000
0000
0000
0000
0000
0000
0000
0000
0000
0000
1000
0000
0000
0000
0000
0000
0000
0000
0000
0000
0000
0000
0000
0000
0000
0000
0000
0000
0000
0000
0000
0000
0000
0000
0301
,
0000
0000
0000
0000
0000
0000
0000
0000
0000
0000
0000
0000
0000
0000
0000
0000
0000
0000
0000
0000
0000
0000
0000
1001
0000
0000
0000
0000
0000
0000
0000
0000
0000
0000
0000
0000
0000
0000
0000
0000
0000
0000
0000
0000
0000
0000
0000
1010
,
0000
0000
0000
0000
0000
0000
0000
0000
0000
0000
0000
0000
0000
0000
0000
0000
0000
0000
0000
0000
0000
0000
0000
2100
0000
0000
0000
0000
0000
0000
0000
0000
0000
0000
0000
0000
0000
0000
0000
0000
0000
0000
0000
0000
0000
0000
0000
3010
,
0000
0000
0000
0000
0000
0000
0000
0000
0000
0000
0000
1000
0000
0000
0000
0000
0000
0000
0000
0000
0000
0000
0000
0100
0000
0000
0000
0000
0000
0000
0000
0000
0000
0000
0000
1000
0000
0000
0000
0000
0000
0000
0000
0000
0000
0000
0000
0010
,
0000
0000
0000
0000
0000
0000
0000
0000
0000
0000
0000
0000
0000
0000
0000
0000
0000
0000
0000
0000
0000
0000
0000
0011
0000
0000
0000
0000
0000
0000
0000
0000
0000
0000
0000
0000
0000
0000
0000
0000
0000
0000
0000
0000
0000
0000
0000
1020
,
0000
0000
0000
0000
0000
0000
0000
0000
0000
0000
0000
0000
0000
0000
0000
0000
0000
0000
0000
0000
0000
0000
0000
0001
0000
0000
0000
0000
0000
0000
0000
0000
0000
0000
0000
0000
0000
0000
0000
0000
0000
0000
0000
0000
0000
0000
0000
1030
,
0000
0000
0000
0000
0000
0000
0000
0000
0000
0000
0000
0000
0000
0000
0000
0000
0000
0000
0000
0000
0000
0000
0000
0101
0000
0000
0000
0000
0000
0000
0000
0000
0000
0000
0000
0000
0000
0000
0000
0000
0000
0000
0000
0000
0000
0000
0000
2010
,
0000
0000
0000
0000
0000
0000
0000
0000
0000
0000
0000
0000
0000
0000
0000
0000
0000
0000
0000
0000
0000
0000
0000
3100
0000
0000
0000
0000
0000
0000
0000
0000
0000
0000
0000
0000
0000
0000
0000
0000
0000
0000
0000
0000
0000
0000
0000
1001
,
0000
0000
0000
0000
0000
0000
0000
0000
0000
0000
0000
0000
0000
0000
0000
0000
0000
0000
0000
0000
0000
0000
0000
0110
0000
0000
0000
0000
0000
0000
0000
0000
0000
0000
0000
0000
0000
0000
0000
0000
0000
0000
0000
0000
0000
0000
0000
1001
,
0000
0000
0000
0000
0000
0000
0000
0000
0000
0000
0000
0000
0000
0000
0000
0000
0000
0000
0000
0000
0000
0000
0000
1001
0000
0000
0000
0000
0000
0000
0000
0000
0000
0000
0000
0000
0000
0000
0000
0000
0000
0000
0000
0000
0000
0000
0000
0011
,
0000
0000
0000
0000
0000
0000
0000
0000
0000
0000
0000
0010
0000
0000
0000
0000
0000
0000
0000
0000
0000
0000
0000
1100
0000
0000
0000
0000
0000
0000
0000
0000
0000
0000
0000
0000
0000
0000
0000
0000
0000
0000
0000
0000
0000
0000
0000
1100
,
0000
0000
0000
0000
0000
0000
0000
0000
0000
0000
0000
0100
0000
0000
0000
0000
0000
0000
0000
0000
0000
0000
0000
0011
0000
0000
0000
0000
0000
0000
0000
0000
0000
0000
0000
0000
0000
0000
0000
0000
0000
0000
0000
0000
0000
0000
0000
1010
,
0000
0000
0000
0000
0000
0000
0000
0000
0000
0000
0000
0000
0000
0000
0000
0000
0000
0000
0000
0000
0000
0000
0000
0110
0000
0000
0000
0000
0000
0000
0000
0000
0000
0000
0000
0000
0000
0000
0000
0000
0000
0000
0000
0000
0000
0000
0000
2002
,
0000
0000
0000
0000
0000
0000
0000
0000
0000
0000
0000
0000
0000
0000
0000
0000
0000
0000
0000
0000
0000
0000
0000
3003
0000
0000
0000
0000
0000
0000
0000
0000
0000
0000
0000
0000
0000
0000
0000
0000
0000
0000
0000
0000
0000
0000
0000
0201
,
0000
0000
0000
0000
0000
0000
0000
0000
0000
0000
0000
0000
0000
0000
0000
0000
0000
0000
0000
0000
0000
0000
0000
1300
0000
0000
0000
0000
0000
0000
0000
0000
0000
0000
0000
0000
0000
0000
0000
0000
0000
0000
0000
0000
0000
0000
0000
1020
,
0000
0000
0000
0000
0000
0000
0000
0000
0000
0000
0000
0000
0000
0000
0000
0000
0000
0000
0000
0000
0000
0000
0000
0031
0000
0000
0000
0000
0000
0000
0000
0000
0000
0000
0000
0000
0000
0000
0000
0000
0000
0000
0000
0000
0000
0000
0000
1100
,
0000
0000
0000
0000
0000
0000
0000
0000
0000
0000
0000
0000
0000
0000
0000
0000
0000
0000
0000
0000
0000
0000
0000
0011
0000
0000
0000
0000
0000
0000
0000
0000
0000
0000
0000
0000
0000
0000
0000
0000
0000
0000
0000
0000
0000
0000
0000
0202
,
0000
0000
0000
0000
0000
0000
0000
0000
0000
0000
0000
0000
0000
0000
0000
0000
0000
0000
0000
0000
0000
0000
0000
0303
0000
0000
0000
0000
0000
0000
0000
0000
0000
0000
0000
0000
0000
0000
0000
0000
0000
0000
0000
0000
0000
0000
0000
2001
,
0000
0000
0000
0000
0000
0000
0000
0000
0000
0000
0000
0000
0000
0000
0000
0000
0000
0000
0000
0000
0000
0000
0000
3010
0000
0000
0000
0000
0000
0000
0000
0000
0000
0000
0000
0000
0000
0000
0000
0000
0000
0000
0000
0000
0000
0000
0000
1001
,
0000
0000
0000
0000
0000
0000
0000
0000
0000
0000
0000
0100
0000
0000
0000
0000
0000
0000
0000
0000
0000
0000
0000
0010
0000
0000
0000
0000
0000
0000
0000
0000
0000
0000
0000
0100
0000
0000
0000
0000
0000
0000
0000
0000
0000
0000
0000
1001
,
0000
0000
0000
0000
0000
0000
0000
0000
0000
0000
0000
0000
0000
0000
0000
0000
0000
0000
0000
0000
0000
0000
0000
0110
0000
0000
0000
0000
0000
0000
0000
0000
0000
0000
0000
0000
0000
0000
0000
0000
0000
0000
0000
0000
0000
0000
0000
2002
,
0000
0000
0000
0000
0000
0000
0000
0000
0000
0000
0000
3003
0000
0000
0000
0000
0000
0000
0000
0000
0000
0000
0000
1001
0000
0000
0000
0000
0000
0000
0000
0000
0000
0000
0000
0001
0000
0000
0000
0000
0000
0000
0000
0000
0000
0000
0000
1000
,
0000
0000
0000
0000
0000
0000
0000
0000
0000
0000
0000
0001
0000
0000
0000
0000
0000
0000
0000
0000
0000
0000
0000
0100
0000
0000
0000
0000
0000
0000
0000
0000
0000
0000
0000
1000
0000
0000
0000
0000
0000
0000
0000
0000
0000
0000
0000
0100
,
0000
0000
0000
0000
0000
0000
0000
0000
0000
0000
0000
0001
0000
0000
0000
0000
0000
0000
0000
0000
0000
0000
0000
1000
0000
0000
0000
0000
0000
0000
0000
0000
0000
0000
0000
0010
0000
0000
0000
0000
0000
0000
0000
0000
0000
0000
0000
0110
,
0000
0000
0000
0000
0000
0000
0000
0000
0000
0000
0000
0000
0000
0000
0000
0000
0000
0000
0000
0000
0000
0000
0000
0000
0000
0000
0000
0000
0000
0000
0000
0000
0000
0000
0000
0000
0000
0000
0000
0000
0000
0000
0000
0000
0000
0000
0000
222M
,
0000
0000
0000
0000
0000
0000
0000
0000
0000
0000
0000
000M
0000
0000
0000
0000
0000
0000
0000
0000
0000
0000
0000
333M
0000
0000
0000
0000
0000
0000
0000
0000
0000
0000
0000
0000
0000
0000
0000
0000
0000
0000
0000
0000
0000
0000
0000
1001
,
0000
0000
0000
0000
0000
0000
0000
0000
0000
0000
0000
00M0
0000
0000
0000
0000
0000
0000
0000
0000
0000
0000
0000
0001
0000
0000
0000
0000
0000
0000
0000
0000
0000
0000
0000
0M00
0000
0000
0000
0000
0000
0000
0000
0000
0000
0000
0000
1000
,
0000
0000
0000
0000
0000
0000
0000
0000
0000
0000
0000
M000
0000
0000
0000
0000
0000
0000
0000
0000
0000
0000
0000
0001
0000
0000
0000
0000
0000
0000
0000
0000
0000
0000
0000
10M0
0000
0000
0000
0000
0000
0000
0000
0000
0000
0000
0000
1100
,
0000
0000
0000
0000
0000
0000
0000
0000
0000
0000
0000
0M0M
0000
0000
0000
0000
0000
0000
0000
0000
0000
0000
0000
0010
0000
0000
0000
0000
0000
0000
0000
0000
0000
0000
0000
M000
0000
0000
0000
0000
0000
0000
0000
0000
0000
0000
0000
0100
,
0000
0000
0000
0000
0000
0000
0000
0000
0000
0000
0000
000M
0000
0000
0000
0000
0000
0000
0000
0000
0000
0000
0000
0010
0000
0000
0000
0000
0000
0000
0000
0000
0000
0000
0000
0MM0
0000
0000
0000
0000
0000
0000
0000
0000
0000
0000
0000
1100
,
0000
0000
0000
0000
0000
0000
0000
0000
0000
0000
0000
00M0
0000
0000
0000
0000
0000
0000
0000
0000
0000
0000
0000
0001
0000
0000
0000
0000
0000
0000
0000
0000
0000
0000
0000
MM00
0000
0000
0000
0000
0000
0000
0000
0000
0000
0000
0000
0100
,
0000
0000
0000
0000
0000
0000
0000
0000
0000
0000
0000
00M0
0000
0000
0000
0000
0000
0000
0000
0000
0000
0000
0000
0001
0000
0000
0000
0000
0000
0000
0000
0000
0000
0000
0000
M00M
0000
0000
0000
0000
0000
0000
0000
0000
0000
0000
0000
0011
,
0000
0000
0000
0000
0000
0000
0000
0000
0000
0000
0000
100M
0000
0000
0000
0000
0000
0000
0000
0000
0000
0000
0000
0M10
0000
0000
0000
0000
0000
0000
0000
0000
0000
0000
0000
M000
0000
0000
0000
0000
0000
0000
0000
0000
0000
0000
0000
0200
,
0000
0000
0000
0000
0000
0000
0000
0000
0000
0000
0000
00M0
0000
0000
0000
0000
0000
0000
0000
0000
0000
0000
0000
0300
0000
0000
0000
0000
0000
0000
0000
0000
0000
0000
0000
0M00
0000
0000
0000
0000
0000
0000
0000
0000
0000
0000
0000
1010
,
0000
0000
0000
0000
0000
0000
0000
0000
0000
0000
0000
0M0M
0000
0000
0000
0000
0000
0000
0000
0000
0000
0000
0000
0010
0000
0000
0000
0000
0000
0000
0000
0000
0000
0000
0000
M0M0
0000
0000
0000
0000
0000
0000
0000
0000
0000
0000
0000
0100
,
0000
0000
0000
0000
0000
0000
0000
0000
0000
0000
0000
000M
0000
0000
0000
0000
0000
0000
0000
0000
0000
0000
0000
0110
0000
0000
0000
0000
0000
0000
0000
0000
0000
0000
0000
M000
0000
0000
0000
0000
0000
0000
0000
0000
0000
0000
0000
0010
,
0000
0000
0000
0000
0000
0000
0000
0000
0000
0000
0000
100M
0000
0000
0000
0000
0000
0000
0000
0000
0000
0000
0000
01M0
0000
0000
0000
0000
0000
0000
0000
0000
0000
0000
0000
100M
0000
0000
0000
0000
0000
0000
0000
0000
0000
0000
0000
0002
,
0000
0000
0000
0000
0000
0000
0000
0000
0000
0000
0000
0M00
0000
0000
0000
0000
0000
0000
0000
0000
0000
0000
0000
M003
0000
0000
0000
0000
0000
0000
0000
0000
0000
0000
0000
0M10
0000
0000
0000
0000
0000
0000
0000
0000
0000
0000
0000
0100
,
0000
0000
0000
0000
0000
0000
0000
0000
0000
0000
0000
10M0
0000
0000
0000
0000
0000
0000
0000
0000
0000
0000
0000
0001
0000
0000
0000
0000
0000
0000
0000
0000
0000
0000
0000
1M00
0000
0000
0000
0000
0000
0000
0000
0000
0000
0000
0000
0010
,
0000
0000
0000
0000
0000
0000
0000
0000
0000
0000
0000
000M
0000
0000
0000
0000
0000
0000
0000
0000
0000
0000
0000
0100
0000
0000
0000
0000
0000
0000
0000
0000
0000
0000
0000
M001
0000
0000
0000
0000
0000
0000
0000
0000
0000
0000
0000
1000
,
0000
0000
0000
0000
0000
0000
0000
0000
0000
0000
0000
00M0
0000
0000
0000
0000
0000
0000
0000
0000
0000
0000
0000
0010
0000
0000
0000
0000
0000
0000
0000
0000
0000
0000
0000
0M00
0000
0000
0000
0000
0000
0000
0000
0000
0000
0000
0000
0022
,
0000
0000
0000
0000
0000
0000
0000
0000
0000
0000
0000
0000
0000
0000
0000
0000
0000
0000
0000
0000
0000
0000
0000
0033
0000
0000
0000
0000
0000
0000
0000
0000
0000
0000
0000
0000
0000
0000
0000
0000
0000
0000
0000
0000
0000
0000
0000
02M1
,
0000
0000
0000
0000
0000
0000
0000
0000
0000
0000
0000
0000
0000
0000
0000
0000
0000
0000
0000
0000
0000
0000
0000
100M
0000
0000
0000
0000
0000
0000
0000
0000
0000
0000
0000
0000
0000
0000
0000
0000
0000
0000
0000
0000
0000
0000
0000
00M1
,
0000
0000
0000
0000
0000
0000
0000
0000
0000
0000
0000
0000
0000
0000
0000
0000
0000
0000
0000
0000
0000
0000
0000
M310
0000
0000
0000
0000
0000
0000
0000
0000
0000
0000
0000
0000
0000
0000
0000
0000
0000
0000
0000
0000
0000
0000
0000
1M20
,
0000
0000
0000
0000
0000
0000
0000
0000
0000
0000
0000
0000
0000
0000
0000
0000
0000
0000
0000
0000
0000
0000
0000
M001
0000
0000
0000
0000
0000
0000
0000
0000
0000
0000
0000
0000
0000
0000
0000
0000
0000
0000
0000
0000
0000
0000
0000
100M
,
0000
0000
0000
0000
0000
0000
0000
0000
0000
0000
0000
0000
0000
0000
0000
0000
0000
0000
0000
0000
0000
0000
0000
M130
0000
0000
0000
0000
0000
0000
0000
0000
0000
0000
0000
0000
0000
0000
0000
0000
0000
0000
0000
0000
0000
0000
0000
001M
,
0000
0000
0000
0000
0000
0000
0000
0000
0000
0000
0000
10M0
0000
0000
0000
0000
0000
0000
0000
0000
0000
0000
0000
010M
0000
0000
0000
0000
0000
0000
0000
0000
0000
0000
0000
0000
0000
0000
0000
0000
0000
0000
0000
0000
0000
0000
0000
11M0
,
0000
0000
0000
0000
0000
0000
0000
0000
0000
0000
0000
0000
0000
0000
0000
0000
0000
0000
0000
0000
0000
0000
0000
M1M1
0000
0000
0000
0000
0000
0000
0000
0000
0000
0000
0000
0000
0000
0000
0000
0000
0000
0000
0000
0000
0000
0000
0000
01M0
,
0000
0000
0000
0000
0000
0000
0000
0000
0000
0000
0000
M001
0000
0000
0000
0000
0000
0000
0000
0000
0000
0000
0000
0M10
0000
0000
0000
0000
0000
0000
0000
0000
0000
0000
0000
0000
0000
0000
0000
0000
0000
0000
0000
0000
0000
0000
0000
2M2M
,
0000
0000
0000
0000
0000
0000
0000
0000
0000
0000
0000
0000
0000
0000
0000
0000
0000
0000
0000
0000
0000
0000
0000
3030
0000
0000
0000
0000
0000
0000
0000
0000
0000
0000
0000
0000
0000
0000
0000
0000
0000
0000
0000
0000
0000
0000
0000
1M00
,
0000
0000
0000
0000
0000
0000
0000
0000
0000
0000
0000
001M
0000
0000
0000
0000
0000
0000
0000
0000
0000
0000
0000
0M01
0000
0000
0000
0000
0000
0000
0000
0000
0000
0000
0000
M010
0000
0000
0000
0000
0000
0000
0000
0000
0000
0000
0000
1M00
,
0000
0000
0000
0000
0000
0000
0000
0000
0000
0000
0000
000M
0000
0000
0000
0000
0000
0000
0000
0000
0000
0000
0000
M110
0000
0000
0000
0000
0000
0000
0000
0000
0000
0000
0000
000M
0000
0000
0000
0000
0000
0000
0000
0000
0000
0000
0000
00M1
,
0000
0000
0000
0000
0000
0000
0000
0000
0000
0000
0000
M100
0000
0000
0000
0000
0000
0000
0000
0000
0000
0000
0000
10M0
0000
0000
0000
0000
0000
0000
0000
0000
0000
0000
0000
010M
0000
0000
0000
0000
0000
0000
0000
0000
0000
0000
0000
0M01
,
0000
0000
0000
0000
0000
0000
0000
0000
0000
0000
0000
M000
0000
0000
0000
0000
0000
0000
0000
0000
0000
0000
0000
011M
0000
0000
0000
0000
0000
0000
0000
0000
0000
0000
0000
0000
0000
0000
0000
0000
0000
0000
0000
0000
0000
0000
0000
1M00
,
0000
0000
0000
0000
0000
0000
0000
0000
0000
0000
0000
001M
0000
0000
0000
0000
0000
0000
0000
0000
0000
0000
0000
1M00
0000
0000
0000
0000
0000
0000
0000
0000
0000
0000
0000
001M
0000
0000
0000
0000
0000
0000
0000
0000
0000
0000
0000
M100
,
0000
0000
0000
0000
0000
0000
0000
0000
0000
0000
0000
00M1
0000
0000
0000
0000
0000
0000
0000
0000
0000
0000
0000
M100
0000
0000
0000
0000
0000
0000
0000
0000
0000
0000
0000
00M1
0000
0000
0000
0000
0000
0000
0000
0000
0000
0000
0000
1M00
,
0000
0000
0000
0000
0000
0000
0000
0000
0000
0000
0000
000M
0000
0000
0000
0000
0000
0000
0000
0000
0000
0000
0000
M100
0000
0000
0000
0000
0000
0000
0000
0000
0000
0000
0000
00M0
0000
0000
0000
0000
0000
0000
0000
0000
0000
0000
0000
0202
,
0000
0000
0000
0000
0000
0000
0000
0000
0000
0000
0000
0000
0000
0000
0000
0000
0000
0000
0000
0000
0000
0000
0000
0303
0000
0000
0000
0000
0000
0000
0000
0000
0000
0000
0000
0000
0000
0000
0000
0000
0000
0000
0000
0000
0000
0000
0000
0110
,
0000
0000
0000
0000
0000
0000
0000
0000
0000
0000
0000
1010
0000
0000
0000
0000
0000
0000
0000
0000
0000
0000
0000
0110
0000
0000
0000
0000
0000
0000
0000
0000
0000
0000
0000
0000
0000
0000
0000
0000
0000
0000
0000
0000
0000
0000
0000
1001
,
0000
0000
0000
0000
0000
0000
0000
0000
0000
0000
0000
0000
0000
0000
0000
0000
0000
0000
0000
0000
0000
0000
0000
1010
0000
0000
0000
0000
0000
0000
0000
0000
0000
0000
0000
0011
0000
0000
0000
0000
0000
0000
0000
0000
0000
0000
0000
1010
,
0000
0000
0000
0000
0000
0000
0000
0000
0000
0000
0000
0000
0000
0000
0000
0000
0000
0000
0000
0000
0000
0000
0000
0101
0000
0000
0000
0000
0000
0000
0000
0000
0000
0000
0000
0000
0000
0000
0000
0000
0000
0000
0000
0000
0000
0000
0000
0011
,
0000
0000
0000
0000
0000
0000
0000
0000
0000
0000
0000
1100
0000
0000
0000
0000
0000
0000
0000
0000
0000
0000
0000
0011
0000
0000
0000
0000
0000
0000
0000
0000
0000
0000
0000
0000
0000
0000
0000
0000
0000
0000
0000
0000
0000
0000
0000
1100
,
0000
0000
0000
0000
0000
0000
0000
0000
0000
0000
0000
0000
0000
0000
0000
0000
0000
0000
0000
0000
0000
0000
0000
0110
0000
0000
0000
0000
0000
0000
0000
0000
0000
0000
0000
1001
0000
0000
0000
0000
0000
0000
0000
0000
0000
0000
0000
0110
,
0000
0000
0000
0000
0000
0000
0000
0000
0000
0000
0000
0000
0000
0000
0000
0000
0000
0000
0000
0000
0000
0000
0000
1001
0000
0000
0000
0000
0000
0000
0000
0000
0000
0000
0000
0000
0000
0000
0000
0000
0000
0000
0000
0000
0000
0000
0000
2020
,
0000
0000
0000
0000
0000
0000
0000
0000
0000
0000
0000
0000
0000
0000
0000
0000
0000
0000
0000
0000
0000
0000
0000
3030
0000
0000
0000
0000
0000
0000
0000
0000
0000
0000
0000
0000
0000
0000
0000
0000
0000
0000
0000
0000
0000
0000
0000
0022
,
0000
0000
0000
0000
0000
0000
0000
0000
0000
0000
0000
0000
0000
0000
0000
0000
0000
0000
0000
0000
0000
0000
0000
0033
0000
0000
0000
0000
0000
0000
0000
0000
0000
0000
0000
0000
0000
0000
0000
0000
0000
0000
0000
0000
0000
0000
0000
1001
,
0000
0000
0000
0000
0000
0000
0000
0000
0000
0000
0000
0000
0000
0000
0000
0000
0000
0000
0000
0000
0000
0000
0000
0010
0000
0000
0000
0000
0000
0000
0000
0000
0000
0000
0000
0000
0000
0000
0000
0000
0000
0000
0000
0000
0000
0000
0000
0001
,
0000
0000
0000
0000
0000
0000
0000
0000
0000
0000
0000
0000
0000
0000
0000
0000
0000
0000
0000
0000
0000
0000
0000
0010
0000
0000
0000
0000
0000
0000
0000
0000
0000
0000
0000
0000
0000
0000
0000
0000
0000
0000
0000
0000
0000
0000
0000
1000
,
0000
0000
0000
0000
0000
0000
0000
0000
0000
0000
0000
0100
0000
0000
0000
0000
0000
0000
0000
0000
0000
0000
0000
0001
0000
0000
0000
0000
0000
0000
0000
0000
0000
0000
0000
0000
0000
0000
0000
0000
0000
0000
0000
0000
0000
0000
0000
0001
,
0000
0000
0000
0000
0000
0000
0000
0000
0000
0000
0000
0100
0000
0000
0000
0000
0000
0000
0000
0000
0000
0000
0000
1000
0000
0000
0000
0000
0000
0000
0000
0000
0000
0000
0000
0000
0000
0000
0000
0000
0000
0000
0000
0000
0000
0000
0000
1000
,
0000
0000
0000
0000
0000
0000
0000
0000
0000
0000
0000
0010
0000
0000
0000
0000
0000
0000
0000
0000
0000
0000
0000
0001
0000
0000
0000
0000
0000
0000
0000
0000
0000
0000
0000
0000
0000
0000
0000
0000
0000
0000
0000
0000
0000
0000
0000
0001
,
0000
0000
0000
0000
0000
0000
0000
0000
0000
0000
0000
0010
0000
0000
0000
0000
0000
0000
0000
0000
0000
0000
0000
1000
0000
0000
0000
0000
0000
0000
0000
0000
0000
0000
0000
0000
0000
0000
0000
0000
0000
0000
0000
0000
0000
0000
0000
1000
,
0000
0000
0000
0000
0000
0000
0000
0000
0000
0000
0000
0010
0000
0000
0000
0000
0000
0000
0000
0000
0000
0000
0000
0100
0000
0000
0000
0000
0000
0000
0000
0000
0000
0000
0000
0001
0000
0000
0000
0000
0000
0000
0000
0000
0000
0000
0000
1000
,
0000
0000
0000
0000
0000
0000
0000
0000
0000
0000
0000
0000
0000
0000
0000
0000
0000
0000
0000
0000
0000
0000
0000
0001
0000
0000
0000
0000
0000
0000
0000
0000
0000
0000
0000
0000
0000
0000
0000
0000
0000
0000
0000
0000
0000
0000
0000
0101
,
0000
0000
0000
0000
0000
0000
0000
0000
0000
0000
0000
0000
0000
0000
0000
0000
0000
0000
0000
0000
0000
0000
0000
0010
0000
0000
0000
0000
0000
0000
0000
0000
0000
0000
0000
0000
0000
0000
0000
0000
0000
0000
0000
0000
0000
0000
0000
0100
,
0000
0000
0000
0000
0000
0000
0000
0000
0000
0000
0000
0000
0000
0000
0000
0000
0000
0000
0000
0000
0000
0000
0000
0010
0000
0000
0000
0000
0000
0000
0000
0000
0000
0000
0000
0000
0000
0000
0000
0000
0000
0000
0000
0000
0000
0000
0000
0001
,
0000
0000
0000
0000
0000
0000
0000
0000
0000
0000
0000
0100
0000
0000
0000
0000
0000
0000
0000
0000
0000
0000
0000
0010
0000
0000
0000
0000
0000
0000
0000
0000
0000
0000
0000
1000
0000
0000
0000
0000
0000
0000
0000
0000
0000
0000
0000
0100
,
0000
0000
0000
0000
0000
0000
0000
0000
0000
0000
0000
0000
0000
0000
0000
0000
0000
0000
0000
0000
0000
0000
0000
0010
0000
0000
0000
0000
0000
0000
0000
0000
0000
0000
0000
0100
0000
0000
0000
0000
0000
0000
0000
0000
0000
0000
0000
1000
,
0000
0000
0000
0000
0000
0000
0000
0000
0000
0000
0000
0100
0000
0000
0000
0000
0000
0000
0000
0000
0000
0000
0000
0010
0000
0000
0000
0000
0000
0000
0000
0000
0000
0000
0000
0001
0000
0000
0000
0000
0000
0000
0000
0000
0000
0000
0000
0100
,
0000
0000
0000
0000
0000
0000
0000
0000
0000
0000
0000
0000
0000
0000
0000
0000
0000
0000
0000
0000
0000
0000
0000
0010
0000
0000
0000
0000
0000
0000
0000
0000
0000
0000
0000
1000
0000
0000
0000
0000
0000
0000
0000
0000
0000
0000
0000
0001
,
0000
0000
0000
0000
0000
0000
0000
0000
0000
0000
0000
0010
0000
0000
0000
0000
0000
0000
0000
0000
0000
0000
0000
0100
0000
0000
0000
0000
0000
0000
0000
0000
0000
0000
0000
1000
0000
0000
0000
0000
0000
0000
0000
0000
0000
0000
0000
0001
,
0000
0000
0000
0000
0000
0000
0000
0000
0000
0000
0000
0000
0000
0000
0000
0000
0000
0000
0000
0000
0000
0000
0000
0000
0000
0000
0000
0000
0000
0000
0000
0000
0000
0000
0000
0000
0000
0000
0000
0000
0000
0000
0000
0000
0000
0000
0000
1001
,
0000
0000
0000
0000
0000
0000
0000
0000
0000
0000
0000
0000
0000
0000
0000
0000
0000
0000
0000
0000
0000
0000
0000
1010
0000
0000
0000
0000
0000
0000
0000
0000
0000
0000
0000
0000
0000
0000
0000
0000
0000
0000
0000
0000
0000
0000
0000
0001
,
0000
0000
0000
0000
0000
0000
0000
0000
0000
0000
0000
0000
0000
0000
0000
0000
0000
0000
0000
0000
0000
0000
0000
1010
0000
0000
0000
0000
0000
0000
0000
0000
0000
0000
0000
0000
0000
0000
0000
0000
0000
0000
0000
0000
0000
0000
0000
1100
,
0000
0000
0000
0000
0000
0000
0000
0000
0000
0000
0000
0000
0000
0000
0000
0000
0000
0000
0000
0000
0000
0000
0000
0001
0000
0000
0000
0000
0000
0000
0000
0000
0000
0000
0000
0000
0000
0000
0000
0000
0000
0000
0000
0000
0000
0000
0000
1100
,
0000
0000
0000
0000
0000
0000
0000
0000
0000
0000
0000
0000
0000
0000
0000
0000
0000
0000
0000
0000
0000
0000
0000
0010
0000
0000
0000
0000
0000
0000
0000
0000
0000
0000
0000
0000
0000
0000
0000
0000
0000
0000
0000
0000
0000
0000
0000
0100
,
0000
0000
0000
0000
0000
0000
0000
0000
0000
0000
0000
0001
0000
0000
0000
0000
0000
0000
0000
0000
0000
0000
0000
0100
0000
0000
0000
0000
0000
0000
0000
0000
0000
0000
0000
0010
0000
0000
0000
0000
0000
0000
0000
0000
0000
0000
0000
1000
,
0000
0000
0000
0000
0000
0000
0000
0000
0000
0000
0000
0000
0000
0000
0000
0000
0000
0000
0000
0000
0000
0000
0000
0001
0000
0000
0000
0000
0000
0000
0000
0000
0000
0000
0000
0000
0000
0000
0000
0000
0000
0000
0000
0000
0000
0000
0000
1010
,
0000
0000
0000
0000
0000
0000
0000
0000
0000
0000
0000
0001
0000
0000
0000
0000
0000
0000
0000
0000
0000
0000
0000
0100
0000
0000
0000
0000
0000
0000
0000
0000
0000
0000
0000
0010
0000
0000
0000
0000
0000
0000
0000
0000
0000
0000
0000
0100
,
0000
0000
0000
0000
0000
0000
0000
0000
0000
0000
0000
0000
0000
0000
0000
0000
0000
0000
0000
0000
0000
0000
0000
1001
0000
0000
0000
0000
0000
0000
0000
0000
0000
0000
0000
0000
0000
0000
0000
0000
0000
0000
0000
0000
0000
0000
0000
0010
,
0000
0000
0000
0000
0000
0000
0000
0000
0000
0000
0000
0000
0000
0000
0000
0000
0000
0000
0000
0000
0000
0000
0000
0101
0000
0000
0000
0000
0000
0000
0000
0000
0000
0000
0000
0000
0000
0000
0000
0000
0000
0000
0000
0000
0000
0000
0000
1000
,
0000
0000
0000
0000
0000
0000
0000
0000
0000
0000
0000
0000
0000
0000
0000
0000
0000
0000
0000
0000
0000
0000
0000
0100
0000
0000
0000
0000
0000
0000
0000
0000
0000
0000
0000
0000
0000
0000
0000
0000
0000
0000
0000
0000
0000
0000
0000
0010
,
0000
0000
0000
0000
0000
0000
0000
0000
0000
0000
0000
0001
0000
0000
0000
0000
0000
0000
0000
0000
0000
0000
0000
0100
0000
0000
0000
0000
0000
0000
0000
0000
0000
0000
0000
0000
0000
0000
0000
0000
0000
0000
0000
0000
0000
0000
0000
0100
,
0000
0000
0000
0000
0000
0000
0000
0000
0000
0000
0000
0001
0000
0000
0000
0000
0000
0000
0000
0000
0000
0000
0000
0010
0000
0000
0000
0000
0000
0000
0000
0000
0000
0000
0000
0000
0000
0000
0000
0000
0000
0000
0000
0000
0000
0000
0000
0010
,
0000
0000
0000
0000
0000
0000
0000
0000
0000
0000
0000
1000
0000
0000
0000
0000
0000
0000
0000
0000
0000
0000
0000
0010
0000
0000
0000
0000
0000
0000
0000
0000
0000
0000
0000
0000
0000
0000
0000
0000
0000
0000
0000
0000
0000
0000
0000
0010
,
0000
0000
0000
0000
0000
0000
0000
0000
0000
0000
0000
0001
0000
0000
0000
0000
0000
0000
0000
0000
0000
0000
0000
0010
0000
0000
0000
0000
0000
0000
0000
0000
0000
0000
0000
0000
0000
0000
0000
0000
0000
0000
0000
0000
0000
0000
0000
0010
,
0000
0000
0000
0000
0000
0000
0000
0000
0000
0000
0000
0100
0000
0000
0000
0000
0000
0000
0000
0000
0000
0000
0000
0010
0000
0000
0000
0000
0000
0000
0000
0000
0000
0000
0000
0001
0000
0000
0000
0000
0000
0000
0000
0000
0000
0000
0000
1000
,
0000
0000
0000
0000
0000
0000
0000
0000
0000
0000
0000
0000
0000
0000
0000
0000
0000
0000
0000
0000
0000
0000
0000
0001
0000
0000
0000
0000
0000
0000
0000
0000
0000
0000
0000
0000
0000
0000
0000
0000
0000
0000
0000
0000
0000
0000
0000
4400
,
0000
0000
0000
0000
0000
0000
0000
0000
0000
0000
0000
0000
0000
0000
0000
0000
0000
0000
0000
0000
0000
0000
0000
0000
0000
0000
0000
0000
0000
0000
0000
0000
0000
0000
0000
0000
0000
0000
0000
0000
0000
0000
3300
0000
0000
0000
0000
0044
,
0000
0000
0000
0000
0000
0000
0000
0000
0000
0000
0000
0000
0000
0000
0000
0000
0000
0000
0000
0000
0000
0000
0000
0000
0000
0000
0000
0000
0000
0000
0000
0000
0000
0000
0000
0000
0000
0000
0000
0000
0000
0000
0033
0000
0000
0000
0000
0440
,
0000
0000
0000
0000
0000
0000
0000
0000
0000
0000
0000
0000
0000
0000
0000
0000
0000
0000
0000
0000
0000
0000
0000
0000
0000
0000
0000
0000
0000
0000
0000
0000
0000
0000
0000
0000
0000
0000
0000
0000
0000
0000
0330
0000
0000
0000
0000
4004
,
0000
0000
0000
0000
0000
0000
0000
0000
0000
0000
0000
0000
0000
0000
0000
0000
0000
0000
0000
0000
0000
0000
0000
0000
0000
0000
0000
0000
0000
0000
0000
0000
0000
0000
0000
0000
0000
0000
0000
0000
0000
0000
3003
0000
0000
0000
0000
1002
,
0000
0000
0000
0000
0000
0000
0000
0000
0000
0000
0000
0000
0000
0000
0000
0000
0000
0000
0000
0000
0000
0000
0000
0013
0000
0000
0000
0000
0000
0000
0000
0000
0000
0000
0000
0000
0000
0000
0000
0000
0000
0000
0000
0000
0000
0000
0000
1001
,
0000
0000
0000
0000
0000
0000
0000
0000
0000
0000
0000
0100
0000
0000
0000
0000
0000
0000
0000
0000
0000
0000
0000
0001
0000
0000
0000
0000
0000
0000
0000
0000
0000
0000
0000
0100
0000
0000
0000
0000
0000
0000
0000
0000
0000
0000
0000
2001
,
0000
0000
0000
0000
0000
0000
0000
0000
0000
0000
0000
3000
0000
0000
0000
0000
0000
0000
0000
0000
0000
0000
0000
1020
0000
0000
0000
0000
0000
0000
0000
0000
0000
0000
0000
0030
0000
0000
0000
0000
0000
0000
0000
0000
0000
0000
0000
2002
,
0000
0000
0000
0000
0000
0000
0000
0000
0000
0000
0000
0000
0000
0000
0000
0000
0000
0000
0000
0000
0000
0000
0000
3003
0000
0000
0000
0000
0000
0000
0000
0000
0000
0000
0000
0000
0000
0000
0000
0000
0000
0000
0000
0000
0000
0000
0000
1200
,
0000
0000
0000
0000
0000
0000
0000
0000
0000
0000
0000
0000
0000
0000
0000
0000
0000
0000
0000
0000
0000
0000
0000
0310
0000
0000
0000
0000
0000
0000
0000
0000
0000
0000
0000
0000
0000
0000
0000
0000
0000
0000
0000
0000
0000
0000
0000
0021
,
0000
0000
0000
0000
0000
0000
0000
0000
0000
0000
0000
0000
0000
0000
0000
0000
0000
0000
0000
0000
0000
0000
0000
0130
0000
0000
0000
0000
0000
0000
0000
0000
0000
0000
0000
0000
0000
0000
0000
0000
0000
0000
0000
0000
0000
0000
0000
0210
,
0000
0000
0000
0000
0000
0000
0000
0000
0000
0000
0000
0000
0000
0000
0000
0000
0000
0000
0000
0000
0000
0000
0000
0001
0000
0000
0000
0000
0000
0000
0000
0000
0000
0000
0000
0000
0000
0000
0000
0000
0000
0000
0000
0000
0000
0000
0000
1300
,
0000
0000
0000
0000
0000
0000
0000
0000
0000
0000
0000
0000
0000
0000
0000
0000
0000
0000
0000
0000
0000
0000
0000
1001
0000
0000
0000
0000
0000
0000
0000
0000
0000
0000
0000
0000
0000
0000
0000
0000
0000
0000
0000
0000
0000
0000
0000
0012
,
0000
0000
0000
0000
0000
0100
0000
0000
0000
0000
0000
0013
0000
0000
0001
0000
0000
0100
0000
0000
0001
0000
0000
0020
0000
0000
0000
0000
0000
1000
0000
0000
0000
0000
0000
0001
0000
0000
0000
0000
0000
1000
0000
0000
0000
0000
0000
0001
,
0000
0000
0000
0000
0000
0100
0000
0000
0000
0000
0000
1000
0000
0000
0000
0000
0000
0031
0000
0000
0000
0000
0000
0100
0000
0000
0000
0000
0000
0110
0000
0000
0000
0000
0000
1001
0000
0000
0000
0000
0000
1001
0000
0000
0000
0000
0000
0000
,
1010
0001
1010
0000
,
0101
1000
0101
0000
,
0011
0000
0110
0000
,
2002
0000
3003
0000
,
1200
0000
0301
0000
,
0021
0000
1030
0000
,
0101
0000
1010
0000
,
2200
0000
3300
0000
,
1002
0000
0013
0000
,
1000
0100
0001
0100
,
2000
0000
3010
0000
,
2002
0000
0000
0000
0000
0000
0000
0000
0000
0000
0000
0000
3003
0000
0000
0000
0000
0000
1000
0000
0000
0000
0000
0010
,
0000
0000
0000
0000
0000
1000
0000
0000
0000
0000
0000
0100
0000
0000
0000
0000
0000
0010
0000
0000
0000
0000
0000
2002
,
0000
0000
0000
0000
0000
0000
0000
0000
0000
0000
0000
0000
0000
0000
0000
0000
0000
0000
0000
0000
0000
0000
3003
0000
0000
0000
0000
0000
0000
0000
0000
0000
0000
0000
0000
0000
0000
0000
0000
0000
0000
0000
0000
0000
0000
0100
0000
0000
,
0000
0000
0000
0001
0000
0000
0000
1000
0000
0000
0000
0010
0000
0000
0000
0220
,
0000
0000
0000
0000
0000
0000
0000
0000
0000
0000
0000
0000
0000
0000
0330
0000
0000
0000
0000
0000
0000
0000
0000
0000
0000
0000
0000
0000
0000
0001
0000
0000
,
0000
0000
0000
0000
0000
0100
0000
0000
0000
0000
0000
0000
0000
1000
0000
0000
0000
0000
0000
0000
0000
0100
0000
0000
0000
0000
0000
0000
0000
2002
0000
0000
,
0000
0000
0000
0000
0000
0000
0000
0000
0000
0000
0000
0000
0000
3003
0000
0000
0000
0000
0000
0000
0000
0000
0000
0000
0000
0000
0000
0000
0000
0000
0000
0000
,
0000
0000
0000
0000
0000
0000
0000
0010
,
0000
0001
0000
1000
0000
0010
0000
2002
,
0000
0000
0000
0000
,
0000
0000
0000
0000
0000
0000
0000
3003
;

//---------------dance-single - ----------------
#NOTEDATA:;
#CHARTNAME:[Ness];
#STEPSTYPE:dance-single;
#DESCRIPTION:[Ness];
#CHARTSTYLE:;
#DIFFICULTY:Medium;
#METER:5;
#RADARVALUES:0.373495,0.485410,0.318609,0.046854,0.000000,279.000000,245.000000,34.000000,5.000000,0.000000,0.000000,0.000000,0.000000,0.000000,0.373495,0.485410,0.318609,0.046854,0.000000,279.000000,245.000000,34.000000,5.000000,0.000000,0.000000,0.000000,0.000000,0.000000;
#CREDIT:[Ness];
#NOTES:
0000
0000
0000
0000
,
0000
0000
0000
0000
,
1001
0010
1000
0100
,
0010
0100
0020
0030
,
0001
0100
0010
1000
,
0100
0010
1001
0000
,
0010
0001
0100
0001
,
0010
0100
1001
0000
,
0010
1000
0100
0010
,
0100
1000
0010
0100
,
0001
0010
0001
1000
,
0010
1000
0100
0000
,
1000
0100
1000
0001
,
0100
0010
1001
0000
,
0010
1000
0001
0001
,
0010
0001
1000
0000
,
0010
1000
0100
0010
,
0001
0000
0110
0000
,
1001
0100
1000
0100
,
0010
0001
0100
0000
,
0010
1000
0001
0010
,
0001
0100
1001
0000
,
1010
1000
0010
0100
,
0001
0001
0010
0000
,
1000
0100
0001
0010
,
0100
0100
0010
0000
,
0001
0100
0001
0100
,
1000
0010
1000
0010
,
0100
0001
0010
1000
,
0001
0010
0100
0000
,
1000
0100
0010
0001
,
0100
0010
1000
0001
,
0010
0100
1000
0010
,
0002
0000
0000
0000
,
0013
0110
0000
1001
,
0110
0000
1010
0101
,
0000
1100
0011
1001
,
0110
0000
1010
0000
,
1001
0100
0010
0100
,
0001
0010
0001
1000
,
0010
0100
0010
1000
,
0100
0010
0001
1000
,
0011
1000
0010
0100
,
0010
1000
0100
0000
,
0010
0001
0100
1000
,
0001
0010
0100
0000
,
1000
0100
1000
0100
,
0001
0100
1000
0100
,
0001
0010
1000
0100
,
0001
1000
0010
0001
,
0100
1000
0001
1000
,
0010
0001
0100
0010
,
1000
0001
0010
0100
,
1000
0100
0001
0100
,
0000
0000
0000
0000
,
0000
0000
0000
0000
,
1001
0010
0001
0100
,
1000
0001
0100
0000
,
0010
1000
0100
0010
,
0001
1000
1001
0010
,
0100
0000
0010
0000
,
0001
0000
1000
0000
,
0010
0000
0100
0000
,
0001
1000
0010
0010
,
0110
1000
0110
0001
,
1001
0010
1001
0000
,
0010
0001
0100
0010
,
1000
0001
0100
0000
,
1001
0010
1010
0010
,
1001
0010
1001
0010
,
1001
0100
0020
0000
,
1030
0100
0002
0000
,
0013
0100
2000
0000
,
3010
0000
1010
0011
,
1001
0000
0000
0000
;

//---------------dance-single - ----------------
#NOTEDATA:;
#CHARTNAME:[Ness];
#STEPSTYPE:dance-single;
#DESCRIPTION:[Ness];
#CHARTSTYLE:;
#DIFFICULTY:Easy;
#METER:3;
#RADARVALUES:0.240965,0.312049,0.084338,0.018742,0.000000,180.000000,171.000000,9.000000,2.000000,0.000000,0.000000,0.000000,0.000000,0.000000,0.240965,0.312049,0.084338,0.018742,0.000000,180.000000,171.000000,9.000000,2.000000,0.000000,0.000000,0.000000,0.000000,0.000000;
#CREDIT:[Ness];
#NOTES:
// measure 0
0000
0000
0000
0000
,  // measure 1
0000
0000
0000
0000
,  // measure 2
1000
0000
0001
0000
,  // measure 3
1000
0000
0010
0000
,  // measure 4
0100
0000
0001
0000
,  // measure 5
0010
0100
1000
0100
,  // measure 6
0010
0000
0001
0000
,  // measure 7
1000
0000
0001
0000
,  // measure 8
0100
0000
0010
0000
,  // measure 9
1000
0001
0100
0010
,  // measure 10
0100
0000
0001
0000
,  // measure 11
1000
0000
0010
0000
,  // measure 12
1000
0000
0100
0000
,  // measure 13
0010
0001
1000
0100
,  // measure 14
0010
0000
0001
0000
,  // measure 15
1000
0000
0010
0000
,  // measure 16
0100
0000
0000
0000
,  // measure 17
0000
0000
0110
0000
,  // measure 18
1001
0000
0010
0000
,  // measure 19
1000
0000
0001
0000
,  // measure 20
0010
0001
0010
0000
,  // measure 21
1000
0100
1000
0000
,  // measure 22
0001
0000
0100
0000
,  // measure 23
0010
0100
0010
0000
,  // measure 24
1000
0010
1000
0000
,  // measure 25
0001
0100
0001
0000
,  // measure 26
1000
0000
0010
0000
,  // measure 27
1000
0000
0001
0000
,  // measure 28
0010
0100
0010
0000
,  // measure 29
0001
1000
0001
0000
,  // measure 30
0100
0000
0010
0000
,  // measure 31
1000
0000
0001
0000
,  // measure 32
0010
0000
0100
0000
,  // measure 33
1000
0000
0000
0000
,  // measure 34
0010
0000
0000
0110
,  // measure 35
0000
0000
1001
0000
,  // measure 36
0000
0110
0000
0000
,  // measure 37
1001
0000
1001
0000
,  // measure 38
0010
0000
0010
0000
,  // measure 39
1000
0100
0100
0000
,  // measure 40
0010
0000
0001
0000
,  // measure 41
0100
0001
0001
0000
,  // measure 42
0010
0000
0100
0000
,  // measure 43
1000
0001
1000
0000
,  // measure 44
0010
0100
0010
0000
,  // measure 45
1000
0001
1000
0000
,  // measure 46
0001
0000
0010
0000
,  // measure 47
0100
0000
1000
0000
,  // measure 48
0001
0010
0001
0000
,  // measure 49
1000
0100
1000
0000
,  // measure 50
0000
0010
0010
0000
,  // measure 51
0100
0000
0001
0000
,  // measure 52
1000
0010
1000
0010
,  // measure 53
0001
0010
0001
0010
,  // measure 54
0000
0000
0000
0000
,  // measure 55
0000
0000
0000
0000
,  // measure 56
1000
1000
0100
0100
,  // measure 57
0010
0000
0001
0000
,  // measure 58
0100
0001
0100
0001
,  // measure 59
1000
0000
0001
0000
,  // measure 60
0010
0000
0000
0000
,  // measure 61
0000
0000
0000
0000
,  // measure 62
0100
0000
1000
0000
,  // measure 63
0010
0000
0100
0000
,  // measure 64
0010
1000
0001
1000
,  // measure 65
0010
1000
0010
0000
,  // measure 66
0100
0001
0100
0001
,  // measure 67
0100
0000
0000
0000
,  // measure 68
0001
1000
0001
0000
,  // measure 69
0010
0001
0010
0000
,  // measure 70
0100
1000
0020
0030
,  // measure 71
0100
0001
0020
0030
,  // measure 72
0100
1000
0001
0100
,  // measure 73
0010
0000
0110
0000
,  // measure 74
1001
0000
0000
0000
;

//---------------dance-single - ----------------
#NOTEDATA:;
#CHARTNAME:[Ness];
#STEPSTYPE:dance-single;
#DESCRIPTION:[Ness];
#CHARTSTYLE:;
#DIFFICULTY:Beginner;
#METER:2;
#RADARVALUES:0.170014,0.312049,0.056225,0.018742,0.000000,127.000000,121.000000,6.000000,2.000000,0.000000,0.000000,0.000000,0.000000,0.000000,0.170014,0.312049,0.056225,0.018742,0.000000,127.000000,121.000000,6.000000,2.000000,0.000000,0.000000,0.000000,0.000000,0.000000;
#CREDIT:[Ness];
#NOTES:
// measure 0
0000
0000
0000
0000
,  // measure 1
0000
0000
0000
0000
,  // measure 2
1000
0000
1000
0000
,  // measure 3
1000
0000
0000
0000
,  // measure 4
0010
0000
0010
0000
,  // measure 5
0010
0000
0000
0000
,  // measure 6
0100
0000
0100
0000
,  // measure 7
0100
0000
0000
0000
,  // measure 8
0010
0000
0010
0000
,  // measure 9
0010
0000
0000
0000
,  // measure 10
0001
0000
0001
0000
,  // measure 11
0001
0000
0000
0000
,  // measure 12
0100
0000
0100
0000
,  // measure 13
0100
0000
0000
0000
,  // measure 14
1000
0000
0100
0000
,  // measure 15
1000
0000
0000
0000
,  // measure 16
0001
0000
0100
0000
,  // measure 17
0001
0000
0000
0000
,  // measure 18
1001
0000
0000
0000
,  // measure 19
0010
0000
0000
0000
,  // measure 20
1000
0000
1000
0000
,  // measure 21
1000
0000
0000
0000
,  // measure 22
0001
0000
0010
0000
,  // measure 23
0001
0000
0000
0000
,  // measure 24
1000
0000
0100
0000
,  // measure 25
1000
0000
0000
0000
,  // measure 26
0001
0000
0100
0000
,  // measure 27
0010
0000
0010
0000
,  // measure 28
1000
0000
0010
0000
,  // measure 29
0100
0000
0100
0000
,  // measure 30
0001
0000
0001
0000
,  // measure 31
0001
0000
0001
0000
,  // measure 32
1000
0000
1000
0000
,  // measure 33
1000
0000
0000
0000
,  // measure 34
1001
0000
0000
0010
,  // measure 35
0000
0000
1000
0000
,  // measure 36
0000
0010
0000
0000
,  // measure 37
1001
0000
0010
0000
,  // measure 38
1001
0000
0000
0000
,  // measure 39
0100
0000
0000
0000
,  // measure 40
0010
0000
0010
0000
,  // measure 41
0001
0000
0001
0000
,  // measure 42
1000
0000
0000
0000
,  // measure 43
0001
0000
0000
0000
,  // measure 44
0100
0000
0100
0000
,  // measure 45
0010
0000
0010
0000
,  // measure 46
1000
0000
0000
0000
,  // measure 47
0100
0000
0010
0000
,  // measure 48
0001
0000
0100
0000
,  // measure 49
1000
0000
0100
0000
,  // measure 50
0010
0000
0001
0000
,  // measure 51
1000
0000
0001
0000
,  // measure 52
0010
0000
0100
0000
,  // measure 53
1000
0000
0001
0000
,  // measure 54
0000
0000
0000
0000
,  // measure 55
0000
0000
0000
0000
,  // measure 56
0100
0000
0010
0000
,  // measure 57
1000
0000
0001
0000
,  // measure 58
0010
0000
0100
0000
,  // measure 59
1000
0000
0001
0000
,  // measure 60
0100
0000
0000
0000
,  // measure 61
0000
0000
0000
0000
,  // measure 62
0010
0000
0010
0000
,  // measure 63
0010
0000
0010
0000
,  // measure 64
0010
0000
1000
0000
,  // measure 65
0100
0000
0001
0000
,  // measure 66
0100
0000
0010
0000
,  // measure 67
0001
0000
1000
0000
,  // measure 68
0010
0000
0100
0000
,  // measure 69
0001
0000
1000
0000
,  // measure 70
0010
0010
0020
0030
,  // measure 71
0100
0100
0200
0300
,  // measure 72
0010
0010
0010
0010
,  // measure 73
0010
0000
0110
0000
,  // measure 74
1001
0000
0000
0000
;
