#VERSION:0.83;
#TITLE:Give It All;
#SUBTITLE:AAC Light-heavyweight M4;
#ARTIST:Masayoshi Soken;
#TITLETRANSLIT:;
#SUBTITLETRANSLIT:;
#ARTISTTRANSLIT:;
#GENRE:Dawntrail;
#ORIGIN:;
#CREDIT:[Ness];
#BANNER:Final Fantasy XIV - Give It All.png;
#BACKGROUND:Final Fantasy XIV - Give It All-bg.png;
#PREVIEWVID:;
#JACKET:Final Fantasy XIV - Give It All-jacket.png;
#CDIMAGE:;
#DISCIMAGE:;
#LYRICSPATH:Final Fantasy XIV - Give It All.lrc;
#CDTITLE:;
#MUSIC:Final Fantasy XIV - Give It All.mp3;
#OFFSET:-0.015000;
#SAMPLESTART:111.122391;
#SAMPLELENGTH:11.848053;
#SELECTABLE:YES;
#BPMS:0.000=162.052;
#STOPS:;
#DELAYS:;
#WARPS:;
#TIMESIGNATURES:0.000=4=4;
#TICKCOUNTS:0.000=2;
#COMBOS:0.000=1;
#SPEEDS:0.000=1.000=0.000=0;
#SCROLLS:0.000=1.000;
#FAKES:;
#LABELS:0.000=Song Start;
#LASTSECONDHINT:143.704529;
#BGCHANGES:;
#KEYSOUNDS:;
#ATTACKS:
;

//---------------dance-single - ----------------
#NOTEDATA:;
#CHARTNAME:;
#STEPSTYPE:dance-single;
#DESCRIPTION:;
#CHARTSTYLE:;
#DIFFICULTY:Challenge;
#METER:9;
#RADARVALUES:0.620776,0.605593,0.396939,0.355156,0.052229,624.000000,567.000000,57.000000,51.000000,319.000000,0.000000,0.000000,0.000000,0.000000,0.620776,0.605593,0.396939,0.355156,0.052229,624.000000,567.000000,57.000000,51.000000,319.000000,0.000000,0.000000,0.000000,0.000000;
#CREDIT:;
#NOTES:
0000
0000
0000
0000
,
10M1
0000
1M00
0010
100M
0100
M010
0001
,
00M0
1000
0M10
0001
M000
0010
010M
0000
,
M001
0000
01M0
1000
010M
0010
M001
0010
,
0M00
1000
001M
0100
M000
0011
0M00
00M0
,
1M00
0000
M001
0010
1M00
0010
010M
1000
,
00M0
0001
M100
0010
000M
0100
00M1
0000
,
1M00
0000
M001
0010
1M00
0001
01M0
1000
,
000M
0010
M100
0001
00M0
1000
000M
0000
,
0M01
0000
M1M1
0000
1000
0100
1000
0M2M
,
0000
1030
0001
2MM0
0000
3001
0100
0010
,
0100
0000
1MM1
0000
0001
0010
0100
20MM
,
0000
3010
1000
01MM
0000
12MM
0000
1300
,
0010
0000
M1M0
0001
0010
0100
1000
0MM1
,
0000
1000
0010
M10M
0000
0001
0010
0100
,
10M0
0000
0MM1
1000
0100
0001
0010
M10M
,
0000
0000
0000
0010
0000
0000
0001
0000
0000
1MM0
0000
0000
0000
0000
0000
M2M2
0000
0000
00M0
0000
M000
0000
00M0
0000
,
M000
00M0
M000
00M0
M000
00M0
M000
00M0
M000
03M0
M000
0000
,
M010
0000
M000
0100
M000
0000
M010
0000
M000
0103
M000
0000
,
0101
0000
M020
0000
0130
0001
1000
02MM
,
0000
0300
0110
M00M
1000
0000
0010
0200
,
0000
0000
M3M1
0000
1000
0001
0100
102M
,
0000
1030
0100
10M2
0000
0013
0001
0100
,
0010
0000
10MM
0100
0000
0100
0010
MM01
,
0000
1000
0100
10MM
0000
0001
0100
0010
,
1000
0000
M21M
0000
0301
0010
0100
20M1
,
0000
3010
1000
12MM
0000
0310
0100
0010
,
0001
0000
M2M1
0000
0310
0100
0000
M11M
,
0000
0001
0010
1M00
0000
1000
0010
0001
,
0100
0000
M12M
0000
1030
0100
0010
MM02
,
0000
0013
0100
20MM
0000
3001
0000
1001
,
0000
0100
0001
0010
1000
0010
0001
0200
,
M0MM
0301
0010
1000
0010
0001
0100
2000
,
0MMM
3100
0001
0010
1000
0010
0001
0200
,
M0MM
0310
1000
0200
0000
0310
0001
1000
,
0001
0100
0001
0010
0100
1000
0010
0200
,
M0MM
1300
0100
0010
1000
0100
0010
0002
,
MMM0
1003
0010
0001
1000
0100
0001
0020
,
MM0M
0130
1000
0MM1
0010
0100
1000
0001
,
0100
0000
M11M
0000
0001
0010
0000
2M1M
,
0000
0000
3100
00MM
0010
0001
0100
0002
,
0000
1003
M1M0
0010
0100
1000
0000
M21M
,
0000
1300
0010
M12M
0000
0130
0001
1000
,
0100
0000
MM10
0001
0000
0001
0100
M0M1
,
0000
1000
0010
M10M
0000
0001
0010
1000
,
0010
0000
M11M
0000
1000
0001
0100
M21M
,
0000
0301
1000
2MM1
0000
3100
0010
0001
,
0100
0000
M11M
0000
0001
0010
0100
10MM
,
0000
1000
0010
M10M
0000
0100
0010
1000
,
0001
0000
1MM1
0000
1000
0100
0001
M1M0
,
0000
0010
0001
1MM0
0000
0010
1000
0001
,
0100
0010
1000
0100
0001
0100
1000
0020
,
MM0M
1030
0100
0001
0100
1000
0010
0002
,
MMM0
0013
1000
0100
0001
0100
1000
0020
,
MM0M
0031
0010
2000
0000
3001
0100
0010
,
1000
0000
0101
0000
0001
0100
0001
0020
,
MM0M
0100
0130
0000
1000
0100
1000
0002
,
MMM0
1000
1003
0000
0010
0100
0001
1002
,
MMM0
0013
0100
2001
0000
3010
0100
0010
,
2000
00M0
3001
1000
020M
0000
0001
M000
,
0010
0000
130M
0010
0100
00M0
1000
0001
,
0100
M000
0001
1000
0M20
0000
0001
M000
,
0100
000M
1030
0001
01M0
0000
M010
1000
,
0100
0000
M010
0001
0200
00M0
1000
0000
,
00M1
M000
0310
1000
020M
0000
0001
00M0
,
1300
0000
001M
1000
0000
0M01
0000
0101
,
00M0
1010
0000
1001
0M00
0010
1000
0001
,
01M0
0001
1000
0100
100M
0010
1000
0100
,
00M0
1100
0000
0100
M010
0001
0100
0001
,
00M0
0000
1000
0010
010M
0010
1000
0001
,
0M00
0011
0000
1001
0000
00M1
M100
0001
,
0010
000M
0100
1000
0010
M100
0010
1000
,
0M00
0001
1000
01M0
0000
010M
1000
0001
,
0100
M000
0010
1000
010M
0010
0000
0M11
,
0000
0000
1010
0000
0000
0000
2002
0000
0000
0000
3003
0000
0001
1000
0001
1000
,
0100
0000
M1M1
0000
1000
0100
10MM
0010
,
0000
0001
MM10
0001
0100
0010
1M0M
0001
,
0000
0010
M10M
1000
0010
0100
MM01
0010
,
0000
1000
0MM1
0100
0000
1000
0MM1
0010
,
0100
0000
M11M
0000
0100
1000
0M1M
0100
,
0000
1000
MM10
0100
0001
0010
M0M1
0100
,
0000
1000
01MM
1000
0001
0100
0M1M
1000
,
0000
0010
0MM1
1000
0000
0010
M10M
1000
,
0001
0000
M11M
0000
1000
0100
10MM
0010
,
0000
0110
M01M
0011
0000
0010
1M0M
0100
,
0010
0000
1MM1
0000
0001
1000
01MM
1100
,
0000
0110
M0M0
0101
0000
0100
0010
1MM1
,
0000
MMMM
0001
1MM1
0000
MMMM
0100
1MM1
,
0000
1M00
0010
010M
0000
M11M
0000
1MM1
,
0000
0000
0001
0010
0001
0100
1000
0200
,
M0MM
1300
0100
0001
0010
0001
0100
2000
,
0MMM
3100
0001
0010
1000
0010
0001
0200
,
M0MM
0310
1000
0100
0000
1100
MMMM
0101
,
0000
0010
0001
0010
1000
0100
0001
0200
,
M0MM
1300
0010
1000
0100
0001
0100
2000
,
0MMM
3010
0001
0010
1000
0100
1000
1100
,
MMMM
0110
1000
0101
0000
MMMM
0000
0000
;

//---------------dance-single - ----------------
#NOTEDATA:;
#CHARTNAME:;
#STEPSTYPE:dance-single;
#DESCRIPTION:;
#CHARTSTYLE:;
#DIFFICULTY:Hard;
#METER:7;
#RADARVALUES:0.516319,0.536912,0.536215,0.271590,0.000000,519.000000,442.000000,77.000000,39.000000,0.000000,0.000000,0.000000,0.000000,0.000000,0.516319,0.536912,0.536215,0.271590,0.000000,519.000000,442.000000,77.000000,39.000000,0.000000,0.000000,0.000000,0.000000,0.000000;
#CREDIT:;
#NOTES:
0000
0000
0000
0000
,
0000
0100
0010
0000
0001
0010
0000
1000
,
0010
0000
1000
0100
0000
0001
0100
0000
,
0000
0001
0010
0000
1000
0001
0000
0100
,
1000
0000
0001
0100
0000
0110
0000
0000
,
0000
0010
0100
0000
1000
0010
0000
0100
,
0001
0000
0010
1000
0000
0001
0100
0000
,
0000
1000
0100
0000
0010
0001
0000
0100
,
0010
0000
0001
1000
0000
0000
0000
0000
,
1001
0000
0010
0000
1000
0010
0100
0001
,
0000
0001
0010
1000
0000
1000
0010
0000
,
0110
0000
1000
0000
0001
0100
0010
1000
,
0000
1000
0100
0001
0000
0101
0000
1000
,
0100
0000
1001
0000
1000
0010
0100
0001
,
0000
0001
0010
1000
0000
1000
0010
0000
,
1001
0000
0010
0000
1000
0100
0010
0001
,
0000
0001
0100
1000
0000
2200
0000
0000
,
0000
0000
3300
0000
,
0010
0100
0010
0100
,
0002
0000
0013
0000
1000
0010
0100
0020
,
0000
0030
1000
0000
0100
0000
0010
0100
,
0010
0000
1001
0000
0010
0100
0010
2000
,
0000
3001
1000
0200
0000
0300
0000
0010
,
0002
0000
0003
0100
0000
0010
1000
0200
,
0000
0300
0000
0010
0000
0000
0001
1000
,
0001
0000
0100
0000
1000
0100
1000
0010
,
0000
0100
0010
1000
0000
0001
0100
0010
,
1000
0000
0110
0000
1000
0100
1000
0020
,
0000
0000
0000
0100
0030
0110
0000
0000
,
0001
0000
1001
0000
0010
1000
0001
0020
,
0000
0000
0000
0130
0000
1001
0000
0010
,
0000
0000
0110
0000
0110
0000
1000
0001
,
0000
0000
1001
0000
1001
0000
0100
0001
,
0000
0000
0101
0000
0101
0000
0010
1000
,
0000
1000
0101
0110
,
2000
0000
0001
0000
3001
0010
0000
0021
,
0000
0000
0100
0000
0130
1000
0000
1002
,
0000
0000
0100
0000
0103
0010
0000
1020
,
0000
0130
0010
2000
0000
0100
3100
0000
,
0020
0000
0130
0000
1000
0001
0010
0200
,
0000
0300
1000
0000
0001
0000
0100
0010
,
0100
0000
1001
0000
0010
0100
0010
0002
,
0000
1003
0001
0200
0000
0300
0010
1000
,
0200
0000
0300
1000
0000
0010
0100
0002
,
0000
0003
0000
0010
0000
0000
0100
1000
,
0001
0000
0100
0000
0001
0100
0001
0010
,
0000
0100
0010
0001
0000
1000
0100
0010
,
0001
0000
0110
0000
0001
0100
0001
0020
,
0000
0000
0000
0100
0030
0110
0000
1000
,
0000
0000
1001
0000
0010
0001
1000
0020
,
0000
0000
0000
0130
0000
1001
0000
0010
,
0000
0000
0110
0000
1010
0000
0001
1000
,
0000
0000
0101
0000
1001
0000
0010
1000
,
0000
0000
1100
0000
0011
0000
0100
0010
,
0000
0001
1100
0110
,
0002
0000
1000
0000
1003
0010
0000
1020
,
0000
0000
0100
0000
0130
0001
0000
2001
,
0000
0000
0100
0000
3100
0010
0000
0021
,
0000
0130
0010
0002
0000
1000
1003
0000
,
2001
0000
3010
0000
,
0002
1000
0100
0010
,
1003
0000
0100
1000
0010
0000
1000
0001
,
0000
0101
0000
1000
0001
0000
0100
0010
,
0200
0000
0301
0010
,
1000
0100
0000
0001
0100
0000
0010
1000
,
0001
0010
0011
1010
,
0000
0100
0000
0010
1000
0100
0010
0001
,
0200
0300
1001
0110
,
0000
0010
0000
1000
0001
0000
1000
0100
,
2000
3000
1001
0101
,
0000
0010
0000
0001
0010
0000
1000
0001
,
0200
0300
1001
0110
,
0000
0010
0000
1000
0100
0000
0100
0010
,
0001
0000
1000
0001
0100
0010
0000
1010
,
0000
0110
0000
0011
0000
0000
0000
0000
,
1010
0000
0001
0000
0100
0010
0000
1001
,
0000
0000
1100
0000
0100
0010
0000
1001
,
0000
0000
0101
0000
0010
1000
0000
1001
,
0000
0100
0000
1100
0000
0010
0100
0001
,
1000
0000
1001
0000
1000
0100
0010
0001
,
0000
1000
0001
0000
0001
0100
0010
1000
,
0000
1000
0100
0000
1000
0010
0100
0001
,
0000
0110
0000
1010
0000
1100
0000
0000
,
0020
0000
0031
0000
1000
0001
0100
0010
,
0000
0001
0010
1000
0000
0000
0000
0000
,
2001
0000
3100
0000
1000
0010
0100
0001
,
0000
1000
0010
0100
0000
0010
1000
0200
,
0000
0301
0100
2000
0000
3100
1000
0020
,
0000
1030
0001
0100
0000
0110
0000
0101
,
0000
0000
1001
0000
0010
1000
0000
1100
,
0000
0000
1100
0000
1000
0010
0000
0011
,
0000
0000
0101
0000
0010
0001
0000
0001
,
1000
0100
0000
0101
0000
1100
0000
0110
,
0000
1000
0010
0100
0001
0010
0000
1001
,
0000
0001
0100
1000
0100
0001
0000
0110
,
0000
1000
0100
0010
0001
1000
0000
1001
,
0000
0010
1000
0001
0000
0000
0000
0000
;

//---------------dance-single - ----------------
#NOTEDATA:;
#CHARTNAME:;
#STEPSTYPE:dance-single;
#DESCRIPTION:;
#CHARTSTYLE:;
#DIFFICULTY:Medium;
#METER:6;
#RADARVALUES:0.409872,0.436241,0.306409,0.215879,0.000000,412.000000,368.000000,44.000000,31.000000,0.000000,0.000000,0.000000,0.000000,0.000000,0.409872,0.436241,0.306409,0.215879,0.000000,412.000000,368.000000,44.000000,31.000000,0.000000,0.000000,0.000000,0.000000,0.000000;
#CREDIT:;
#NOTES:
0000
0000
0000
0000
,
1000
0001
0100
1000
,
0010
0001
0100
0101
,
1000
0001
0010
1000
,
0001
0100
0010
0110
,
0001
0010
1000
0100
,
0010
0100
1000
1001
,
1000
0100
0001
0010
,
0000
0000
0000
0000
,
0100
1001
0100
0010
,
0100
0000
1000
0000
0010
0000
0100
0001
,
1000
1001
0010
0100
,
0001
0000
0010
0100
0000
1001
0000
0000
,
0010
0110
0001
0010
,
0100
0000
1000
0000
0001
0000
1000
0001
,
0100
0000
0110
0000
0010
0000
1000
0100
,
0000
0010
0000
0001
0000
2002
0000
0000
,
0000
0000
3003
0000
,
0000
0000
0000
0000
,
0001
0000
1000
0000
0010
0100
0010
0000
,
1000
0000
0100
0000
0001
0000
0100
0010
,
0000
1001
0100
0010
,
0001
0100
1000
0010
,
1000
0000
0100
0000
1000
0001
1000
0000
,
0010
0000
0100
0000
0001
0000
0010
0100
,
0000
1001
0010
0001
,
1000
0100
0010
0100
,
1000
1010
1000
1000
,
0010
0011
0001
0001
,
0100
1001
0100
1000
,
0010
0000
1001
0000
0001
0000
1000
0100
,
1000
0101
1000
1000
,
0001
1100
0001
0001
,
1000
0101
1000
1000
,
0001
0000
1100
0000
0001
0000
1000
0001
,
0100
0000
0010
0000
1000
0000
0001
1000
,
0000
0000
0010
0000
0100
0000
0001
0010
,
0000
0000
0100
0000
1000
0000
0010
0100
,
0000
0000
0000
1001
0000
0000
0000
0000
,
1000
0000
0001
0000
1000
0001
0100
0000
,
0010
0000
0100
0000
1000
0000
0100
0010
,
0000
1001
0100
0010
,
1000
0100
0001
0010
,
0001
0000
1000
0000
0010
1000
0001
0000
,
0010
0000
0100
0000
1000
0000
0001
0100
,
0000
1001
0010
0100
,
0001
0010
1000
0100
,
0001
0011
0001
0001
,
0010
1010
1000
1000
,
0100
1001
0100
0001
,
0010
0000
1001
0000
1000
0000
0001
0100
,
0001
1010
0001
0001
,
1000
0011
1000
1000
,
0001
1010
0001
0001
,
1000
0000
0011
0000
1000
0000
0001
1000
,
0100
0000
0010
0000
0001
0000
1000
0001
,
0000
0000
0010
0000
0100
0000
1000
0010
,
0000
0000
0100
0000
0001
0000
0010
0100
,
0000
0000
0000
1001
0000
0000
0000
0010
,
2000
0000
3100
0000
,
0002
1000
0013
0000
,
0200
0000
0301
0000
,
0020
1000
0130
0000
,
0002
1003
0200
0310
,
0001
1000
1001
0010
,
1000
0000
0100
0000
0010
0000
0001
0100
,
0000
0100
0000
0010
0000
0000
1000
0002
,
0000
0000
0103
0100
,
2000
0001
3010
0000
,
0200
0000
1300
1000
,
0020
0001
0130
0010
,
1001
0001
0200
0310
,
2000
3100
1001
0100
,
0001
0000
0010
0000
1000
0000
0001
0010
,
0000
0100
0000
0110
0000
0000
0000
0000
,
1001
0000
0100
0000
1000
0100
0000
2000
,
0000
0000
3001
0000
0001
0100
0000
0002
,
0000
0000
1003
0000
1000
0010
0000
2000
,
0000
0000
0000
3200
0000
0000
0310
0000
,
1001
0000
0000
0000
0001
1000
0010
0200
,
0000
0000
0300
0000
0001
0010
0100
2000
,
0000
0000
3000
0000
0010
0100
0010
1000
,
0000
0001
0000
0100
0000
0110
0000
0000
,
1001
0000
0100
0000
0001
0100
0000
0001
,
0000
0010
0000
0022
0000
0000
0033
0000
,
0100
0000
1000
0000
0010
0100
0000
0001
,
0000
1000
0000
0100
0000
0010
0100
2000
,
0000
0000
3001
0200
0000
0000
0301
0020
,
0000
0130
0000
0110
0000
0110
0000
2002
,
0000
3003
0010
0000
0100
0001
0000
0200
,
0000
0000
0301
0000
0010
0100
0000
2000
,
0000
0000
3100
0000
1000
0010
0000
0100
,
0000
0100
0000
0001
0000
0001
0000
1001
,
0000
0000
0010
0000
0001
1000
0000
0200
,
0000
0000
1300
0000
0010
0100
0000
0002
,
0000
0000
0013
0000
0100
1000
0000
0001
,
0000
1000
0001
0100
0000
0000
0000
0000
;

//---------------dance-single - ----------------
#NOTEDATA:;
#CHARTNAME:;
#STEPSTYPE:dance-single;
#DESCRIPTION:;
#CHARTSTYLE:;
#DIFFICULTY:Easy;
#METER:3;
#RADARVALUES:0.276564,0.336005,0.062675,0.299445,0.000000,278.000000,269.000000,9.000000,43.000000,0.000000,0.000000,0.000000,0.000000,0.000000,0.276564,0.336005,0.062675,0.299445,0.000000,278.000000,269.000000,9.000000,43.000000,0.000000,0.000000,0.000000,0.000000,0.000000;
#CREDIT:;
#NOTES:
// measure 0
0000
0000
0000
0000
,  // measure 1
0001
0001
0010
0001
,  // measure 2
0001
0010
0011
0000
,  // measure 3
1000
1000
0010
1000
,  // measure 4
1000
0010
1010
0000
,  // measure 5
0100
0010
0100
0010
,  // measure 6
0100
0001
1001
0000
,  // measure 7
1000
0001
1000
0001
,  // measure 8
0100
0000
0000
0000
,  // measure 9
1000
0001
1000
0001
,  // measure 10
1000
0000
0010
0000
,  // measure 11
0100
0010
0100
0010
,  // measure 12
0100
0000
0001
0000
,  // measure 13
0010
0001
0010
0001
,  // measure 14
0010
0000
0100
0000
,  // measure 15
1000
0100
1000
0100
,  // measure 16
2000
3000
0002
0003
,  // measure 17
0000
0000
0000
0000
,  // measure 18
0000
0000
0000
0000
,  // measure 19
1001
0000
0100
1000
,  // measure 20
0100
0001
0100
0010
,  // measure 21
0200
0300
0020
0030
,  // measure 22
1000
0001
1000
0000
,  // measure 23
0001
0010
1000
0010
,  // measure 24
0002
0003
2000
3000
,  // measure 25
0001
0100
0010
0000
,  // measure 26
2000
3000
0200
0300
,  // measure 27
1000
1000
0001
0000
,  // measure 28
2000
3000
0002
0003
,  // measure 29
0100
0100
0010
0000
,  // measure 30
1000
0010
1000
0100
,  // measure 31
0001
0100
0001
0000
,  // measure 32
1000
0100
1000
0000
,  // measure 33
0001
0100
0010
0000
,  // measure 34
0100
0100
0010
0100
,  // measure 35
0001
0000
0010
0001
,  // measure 36
0010
0000
0100
1000
,  // measure 37
0100
0000
1000
0001
,  // measure 38
1000
0000
0001
0000
,  // measure 39
1001
0000
0100
0001
,  // measure 40
0100
1000
0100
0010
,  // measure 41
0200
0300
0020
0030
,  // measure 42
0001
1000
0001
0000
,  // measure 43
1000
0010
0001
0010
,  // measure 44
2000
3000
0002
0003
,  // measure 45
1000
0100
0010
0000
,  // measure 46
0002
0003
0200
0300
,  // measure 47
0001
0001
1000
0000
,  // measure 48
0002
0003
2000
3000
,  // measure 49
0100
0100
0010
0000
,  // measure 50
0001
0010
0001
0100
,  // measure 51
1000
0100
1000
0000
,  // measure 52
0001
0100
0001
0000
,  // measure 53
1000
0100
0010
0000
,  // measure 54
0100
0100
0010
0100
,  // measure 55
1000
0000
0010
1000
,  // measure 56
0001
0000
0100
0001
,  // measure 57
1000
0000
0001
0010
,  // measure 58
0100
1000
0100
0010
,  // measure 59
0002
0000
0013
0000
,  // measure 60
2000
0000
3100
0000
,  // measure 61
0020
0000
0130
0000
,  // measure 62
0002
0000
1003
0000
,  // measure 63
0200
0000
0310
0000
,  // measure 64
2000
0000
3001
0000
,  // measure 65
0020
0000
0130
0000
,  // measure 66
2000
0000
3001
0000
,  // measure 67
0200
0000
0310
0000
,  // measure 68
0002
0000
1003
0000
,  // measure 69
0020
0000
1030
2000
,  // measure 70
0000
0000
3100
0000
,  // measure 71
0200
0000
0310
0000
,  // measure 72
0020
0000
0031
0000
,  // measure 73
0200
0000
0302
0000
,  // measure 74
2003
0000
3000
0000
,  // measure 75
0001
0010
0001
0000
,  // measure 76
1001
0010
1000
0000
,  // measure 77
1001
0100
0010
0000
,  // measure 78
0002
0003
2000
3000
,  // measure 79
1001
0000
0010
0100
,  // measure 80
1000
0000
0001
1000
,  // measure 81
0100
0000
0010
0001
,  // measure 82
0100
0100
0010
0000
,  // measure 83
1000
0001
1000
0001
,  // measure 84
1000
0100
1000
0000
,  // measure 85
0001
1000
0001
1000
,  // measure 86
0001
0100
0001
2000
,  // measure 87
3000
0200
0300
0200
,  // measure 88
0300
0020
0030
0220
,  // measure 89
0330
0000
0100
0100
,  // measure 90
0001
0100
0001
0100
,  // measure 91
1000
0100
1000
0100
,  // measure 92
0001
0100
0001
0001
,  // measure 93
1000
0001
1000
0000
,  // measure 94
1000
0010
1000
0000
,  // measure 95
0001
0010
0001
0000
,  // measure 96
0010
0010
0100
0000
;

//---------------dance-single - ----------------
#NOTEDATA:;
#CHARTNAME:;
#STEPSTYPE:dance-single;
#DESCRIPTION:;
#CHARTSTYLE:;
#DIFFICULTY:Beginner;
#METER:2;
#RADARVALUES:0.151215,0.234594,0.034819,0.167132,0.000000,152.000000,147.000000,5.000000,24.000000,0.000000,0.000000,0.000000,0.000000,0.000000,0.151215,0.234594,0.034819,0.167132,0.000000,152.000000,147.000000,5.000000,24.000000,0.000000,0.000000,0.000000,0.000000,0.000000;
#CREDIT:;
#NOTES:
// measure 0
0000
0000
0000
0000
,  // measure 1
0010
0000
0010
0000
,  // measure 2
0100
0000
0000
0000
,  // measure 3
1000
0000
0010
0000
,  // measure 4
1000
0000
0000
0000
,  // measure 5
0100
0000
0100
0000
,  // measure 6
0010
0000
0000
0000
,  // measure 7
0001
0000
0100
0000
,  // measure 8
0001
0000
0000
0000
,  // measure 9
1000
0000
0010
0000
,  // measure 10
0001
0000
0001
0000
,  // measure 11
0010
0000
0100
0000
,  // measure 12
1000
0000
1000
0000
,  // measure 13
0001
0000
0100
0000
,  // measure 14
0001
0000
0001
0000
,  // measure 15
0010
0000
0001
0000
,  // measure 16
0010
0000
0100
0000
,  // measure 17
0000
0000
0000
0000
,  // measure 18
0000
0000
0000
0000
,  // measure 19
1000
0000
1000
0000
,  // measure 20
0010
0000
0010
0000
,  // measure 21
0001
0000
0001
0000
,  // measure 22
0010
0000
0010
0000
,  // measure 23
1000
0000
1000
0000
,  // measure 24
0100
0000
0100
0000
,  // measure 25
0001
0000
0001
0000
,  // measure 26
0010
0000
0010
0000
,  // measure 27
0100
0000
0000
0000
,  // measure 28
0010
0000
0000
0000
,  // measure 29
0100
0000
0000
0000
,  // measure 30
0010
0000
0000
0000
,  // measure 31
0002
0000
0003
0000
,  // measure 32
2000
0000
3000
0000
,  // measure 33
0002
0000
0003
0000
,  // measure 34
2000
0000
3000
0000
,  // measure 35
0100
0000
0000
0020
,  // measure 36
0000
0000
0030
0200
,  // measure 37
0000
0000
0300
0002
,  // measure 38
0000
0000
0003
0000
,  // measure 39
1000
0000
0000
0000
,  // measure 40
0001
0000
0000
0000
,  // measure 41
0010
0000
0000
0000
,  // measure 42
0100
0000
0000
0000
,  // measure 43
1000
0000
0000
0000
,  // measure 44
0001
0000
0000
0000
,  // measure 45
1000
0000
0000
0000
,  // measure 46
0010
0000
0000
0000
,  // measure 47
0100
0000
0000
0000
,  // measure 48
0010
0000
0000
0000
,  // measure 49
1000
0000
0000
0000
,  // measure 50
0001
0000
0000
0000
,  // measure 51
2000
0000
3000
0000
,  // measure 52
0200
0000
0300
0000
,  // measure 53
0020
0000
0030
0000
,  // measure 54
0002
0000
0003
0000
,  // measure 55
2000
0000
3000
0000
,  // measure 56
0002
0000
0003
0000
,  // measure 57
2000
0000
3000
0000
,  // measure 58
0002
0000
0003
0000
,  // measure 59
0200
0000
0000
0300
,  // measure 60
0000
0000
0100
0000
,  // measure 61
0020
0000
0000
0030
,  // measure 62
0000
0000
0010
0000
,  // measure 63
0002
0000
0000
0003
,  // measure 64
0000
0000
1000
0000
,  // measure 65
0020
0000
0000
0030
,  // measure 66
0000
0000
0100
0000
,  // measure 67
2000
0000
0000
3000
,  // measure 68
0010
0000
0100
0000
,  // measure 69
0001
0000
0010
0000
,  // measure 70
1000
0000
0001
0000
,  // measure 71
1000
0000
0001
0000
,  // measure 72
0100
0000
0010
0000
,  // measure 73
1000
0000
0001
0000
,  // measure 74
0010
0010
0010
0000
,  // measure 75
0001
0001
0001
0000
,  // measure 76
1000
1000
1000
0000
,  // measure 77
0001
0000
0001
0000
,  // measure 78
1000
0000
0001
0000
,  // measure 79
0100
0000
1001
0000
,  // measure 80
0100
0000
1001
0000
,  // measure 81
0100
0000
0010
0000
,  // measure 82
0100
0100
0100
0000
,  // measure 83
0010
0000
0100
0000
,  // measure 84
0010
0000
1001
0000
,  // measure 85
0100
0000
0001
0000
,  // measure 86
0010
0000
1001
2002
,  // measure 87
3003
0020
0030
0200
,  // measure 88
0300
0000
0010
0000
,  // measure 89
0001
0001
0000
0000
,  // measure 90
0010
0010
0000
0000
,  // measure 91
0100
0100
0000
0000
,  // measure 92
1000
0000
0001
0000
,  // measure 93
0100
0100
0000
0000
,  // measure 94
0010
0010
0000
0000
,  // measure 95
1000
0000
0001
0000
,  // measure 96
1000
1000
0000
0000
;
