#VERSION:0.83;
#TITLE:Gilgamesh's Theme;
#SUBTITLE:Battle on the Big Bridge;
#ARTIST:Nobuo Uematsu;
#TITLETRANSLIT:;
#SUBTITLETRANSLIT:;
#ARTISTTRANSLIT:Nobuo Uematsu;
#GENRE:Before The Fall;
#ORIGIN:;
#CREDIT:[Ness];
#BANNER:Final Fantasy XIV - Gilgamesh’s Theme.png;
#BACKGROUND:Final Fantasy XIV - Gilgamesh’s Theme-bg.png;
#PREVIEWVID:;
#JACKET:Final Fantasy XIV - Gilgamesh’s Theme-jacket.png;
#CDIMAGE:;
#DISCIMAGE:;
#LYRICSPATH:;
#CDTITLE:;
#MUSIC:Final Fantasy XIV - Gilgamesh’s Theme.mp3;
#OFFSET:-0.275000;
#SAMPLESTART:34.502232;
#SAMPLELENGTH:11.294117;
#SELECTABLE:YES;
#BPMS:0.000=170.000;
#STOPS:;
#DELAYS:;
#WARPS:;
#TIMESIGNATURES:0.000=3=4,
81.000=4=4;
#TICKCOUNTS:0.000=2;
#COMBOS:0.000=1;
#SPEEDS:0.000=1.000=0.000=0;
#SCROLLS:0.000=1.000;
#FAKES:;
#LABELS:0.000=Song Start;
#LASTSECONDHINT:142.542221;
#BGCHANGES:;
#KEYSOUNDS:;
#ATTACKS:
;

//---------------dance-single - ----------------
#NOTEDATA:;
#CHARTNAME:;
#STEPSTYPE:dance-single;
#DESCRIPTION:;
#CHARTSTYLE:;
#DIFFICULTY:Challenge;
#METER:10;
#RADARVALUES:0.839622,1.116174,0.614052,0.020243,0.462226,871.000000,780.000000,91.000000,3.000000,0.000000,0.000000,0.000000,0.000000,0.000000,0.839622,1.116174,0.614052,0.020243,0.462226,871.000000,780.000000,91.000000,3.000000,0.000000,0.000000,0.000000,0.000000,0.000000;
#CREDIT:;
#NOTES:
0000
0000
0000
0000
,
0000
0000
0000
0000
,
0000
0000
0000
0000
,
0000
0000
0000
0000
,
0000
0000
0000
0000
,
0000
0000
0000
0000
,
1000
0000
0100
0000
0001
0100
0001
0000
1000
0100
1000
0000
0001
0010
0001
0000
,
0010
1000
0010
0000
0100
0000
0100
0000
0001
0000
1000
0000
0010
0001
0010
0000
,
1000
0100
1000
0000
0001
0100
0001
0000
1000
0001
1000
0000
0010
0000
0010
0000
,
0100
0000
0001
0000
1000
0100
1000
0000
0001
0100
0001
0000
0010
0001
0010
0000
,
1000
0010
1000
0000
0001
0000
0001
0000
1000
0000
0100
0000
1000
0001
1000
0000
,
0001
0100
0001
0000
0010
1000
0010
0000
0100
0001
0100
0000
0001
0000
1000
0000
,
0001
0001
1100
0000
1010
0000
0010
0010
,
0101
0000
1100
0000
0100
0100
1001
0000
,
0101
0000
0000
0000
0100
0001
1000
0001
0100
0001
1000
0001
0100
0001
1000
0001
,
0100
0010
1000
0001
0100
0001
1000
0001
0100
0001
1000
0001
0100
0001
1000
0001
,
0100
0001
1000
0001
0100
0001
1000
0001
0100
0010
1000
0001
0100
0001
1000
0001
,
0100
0001
1000
0001
0100
0000
0100
0000
1010
0000
0000
0000
0011
0000
0000
0000
,
1000
1000
0101
0000
0011
0000
0001
1000
,
0101
0000
0000
0000
0110
0000
0000
0000
0001
1000
0100
0000
1010
0000
0000
0000
,
1100
0000
0100
0100
0000
0101
0010
0010
,
0000
0000
0000
1010
0000
0000
0001
0000
0000
1000
0000
0000
0001
0000
0000
1000
0000
0000
0100
0010
0001
0100
0000
0000
,
0001
1000
0100
0100
0000
1100
0010
0100
,
0101
0000
0000
0001
1000
0000
0000
1000
0001
0000
0000
0001
1000
0000
0000
1000
,
0001
0000
1000
0001
1000
0100
0001
1000
,
0010
0001
0100
0010
0001
0010
0100
0001
,
0000
0001
1000
0010
0100
0010
1000
0100
,
0000
0100
0001
0100
1000
0100
0010
0001
,
1000
0010
0100
1000
0100
0001
0100
0010
,
0100
0001
0100
1000
0100
0001
1000
0100
,
0000
0001
1000
0010
0001
1000
0100
0001
,
0000
1000
0100
0010
0001
1000
0100
0010
,
0001
0000
0010
0000
0100
0000
0000
1000
0001
0000
0100
0000
0000
0100
0010
0000
,
1000
0000
0100
0000
1000
0000
0000
1000
0010
0000
0100
0000
0001
0000
0000
0000
,
0110
0000
1001
0001
1000
0100
1000
0100
,
0001
1000
0010
0001
0010
0001
1000
0001
,
0100
0000
1000
0000
0001
0000
0000
1000
0010
0000
0100
0000
0000
0000
0001
0000
,
1000
0000
0001
0000
0010
0000
0000
0100
1000
0010
0100
0000
0000
0001
1000
0001
,
0100
0000
0100
0000
0010
0000
1000
0010
1000
0000
0100
0000
0001
0000
0100
0010
,
0100
0000
1000
0000
0001
0000
1000
0010
1000
0000
0001
0010
0100
0000
0000
0001
,
0010
0000
0100
1000
0001
0000
0000
0000
1001
0000
0100
0000
0000
0000
1000
0000
,
1001
0000
0000
0000
0010
0000
1000
0000
0001
0100
0001
0100
0001
0000
1000
0000
,
1001
0000
1010
0000
0001
1000
0000
0001
,
1010
0000
0000
0000
1000
0010
1000
0000
0001
0000
1000
0010
1000
0000
1000
0000
,
1001
0000
0011
0000
1000
0010
0001
0010
,
1000
0100
0000
0000
0001
1000
0010
0100
,
1001
0000
0000
0000
0100
0000
0000
0000
1001
0000
0100
0001
1000
0000
0100
0001
,
1000
0000
0100
0001
1000
0000
0000
0000
0100
0000
1000
0000
0010
0000
0001
0000
,
0100
0010
1000
0000
0011
0000
0010
0000
,
1100
0000
0000
0000
0001
0010
0001
1000
0010
1000
0001
0100
0001
1000
0100
1000
,
0001
0000
0000
0000
1000
0010
1000
0001
0100
0001
0100
0010
1000
0100
1000
0100
,
0010
0001
0010
0001
1000
0001
1000
0100
0010
0100
1000
0100
0010
0001
0100
0001
,
1000
0001
0100
0010
1000
0000
1000
0000
0000
0000
0110
0000
0001
0000
0001
0000
,
0000
0000
0000
0110
0000
0000
1000
0000
0000
0100
0000
0000
1000
0000
0000
0010
0000
0000
0100
0001
0010
0100
0000
0000
,
0010
0010
0002
0000
1003
2001
0000
3010
,
0110
0000
0101
1100
,
1010
0000
0011
0010
0001
0010
0011
0010
,
0001
0010
1001
0010
0001
0010
1001
0010
,
1000
0010
0011
0010
0001
0010
0011
0010
,
0001
0010
1001
0010
1000
0010
1001
0010
,
0001
0010
0100
0100
0000
1001
0010
1000
,
0000
0000
0000
1001
0000
0000
1000
0000
0000
0100
0000
0000
1000
0000
0000
0010
0000
0000
0100
0001
1000
0100
0000
0000
,
0010
0001
1000
0001
1000
0100
1000
0001
,
0100
0001
1000
0100
0010
0100
1000
0001
,
0000
1001
0001
0100
0010
0100
0001
1000
,
0000
1001
0001
0100
0010
1000
0100
1000
,
0001
0100
0010
1000
0010
0001
0010
0100
,
0001
0100
1000
0100
0010
0100
0001
1000
,
0000
1001
1000
0100
0010
0001
0100
0010
,
0000
1001
1000
0100
1000
0001
0010
0001
,
0001
1000
0000
1000
0010
0000
0000
0000
0100
0001
0100
0000
0000
0000
1000
0100
,
1000
0000
1000
0000
0001
0010
0001
0000
0010
0000
0100
0000
1000
0000
0000
0000
,
1010
0000
0000
0000
1001
0000
0000
0000
1000
0001
0100
0000
0000
0000
1000
0001
,
0100
0000
0000
0000
1000
0010
1000
0000
0000
0000
0001
1000
0010
0000
0100
0001
,
1000
0100
1100
0100
0010
0001
0000
0100
,
0101
0001
1000
0010
0110
1000
0000
0001
,
1001
0000
1000
0000
0100
0000
0010
0000
0001
0000
1000
0000
0000
0000
0010
1000
,
0010
0000
0100
0000
0001
0000
0010
0000
0100
0000
0010
0000
0000
0000
0001
1000
,
0001
0100
0110
0000
1001
0100
0000
1000
,
1001
0000
0000
0000
0010
1000
0001
0000
0100
0000
0001
1000
0001
0000
0100
0000
,
0101
0000
0100
0000
0010
0000
1000
0100
1000
0000
0001
0000
1000
0100
1000
0000
,
0001
0000
1000
0000
0010
0000
0100
0001
0100
0000
0110
0000
0000
0000
1000
0000
,
0101
0000
0001
0000
0011
0100
1000
0100
,
0010
0002
0000
0000
1003
0001
0100
0000
,
0110
0000
1100
0001
0101
1000
1100
0001
,
0101
1000
1100
0000
0001
0010
1000
0100
,
0010
0001
0100
0000
1001
0000
0100
0000
,
1001
0000
0000
0000
0001
1000
0010
0100
0001
1000
0100
0010
0001
1000
0010
0100
,
0001
0000
0000
0000
1000
0100
1000
0001
0010
0100
1000
0100
0010
0001
0100
0001
,
1000
0010
1000
0001
0100
0010
1000
0010
0100
0001
1000
0100
1000
0001
0010
0001
,
0100
0010
0100
0001
1000
0000
1000
0000
0000
0000
1001
0000
0010
0000
0001
0000
,
0000
0000
0000
1001
0000
0000
0100
0000
0000
0001
0000
0000
1000
0000
0000
0100
0000
0000
0010
0001
1000
0010
0000
0000
,
0100
0001
1001
0000
1000
1100
0000
0001
,
1001
0000
0101
0110
,
1100
0000
1001
0100
0001
0100
1001
0100
,
1000
0100
1010
1000
0010
0001
1010
1000
,
0010
0001
1001
0100
1000
0100
1001
0100
,
0001
0100
0011
0001
0010
1000
0011
0001
,
0010
1000
0100
0100
0000
1001
0010
0100
,
0000
0000
0000
1001
0000
0000
0001
0000
0000
1000
0000
0000
0100
0000
0000
0010
0000
0000
0001
0010
0100
1000
0000
0000
,
0001
0100
0001
0000
0000
0000
0000
0000
;

//---------------dance-single - ----------------
#NOTEDATA:;
#CHARTNAME:;
#STEPSTYPE:dance-single;
#DESCRIPTION:;
#CHARTSTYLE:;
#DIFFICULTY:Hard;
#METER:9;
#RADARVALUES:0.602484,0.608822,0.404869,0.141704,0.060730,625.000000,565.000000,60.000000,21.000000,0.000000,0.000000,0.000000,0.000000,0.000000,0.602484,0.608822,0.404869,0.141704,0.060730,625.000000,565.000000,60.000000,21.000000,0.000000,0.000000,0.000000,0.000000,0.000000;
#CREDIT:;
#NOTES:
0000
0000
0000
0000
,
0000
0000
0000
0000
,
0000
0000
0000
0000
,
0000
0000
0000
0000
,
0000
0000
0000
0000
,
0000
0000
0000
0000
,
1000
0010
1000
0010
1000
0100
0010
0001
,
0100
0001
0010
0000
0001
0100
0001
0100
,
0001
0010
0100
1000
0010
0100
0001
0000
,
1000
0001
1000
0001
1000
0010
0001
0010
,
1000
0100
0010
0000
0001
1000
0001
1000
,
0001
0100
1000
0100
0001
1000
0100
0000
,
1000
0001
1001
0000
0101
0000
0001
1000
,
1010
0000
1001
0000
1000
0100
1100
0000
,
0110
0000
1000
0100
1000
0100
1000
0010
,
0001
0010
0100
0001
0100
0000
0001
0010
,
0001
0010
0001
0100
1000
0100
0010
1000
,
0010
0000
1000
0001
1001
0000
0110
0000
,
0100
0010
1001
0000
0110
0000
0001
0010
,
1100
0000
0101
0000
0001
0100
1010
0000
,
0011
0000
0001
0100
0000
0100
0010
0100
,
0000
0100
0001
1000
0001
0100
0010
1000
,
0100
1000
0001
1000
0000
1000
0100
0010
,
0001
0000
0000
0000
,
0000
0000
1000
0100
0001
0100
0010
1000
,
0010
0001
1000
0100
0010
0001
1000
0200
,
0000
0300
0001
0100
0010
1000
0001
0200
,
0000
0300
1000
0010
0001
0010
1000
0000
,
0110
0000
0001
0100
1000
0100
0010
0001
,
0010
1000
0001
0100
0010
0100
0001
1000
,
0000
0000
1000
0010
0001
0010
1000
0001
,
0000
0000
1000
0100
1000
0001
0010
0100
,
1000
0000
0100
0000
0010
0000
0000
0001
1000
0000
0001
0000
0000
0000
0100
0000
,
0000
0101
0001
0000
1000
0001
0100
0000
,
1010
0000
1002
0000
0103
0000
1000
0010
,
0100
0000
2000
0000
3100
0000
0001
0010
,
0100
0000
1000
0010
1000
0002
0000
0100
,
0103
0000
0001
0010
0001
2000
0000
0100
,
3100
0000
1100
0000
0100
0010
0000
0001
,
1000
0010
0100
0000
0010
1000
0000
0001
,
0100
0010
1000
0000
1000
0001
0000
0001
,
0100
0010
0101
0010
,
1100
0000
0001
0000
1000
0100
0000
0100
,
0010
0001
1010
1000
,
0011
0000
0010
0000
0001
0100
0001
1000
,
0001
0100
0000
0000
0010
1000
0100
0000
,
1001
1100
0101
1100
,
0101
1001
0000
0000
,
0000
0010
2100
3001
,
0201
0000
0310
1000
0001
0100
0010
0100
,
0002
0000
0013
0000
1001
0020
0000
0130
,
1001
0000
0000
0000
0110
0000
0000
1000
0100
0000
0000
0100
0010
0000
0000
0001
,
0100
0000
0001
0001
0000
0001
1000
0001
,
0000
0001
0100
0010
1000
0001
1000
0100
,
1000
0001
1000
0000
0002
0010
0003
2000
,
0010
3000
0000
0000
0110
0000
0101
0000
,
1001
0000
1000
0001
1000
0001
1000
0001
,
1000
0001
0100
0001
0100
0001
0100
0001
,
0100
0001
0100
1000
0100
1000
0100
1000
,
0100
1000
0001
1000
0001
1000
0001
1000
,
0001
1000
0001
0000
0000
0001
1000
0000
,
0000
1000
0001
1000
0010
0100
0001
0000
,
0101
0000
1000
0010
0001
0010
0100
1000
,
0100
0001
1000
0001
0010
0100
1000
0100
,
0000
0000
1000
0001
1000
0010
0100
0001
,
0000
0000
1000
0100
1000
0001
0100
0010
,
1000
0001
1000
0100
0001
0100
0010
1000
,
0010
0001
1000
0001
0100
0001
1000
0100
,
0000
0000
0010
0001
1000
0001
0010
0100
,
0000
0100
1000
0010
1000
0100
0010
0001
,
0100
0000
0001
0000
0010
0000
0000
0001
1000
0000
0010
0000
0000
0000
0100
0000
,
0001
1000
0100
0000
1000
0010
0100
0000
,
0110
0000
0001
0000
1000
0100
0000
0010
,
0001
1000
0010
0000
1000
0001
0000
0100
,
0010
1000
0200
0000
0300
2002
0000
3003
,
0100
0010
0202
0000
0303
2002
0000
3003
,
1000
0100
1000
0000
0001
0100
0000
0010
,
1000
0000
0001
0000
1000
0100
0000
0010
,
0001
0000
0011
0000
0001
1000
0000
0001
,
0010
0000
0000
0000
0000
0000
0001
0000
0001
0100
0001
0000
0100
0000
0000
0000
,
0101
0000
1001
0000
1000
0100
0000
0100
,
1000
0000
0001
1000
0100
0000
0001
0000
,
1100
0000
0010
0000
0001
1000
0010
0001
,
0010
1000
0000
0000
0001
1000
0010
0000
,
1100
1001
0101
1001
,
1100
1001
0000
0000
,
0000
1000
0101
0001
,
1100
0000
0000
0000
0001
0000
0000
1000
0010
0000
0000
0100
0001
0000
0000
1000
,
0010
0000
0000
0000
0110
0000
0000
0001
0100
0000
0000
1000
0010
0000
0000
0100
,
0001
0000
0000
0000
1001
0000
0000
1000
0100
0000
0000
0100
1000
0000
0000
0001
,
0100
0000
0000
0100
0001
0000
0001
0000
0000
0000
0001
0000
1000
0000
0001
0000
,
0000
0000
0001
0000
1000
0000
0100
0000
0010
0000
0001
0000
1000
0001
1000
0000
,
0001
0100
0010
0000
0200
0001
0300
0020
,
1000
0030
0000
0000
0110
0000
1100
0000
,
0101
0000
1000
0001
1000
0001
1000
0001
,
1000
0001
1000
0010
1000
0010
1000
0010
,
1000
0010
0001
0010
0001
0010
0001
0010
,
0001
0010
0001
1000
0001
1000
0001
1000
,
0001
1000
0001
0000
0000
0001
1000
0000
,
0000
0000
1000
0000
0100
0000
0001
0000
0100
0000
0010
0000
1000
0001
1000
0000
,
0100
0010
1001
0000
0000
0000
0000
0000
;

//---------------dance-single - ----------------
#NOTEDATA:;
#CHARTNAME:;
#STEPSTYPE:dance-single;
#DESCRIPTION:;
#CHARTSTYLE:;
#DIFFICULTY:Medium;
#METER:6;
#RADARVALUES:0.456924,0.541175,0.519582,0.101217,0.000000,474.000000,397.000000,77.000000,15.000000,0.000000,0.000000,0.000000,0.000000,0.000000,0.456924,0.541175,0.519582,0.101217,0.000000,474.000000,397.000000,77.000000,15.000000,0.000000,0.000000,0.000000,0.000000,0.000000;
#CREDIT:;
#NOTES:
0000
0000
0000
0000
,
0000
0000
0000
0000
,
0000
0000
0000
0000
,
0000
0000
0000
0000
,
0000
0000
0000
0000
,
0000
0000
0000
0000
,
1001
0000
1000
0100
1000
0100
0010
0000
,
0001
0000
0100
0000
1001
0000
0001
0100
,
0001
0100
0010
0000
1000
0000
0100
0000
,
1001
0000
1000
0010
1000
0010
0100
0000
,
1000
0000
0001
0000
1001
0000
0001
0010
,
0001
0010
0100
0000
0001
0000
1000
0000
,
0100
0110
1001
0010
,
0011
1010
0100
1100
,
0101
0000
0001
0100
0001
0000
0001
0010
,
0001
0000
1000
0010
1000
0000
1000
0100
,
1000
0000
1000
0001
1000
0000
0010
0100
,
0010
1000
0101
1100
,
0100
1001
0110
1000
,
0011
1100
0100
0101
,
1010
0000
1001
0000
0000
1000
0010
0000
,
0000
0010
0100
0000
0001
0000
1000
0000
,
0100
0020
0030
1100
,
1001
0000
0000
0000
,
0000
0000
1000
0100
0001
0000
0001
0100
,
1000
0000
0110
0000
1001
0000
0010
1000
,
0100
0000
0110
0000
1001
0000
0100
0001
,
0010
0001
1000
0010
,
0100
0000
0001
0100
1000
0000
1000
0100
,
0001
0000
0101
0000
1001
0000
1000
0001
,
0100
0000
1100
0000
1001
0000
0001
1000
,
0100
1000
0010
0100
,
0001
0000
0010
0000
0000
0110
0000
0000
,
1000
0000
0001
0000
1000
0100
1000
0000
,
0001
0100
1001
0100
,
1001
0100
0010
0100
,
1001
0000
0010
0000
1000
0200
0000
0300
,
0010
0000
0001
0000
0100
0002
0000
0003
,
1000
0000
0010
0000
1000
0002
0000
0003
,
0100
0000
0001
0000
0010
0200
0000
0300
,
1000
0000
0010
0000
1000
0100
0000
1000
,
0200
0000
0300
0000
,
1001
0000
0010
0000
0001
0100
0000
0001
,
0200
0000
0300
0000
,
1001
0010
1000
0100
,
0001
0100
1000
0010
,
0100
1100
0101
1100
,
0101
1001
0000
0000
,
0000
0010
1100
0001
,
1100
0010
1000
0100
,
1001
0000
0010
0001
0100
0000
0001
0100
,
0001
0000
1000
0010
1000
0000
1000
0100
,
1000
0110
0000
0101
,
0000
0000
1000
0001
0100
0000
0010
0000
,
0100
0000
0011
0000
0000
1010
0000
0000
,
1001
0000
0100
0010
,
0100
0000
0001
1000
0001
0000
0101
0000
,
0000
0000
1000
0100
1000
0000
1010
0000
,
0000
0000
0100
0010
0100
0000
1001
0000
,
0000
0000
0010
1000
0100
0000
0101
0000
,
0000
0000
0001
0000
0000
0001
0010
0000
,
0000
0010
0100
0000
1000
0000
0001
0000
,
0100
0110
1000
0010
,
1000
0000
0001
0100
0010
1000
0001
0000
,
0000
0000
1000
0100
0010
0001
1000
0000
,
0000
0001
0010
1000
,
0100
0010
0001
0100
,
1000
0000
0001
0100
0010
1000
0001
0000
,
0000
0000
1000
0100
0010
0001
1000
0000
,
0000
0000
0001
1000
0010
0100
0001
0000
,
1100
0000
1001
0000
0000
0010
0000
0000
,
1000
0000
0001
0000
1000
0010
0100
0000
,
0010
0000
1000
0000
1000
0200
0000
0300
,
0101
0000
0100
0000
0001
0020
0000
0030
,
0011
0000
0010
0000
0001
2000
0000
3000
,
1010
0000
1000
0000
1000
0002
0000
0003
,
0101
0000
0001
0000
0001
2000
0000
3000
,
1100
0000
0100
0000
0100
0020
0000
0030
,
1001
0000
0010
0000
1000
0001
0000
1000
,
0020
0030
1001
0010
,
0100
0000
0001
0000
0010
0001
0000
1000
,
0002
0003
1001
0010
,
0100
0000
1000
0000
0100
1000
0100
0000
,
0010
0001
0100
1000
,
0100
0101
1100
0101
,
1100
1001
0000
0000
,
0000
0010
0101
1000
,
0101
0000
0010
1000
0010
0000
0001
0100
,
0001
1000
0001
0100
,
0010
1000
1100
0010
,
0110
0000
1000
0001
0000
0000
1000
0010
,
0000
0000
1000
0100
0010
0001
0100
0000
,
1001
0000
0010
0000
0000
1000
0000
0000
,
0001
0000
1000
0100
,
0010
0000
0001
0010
0001
0000
0011
0000
,
0000
0000
1000
0100
1000
0000
1100
0000
,
0000
0000
0010
0100
0010
0000
1001
0000
,
0000
0000
0100
0001
0010
0000
0011
0000
,
0000
0000
1000
0000
0000
1000
0010
0000
,
0000
0010
0100
0000
0001
0000
1000
0001
,
0100
0010
1000
0000
0000
0000
0000
0000
;

//---------------dance-single - ----------------
#NOTEDATA:;
#CHARTNAME:;
#STEPSTYPE:dance-single;
#DESCRIPTION:;
#CHARTSTYLE:;
#DIFFICULTY:Easy;
#METER:4;
#RADARVALUES:0.284372,0.338235,0.141704,0.134956,0.000000,295.000000,274.000000,21.000000,20.000000,0.000000,0.000000,0.000000,0.000000,0.000000,0.284372,0.338235,0.141704,0.134956,0.000000,295.000000,274.000000,21.000000,20.000000,0.000000,0.000000,0.000000,0.000000,0.000000;
#CREDIT:;
#NOTES:
// measure 0
0000
0000
0000
0000
,  // measure 1
0000
0000
0000
0000
,  // measure 2
0000
0000
0000
0000
,  // measure 3
0000
0000
0000
0000
,  // measure 4
0000
0000
0000
0000
,  // measure 5
0000
0000
0000
0000
,  // measure 6
1000
0100
1000
0000
,  // measure 7
0010
0000
0100
0001
,  // measure 8
0010
0000
0100
0000
,  // measure 9
1000
0001
0100
0000
,  // measure 10
0001
0000
0010
0001
,  // measure 11
1000
0000
0010
0000
,  // measure 12
0100
0001
0010
0000
,  // measure 13
1000
0010
0000
0001
,  // measure 14
0100
1000
0100
0001
,  // measure 15
0100
1000
0000
1000
,  // measure 16
0100
0001
0100
1000
,  // measure 17
0000
1000
0001
0100
,  // measure 18
0000
1000
0010
0000
,  // measure 19
0001
0010
0000
1000
,  // measure 20
0100
0010
0000
1001
,  // measure 21
0000
0100
0001
0010
,  // measure 22
0100
1000
0000
0001
,  // measure 23
0100
0000
0000
0000
,  // measure 24
0000
0010
1000
0010
,  // measure 25
1000
0100
0010
0100
,  // measure 26
0000
1000
0001
0100
,  // measure 27
0000
0001
0010
0100
,  // measure 28
1000
0001
1000
0001
,  // measure 29
1000
0001
0010
0100
,  // measure 30
0000
1000
0010
0100
,  // measure 31
0000
0001
1000
0100
,  // measure 32
0010
0002
0000
0013
,  // measure 33
0000
1000
0100
0010
,  // measure 34
0001
2000
0000
3100
,  // measure 35
0000
0001
1000
0010
,  // measure 36
0100
0002
0000
0013
,  // measure 37
0000
2000
0000
3010
,  // measure 38
0000
0002
0000
0103
,  // measure 39
0000
2000
0000
3100
,  // measure 40
0000
0010
0001
0100
,  // measure 41
1000
0000
0001
0000
,  // measure 42
1000
0010
1000
0100
,  // measure 43
0001
0000
1000
0000
,  // measure 44
0001
0010
0001
0010
,  // measure 45
0100
0000
1000
0100
,  // measure 46
0010
0001
0001
1000
,  // measure 47
1000
1001
0000
0000
,  // measure 48
0000
0000
1001
0000
,  // measure 49
0110
0000
1100
0000
,  // measure 50
0101
0100
0001
0010
,  // measure 51
0100
1000
1000
0001
,  // measure 52
0001
0100
0000
0010
,  // measure 53
0000
1000
0001
0100
,  // measure 54
0010
1000
0000
0100
,  // measure 55
0000
0010
0001
0100
,  // measure 56
0000
0102
0000
0013
,  // measure 57
0000
2100
0000
3001
,  // measure 58
0000
2100
0000
3010
,  // measure 59
0000
0102
0000
1003
,  // measure 60
0000
0001
0000
1000
,  // measure 61
0000
0010
0100
0001
,  // measure 62
1000
0100
0010
0001
,  // measure 63
0100
0001
1000
0100
,  // measure 64
0000
1000
0010
0100
,  // measure 65
0000
0001
1000
0010
,  // measure 66
0010
1000
0001
1000
,  // measure 67
0001
1000
0100
0001
,  // measure 68
0000
0001
0100
1000
,  // measure 69
0000
1000
0001
0100
,  // measure 70
0010
2000
0000
3001
,  // measure 71
0000
0010
0001
1000
,  // measure 72
0100
0002
0000
0103
,  // measure 73
0000
1000
0001
0100
,  // measure 74
0010
2000
0000
0010
,  // measure 75
3010
0002
0000
0100
,  // measure 76
0103
2000
0000
0100
,  // measure 77
3100
0002
0000
0010
,  // measure 78
0013
0100
1000
0001
,  // measure 79
1001
0000
1000
0000
,  // measure 80
0001
0100
0001
0010
,  // measure 81
0110
0000
0001
0000
,  // measure 82
1000
0100
1000
0100
,  // measure 83
0010
0000
0001
0010
,  // measure 84
0100
1000
1000
0001
,  // measure 85
0001
1001
0000
0000
,  // measure 86
0000
0000
1100
0000
,  // measure 87
1001
0000
0011
0000
,  // measure 88
1001
0001
1000
0010
,  // measure 89
0100
0001
0001
1000
,  // measure 90
1000
0010
0000
0100
,  // measure 91
0000
0001
1000
0010
,  // measure 92
0100
0001
0000
0010
,  // measure 93
0000
0100
1000
0010
,  // measure 94
0000
2010
0000
3100
,  // measure 95
0000
0102
0000
0013
,  // measure 96
0000
2100
0000
3010
,  // measure 97
0000
0012
0000
0103
,  // measure 98
0000
1000
0000
0001
,  // measure 99
0000
0100
0010
1000
,  // measure 100
0001
0100
0000
0000
;

//---------------dance-single - ----------------
#NOTEDATA:;
#CHARTNAME:;
#STEPSTYPE:dance-single;
#DESCRIPTION:;
#CHARTSTYLE:;
#DIFFICULTY:Beginner;
#METER:2;
#RADARVALUES:0.191831,0.304411,0.094469,0.000000,0.000000,199.000000,185.000000,14.000000,0.000000,0.000000,0.000000,0.000000,0.000000,0.000000,0.191831,0.304411,0.094469,0.000000,0.000000,199.000000,185.000000,14.000000,0.000000,0.000000,0.000000,0.000000,0.000000,0.000000;
#CREDIT:;
#NOTES:
// measure 0
0000
0000
0000
0000
,  // measure 1
0000
0000
0000
0000
,  // measure 2
0000
0000
0000
0000
,  // measure 3
0000
0000
0000
0000
,  // measure 4
0000
0000
0000
0000
,  // measure 5
0000
0000
0000
0000
,  // measure 6
1000
0000
1000
0000
,  // measure 7
1000
0000
0100
0000
,  // measure 8
0100
0000
0100
0000
,  // measure 9
0010
0000
0010
0000
,  // measure 10
0010
0000
0001
0000
,  // measure 11
0001
0000
0001
0000
,  // measure 12
0000
0100
0100
0000
,  // measure 13
0100
0100
0000
0100
,  // measure 14
0100
0000
0000
0010
,  // measure 15
0000
0010
0000
1000
,  // measure 16
0000
1000
0000
1000
,  // measure 17
0000
0000
0001
0001
,  // measure 18
0000
0010
0010
0000
,  // measure 19
0100
0100
0000
1000
,  // measure 20
1000
1000
0000
1000
,  // measure 21
0000
0001
0000
0001
,  // measure 22
0000
0100
0000
0100
,  // measure 23
0100
0000
0000
0000
,  // measure 24
0000
0001
0000
0010
,  // measure 25
0000
0100
0000
0100
,  // measure 26
0000
1000
0000
1000
,  // measure 27
0000
0001
0000
1000
,  // measure 28
0000
0001
0000
0100
,  // measure 29
0000
1000
0000
0010
,  // measure 30
0000
0100
0000
0001
,  // measure 31
0000
0100
0000
1000
,  // measure 32
0000
0010
0000
0000
,  // measure 33
0000
0000
1000
1000
,  // measure 34
0000
0100
0000
0010
,  // measure 35
0000
0001
0000
0010
,  // measure 36
0000
0100
0000
1000
,  // measure 37
0000
0001
0000
0100
,  // measure 38
0000
0001
0000
0010
,  // measure 39
0000
0100
0000
1000
,  // measure 40
0000
0010
0000
1000
,  // measure 41
0000
0100
0000
0100
,  // measure 42
0000
1000
0000
0001
,  // measure 43
0000
0100
0000
0100
,  // measure 44
0000
0001
0000
0010
,  // measure 45
0000
0100
0000
1000
,  // measure 46
0000
0010
0000
0010
,  // measure 47
0000
0110
0000
0000
,  // measure 48
0000
0000
1001
0000
,  // measure 49
1001
0000
0110
0000
,  // measure 50
0110
0000
1000
0000
,  // measure 51
1000
1000
0000
0001
,  // measure 52
0000
0100
0000
0100
,  // measure 53
0000
0010
0000
0010
,  // measure 54
0000
1000
0000
1000
,  // measure 55
0000
0000
0001
0001
,  // measure 56
0000
0001
0000
1001
,  // measure 57
0000
0000
0000
1001
,  // measure 58
0000
0010
0000
1001
,  // measure 59
0000
0000
0000
1001
,  // measure 60
0000
0100
0000
0100
,  // measure 61
0000
0010
0000
0010
,  // measure 62
0000
1000
0000
1000
,  // measure 63
0000
0001
0000
0001
,  // measure 64
0000
1000
0000
0100
,  // measure 65
0000
0010
0000
0001
,  // measure 66
0000
1000
0000
1000
,  // measure 67
0000
0001
0000
0001
,  // measure 68
0000
0001
0000
0100
,  // measure 69
0000
0010
0000
1000
,  // measure 70
0000
0001
0000
0000
,  // measure 71
0000
0000
0010
0010
,  // measure 72
0000
0100
0000
1000
,  // measure 73
0000
0001
0000
0100
,  // measure 74
0000
0010
0000
0010
,  // measure 75
0000
1000
0000
1000
,  // measure 76
0000
0001
0000
0001
,  // measure 77
0000
1000
0000
1000
,  // measure 78
0000
0100
0000
0100
,  // measure 79
0000
0100
0000
0100
,  // measure 80
0000
0010
0000
0010
,  // measure 81
0000
0010
0000
0010
,  // measure 82
0000
0001
0000
1000
,  // measure 83
0000
0010
0000
0100
,  // measure 84
0000
0001
0000
1000
,  // measure 85
0000
1001
0000
0000
,  // measure 86
0000
0000
1001
0000
,  // measure 87
1001
0000
0110
0000
,  // measure 88
0110
0000
0001
0000
,  // measure 89
0001
0001
0000
0010
,  // measure 90
0000
1000
0000
0100
,  // measure 91
0000
0010
0010
0010
,  // measure 92
0000
0001
0000
0001
,  // measure 93
0000
1000
0000
0000
,  // measure 94
0000
0100
0000
0100
,  // measure 95
0000
0010
0000
0010
,  // measure 96
0000
1000
0000
1000
,  // measure 97
0000
0001
0000
0001
,  // measure 98
0000
0010
0000
0010
,  // measure 99
0000
0100
0000
0100
,  // measure 100
0000
0010
0000
0000
;
