#TITLE:Gates of the Moon;
#SUBTITLE:Doma Castle;
#ARTIST:Masayoshi Soken;
#TITLETRANSLIT:;
#SUBTITLETRANSLIT:;
#ARTISTTRANSLIT:;
#GENRE:Stormblood;
#CREDIT:;
#BANNER:Final Fantasy XIV - Gates of the Moon.png;
#BACKGROUND:Final Fantasy XIV - Gates of the Moon-bg.png;
#LYRICSPATH:;
#CDTITLE:;
#MUSIC:Final Fantasy XIV - Gates of the Moon.mp3;
#OFFSET:-0.037000;
#SAMPLESTART:14.881102;
#SAMPLELENGTH:14.883720;
#LASTBEATHINT:228.000000;
#SELECTABLE:YES;
#BPMS:0.000000=129.000000
;
#STOPS:
;
#BGCHANGES:;
#KEYSOUNDS:;
#ATTACKS:;

//---------------dance-single - ----------------
#NOTES:
     dance-single:
     [Ness]:
     Challenge:
     9:
     0.551335,0.526518,0.367130,0.286541,0.465629,431.000000,390.000000,41.000000,32.000000,0.000000,0.000000,0.551335,0.526518,0.367130,0.286541,0.465629,431.000000,390.000000,41.000000,32.000000,0.000000,0.000000:
0000
0000
0000
0000
,
0000
0000
0000
0000
,
0000
0000
0000
0000
,
0000
0000
0000
0000
,
0001
0010
0000
0010
1000
0000
1000
0010
0000
0010
0001
0000
0001
0000
1000
0000
,
0100
0001
0000
0001
0100
0000
0100
1000
0000
1000
0010
0000
1000
0000
0100
0000
,
0010
1000
0000
1000
0010
0000
0010
0001
0000
0001
0010
0000
1000
0000
0001
0000
,
1000
0100
0000
0100
0010
0000
0010
0001
0000
0001
1000
0000
0010
0000
0000
0000
,
0100
1000
0000
1000
0010
0000
0100
0001
0000
0001
0010
0000
0001
0000
1000
0000
,
0010
1000
0000
1000
0001
0000
0010
0001
0000
0001
1000
0000
0010
0000
0100
0000
,
0010
1000
0000
1000
0100
0000
0010
0001
0000
0001
0100
0000
0010
0000
1000
0000
,
0100
0001
0000
0001
0100
0000
1000
0010
0000
0010
1000
0000
0100
0000
0010
0000
,
0001
1000
0000
1000
0010
0000
0001
1000
0000
1000
0100
0000
0010
0000
0001
0000
,
1000
0001
0000
0001
0100
0000
1000
0001
0000
0001
0100
0000
0010
0000
1000
0000
,
0100
0010
0000
0010
0001
0000
1000
0010
0000
0010
0100
0000
0001
0000
1000
0000
,
0001
0100
0000
0100
0010
0000
1000
0100
0000
0100
0010
0000
0001
0000
1000
0000
,
0100
0000
0000
0101
0000
0000
1001
0000
0000
1100
0000
0000
0110
0000
0000
0000
,
0010
0000
0000
0011
0000
0000
1010
0000
0000
0101
0000
0000
1001
0000
0000
0000
,
1000
0000
0000
1100
0000
0000
1001
0000
0000
1010
0000
0000
1001
0000
0000
0000
,
0001
0000
0000
0011
0000
0000
1001
0000
0000
0101
0000
0000
1001
0000
0000
0000
,
0100
0000
0002
0100
0003
0000
2010
0000
3000
0100
0001
0000
1000
0000
0001
0000
,
1000
0000
0020
0100
0030
0000
1002
0000
0003
0100
0010
0000
1000
0000
0100
0000
,
0010
0000
0200
0001
0300
0000
1020
0000
0030
0100
0001
0000
1000
0000
0100
0000
,
0010
0000
2000
0010
3000
0000
0102
0000
0003
0010
1000
0000
0001
0000
1000
0000
,
0100
0000
0000
0100
1000
0000
0000
1000
0010
0000
0100
0000
0000
0000
0001
0000
,
0000
1000
0000
0100
0000
0010
0100
0000
,
0011
0000
0000
1000
0010
0000
0000
0010
1000
0000
0001
0000
0100
0000
0010
0000
,
0000
1000
0000
0100
0000
0001
1000
0000
,
0101
0000
0000
0001
1000
0000
0000
1000
0100
0000
0010
0000
0000
0000
0001
0000
,
0000
1000
0000
0010
0000
0100
0010
0000
,
1001
0000
0000
1000
0001
0000
0000
0001
0010
0000
0001
0000
1000
0000
0010
0000
,
0000
0100
0000
0010
0000
1000
0100
0000
,
1000
0010
0001
0020
0000
0100
0000
1030
,
0100
0000
0001
0000
0100
0010
0200
0000
0000
0000
1300
0000
0010
1000
0010
0000
,
1000
0100
0010
0002
0000
1000
0000
0013
,
0100
0000
0001
0000
1000
0100
2000
0000
0000
0000
3001
0000
0001
0010
0001
0000
,
1000
0010
1000
0200
0000
0010
0000
1300
,
0100
0000
0010
0000
0001
1000
0002
0000
0000
0000
1003
0000
0010
1000
0010
0000
,
0100
0001
1000
0002
0000
0010
0000
0103
,
0010
0000
1000
0000
0100
0010
0200
0000
0000
0000
1300
0000
0001
1000
0001
0000
,
0010
0000
2000
0010
3000
0000
0102
0000
0003
0010
1000
0000
0001
0000
1000
0000
,
0001
0000
0200
0010
0300
0000
2001
0000
3000
0010
0100
0000
0001
0000
0010
0000
,
0100
0000
0020
1000
0030
0000
0201
0000
0300
0010
1000
0000
0001
0000
0010
0000
,
0100
0000
0002
0100
0003
0000
2010
0000
3000
0100
0001
0000
1000
0000
0001
0000
,
0001
0000
0020
0001
0030
0000
1200
0000
0300
0001
0010
0000
0100
0000
0010
0000
,
0100
0000
2000
0001
3000
0000
0120
0000
0030
0001
1000
0000
0100
0000
0001
0000
,
1000
0000
0002
0010
0003
0000
2100
0000
3000
0001
0010
0000
0100
0000
0001
0000
,
1000
0000
0200
1000
0300
0000
0021
0000
0030
1000
0100
0000
0010
0000
0100
0000
,
0010
0000
0000
0010
0001
0000
0000
0001
1000
0000
0010
0000
1000
0000
0100
0000
,
0000
0101
0000
1100
0000
0001
1000
0001
,
0010
0000
0000
0010
0100
0000
0000
0100
1000
0000
0010
0000
1000
0000
0001
0000
,
0000
0110
0000
1001
0000
1000
0001
0000
,
1000
0000
0000
1000
0100
0000
0000
0100
0010
0000
0001
0000
1000
0000
0010
0000
,
0000
1001
0000
0110
0000
1000
0001
0000
,
0010
0000
0000
0010
0001
0000
0000
0001
1000
0000
0010
0000
0100
0000
0001
0000
,
0000
1100
0000
0101
0000
0000
0110
0000
,
1001
0000
0000
0000
;

//---------------dance-single - ----------------
#NOTES:
     dance-single:
     [Ness]:
     Hard:
     7:
     0.411902,0.501446,0.447720,0.304449,0.179088,322.000000,272.000000,50.000000,34.000000,0.000000,0.000000,0.411902,0.501446,0.447720,0.304449,0.179088,322.000000,272.000000,50.000000,34.000000,0.000000,0.000000:
0000
0000
0000
0000
,
0000
0000
0000
0000
,
0000
0000
0000
0000
,
0000
0000
0000
0000
,
0001
0000
0000
0010
0000
0000
1000
0000
0000
0010
0000
0000
0001
0000
1000
0000
,
0100
0000
0000
0001
0000
0000
0100
0000
0000
1000
0000
0000
0010
0000
0100
0000
,
0010
0000
0000
1000
0000
0000
0010
0000
0000
0001
0000
0000
0010
0000
1000
0000
,
0001
0000
0000
0100
0000
0000
0010
0000
0000
1000
0000
0000
0100
0000
0000
0000
,
0100
0000
0000
1000
0000
0000
0010
0000
0000
0100
0000
0000
0001
0000
1000
0000
,
0010
0000
0000
1000
0000
0000
0001
0000
0000
0010
0000
0000
0100
0000
1000
0000
,
0010
0000
0000
1000
0000
0000
0001
0000
0000
0100
0000
0000
0010
0000
1000
0000
,
0100
0000
0000
0001
0000
0000
0100
0000
0000
1000
0000
0000
0010
0000
0100
0000
,
0001
0000
0000
1000
0000
0000
0010
0000
0000
0100
0000
0000
0001
0000
1000
0000
,
0100
0000
0000
0001
0000
0000
0100
0000
0000
1000
0000
0000
0010
0000
1000
0000
,
0100
0000
0000
0001
0000
0000
1000
0000
0000
0010
0000
0000
0100
0000
0001
0000
,
0010
0000
0000
0100
0000
0000
1000
0000
0000
0010
0000
0000
0100
0000
0001
0000
,
1000
0000
0000
0101
0000
0000
1001
0000
0000
1100
0000
0000
0110
0000
0000
0000
,
0010
0000
0000
0011
0000
0000
1010
0000
0000
0101
0000
0000
1001
0000
0000
0000
,
1000
0000
0000
1100
0000
0000
1001
0000
0000
1010
0000
0000
1001
0000
0000
0000
,
0001
0000
0000
0011
0000
0000
1001
0000
0000
0101
0000
0000
1001
0000
0000
0000
,
0001
0000
0000
1010
0000
0000
1001
0000
0000
0011
0000
0000
0110
0000
0000
0000
,
0100
0000
0000
1100
0000
0000
0101
0000
0000
1010
0000
0000
1001
0000
0000
0000
,
0001
0000
0000
0011
0000
0000
1001
0000
0000
0101
0000
0000
1001
0000
0000
0000
,
1000
0000
0000
1100
0000
0000
1001
0000
0000
1010
0000
0000
1001
0000
0001
0000
,
0200
0000
0310
0000
1000
0100
0000
1001
,
0000
0100
0000
0100
0000
0001
0100
0000
,
0021
0000
0230
0000
1300
0001
0000
0010
,
0000
0110
0000
2002
0000
0000
3003
0000
,
0102
0000
2003
0000
3100
0010
0000
1001
,
0000
1000
0000
0010
0000
0100
0010
0000
,
2001
0000
3002
0000
0013
0001
0000
0100
,
0000
0110
0000
2002
0000
0000
3003
0000
,
1000
0010
0200
0000
0001
0000
1000
0000
,
0310
0100
0001
0000
1000
0010
0110
0000
,
1000
0100
0010
0002
0000
0000
1000
0003
,
0010
0100
0001
1000
0100
0010
0100
0000
,
1000
0001
0200
0000
1000
0000
0001
0000
,
0310
1000
0010
0000
0100
0001
0010
0000
,
0100
1000
0001
0200
0000
0000
0310
0000
,
1000
0001
0010
0000
0100
1000
0001
0000
,
0100
0001
0100
0020
0000
1030
0001
0000
,
1000
0010
0100
0002
0000
1003
0100
0000
,
0010
0100
1000
0020
0000
0130
0010
0000
,
1000
0001
0100
0020
0000
1030
0100
0000
,
0010
0001
1000
0020
0000
0130
0001
0000
,
1000
0100
0010
0200
0000
1300
0001
0000
,
0100
0010
0100
0002
0000
0013
0100
0000
,
1000
0100
0010
0002
0000
1003
0010
0000
,
0210
0000
0302
0000
1003
0010
1000
0100
,
0000
0010
0000
0001
0000
1000
0001
0000
,
0021
0000
0230
0000
1300
0010
0000
0100
,
0000
0110
0000
2002
0000
0000
3003
0000
,
1200
0000
2300
0000
3010
0100
0000
0001
,
0000
1000
0000
0010
0000
0100
0001
0000
,
0021
0000
0032
0000
1003
0010
0000
0100
,
0000
0110
0000
1001
0000
0000
0020
0000
,
1030
0000
0000
0000
;

//---------------dance-single - ----------------
#NOTES:
     dance-single:
     [Ness]:
     Medium:
     5:
     0.312125,0.351012,0.026863,0.044772,0.000000,244.000000,241.000000,3.000000,5.000000,0.000000,0.000000,0.312125,0.351012,0.026863,0.044772,0.000000,244.000000,241.000000,3.000000,5.000000,0.000000,0.000000:
0000
0000
0000
0000
,
0000
0000
0000
0000
,
0000
0000
0000
0000
,
0000
0000
0000
0000
,
1000
0100
1000
0001
,
0010
0001
0010
0100
,
1000
0100
1000
0001
,
0010
0100
0010
0000
,
0001
0000
0100
0000
1000
0000
0010
1000
,
0010
0100
0001
1000
,
0001
0010
0001
0100
0010
0000
0100
0000
,
0010
1000
0001
0010
,
0010
0010
0100
0000
1000
0000
0001
0000
,
0100
0010
0100
0000
0001
0000
1000
0000
,
0010
0100
0010
0000
1000
0000
0001
0000
,
0010
0100
1000
0001
,
0010
0000
0100
0000
1000
0000
0001
0100
,
0001
0010
0100
1000
,
0001
0100
0001
1000
0100
0000
0010
0000
,
0100
1000
0001
0100
,
0001
0001
1000
0000
0010
0000
0100
0000
,
0001
0010
0100
1000
,
0010
1000
0010
0000
0100
0000
0001
0000
,
0010
0100
0010
0001
,
1000
0100
2000
0000
,
3010
0000
0100
0000
0100
0001
0100
0000
,
0010
1000
0002
0003
,
0010
0000
0100
0000
1000
0100
1000
0000
,
0001
0010
0200
0300
,
1000
0000
0010
0000
0100
0001
0100
0000
,
0010
1000
0200
0300
,
0010
0001
2000
3000
,
1001
0001
1000
0010
,
1000
0100
0001
0000
1000
0100
0001
0000
,
0010
0100
1000
0010
,
0100
0001
0010
0000
0100
0001
0010
0000
,
0100
1000
0010
0100
,
0001
0010
1000
0000
0001
0010
1000
0000
,
0100
0010
0001
0100
,
0001
0100
1000
0000
0001
0100
1000
0000
,
0010
0100
0010
1000
,
0001
0010
1000
0000
1000
0010
0001
0000
,
0010
1000
0010
0100
0001
0000
0001
0000
,
1000
0100
0001
0000
1000
0100
0001
0000
,
1000
0100
0010
0100
1000
0000
1000
0000
,
0010
1000
0001
0000
0010
1000
0001
0000
,
0010
0100
1000
0100
0010
0000
0001
0000
,
1000
0100
0001
0000
1000
0100
0001
0000
,
1100
0100
0010
0001
,
0100
0000
0100
0000
0010
0100
0010
0000
,
1000
0001
0010
0100
,
0000
1000
0000
1000
0000
0001
1000
0000
,
0010
0100
0001
0010
,
0100
0000
1000
0000
0001
1000
0001
0000
,
0010
0100
1000
0010
,
0000
0100
0000
0100
0000
0001
1000
0000
,
1001
0000
0000
0000
;

//---------------dance-single - ----------------
#NOTES:
     dance-single:
     [Ness]:
     Easy:
     3:
     0.220022,0.225651,0.017909,0.241769,0.000000,172.000000,170.000000,2.000000,27.000000,0.000000,0.000000,0.220022,0.225651,0.017909,0.241769,0.000000,172.000000,170.000000,2.000000,27.000000,0.000000,0.000000:
// measure 0
0000
0000
0000
0000
,  // measure 1
0000
0000
0000
0000
,  // measure 2
0000
0000
0000
0000
,  // measure 3
0000
0000
0000
0000
,  // measure 4
2000
0000
0000
3001
,  // measure 5
0200
0000
0000
0301
,  // measure 6
0020
0000
0000
0130
,  // measure 7
0002
0000
0000
1003
,  // measure 8
0001
0010
0000
2000
,  // measure 9
0010
3001
0000
2000
,  // measure 10
0100
3001
0000
2000
,  // measure 11
0010
3001
0000
0002
,  // measure 12
0010
1003
0000
0002
,  // measure 13
0100
1003
0000
0002
,  // measure 14
0010
1003
0000
0002
,  // measure 15
0100
1003
0000
0020
,  // measure 16
1000
0130
0000
0200
,  // measure 17
0001
0310
0000
2000
,  // measure 18
0100
3001
0000
0002
,  // measure 19
0010
1003
0000
0020
,  // measure 20
1000
0130
0000
2000
,  // measure 21
0100
3001
0000
2000
,  // measure 22
0010
3001
0000
0200
,  // measure 23
1000
0310
0000
0000
,  // measure 24
0001
0100
1000
0100
,  // measure 25
0001
0001
1000
0000
,  // measure 26
1000
0100
0001
0100
,  // measure 27
1000
1000
0001
0000
,  // measure 28
1000
0010
0001
0010
,  // measure 29
0100
0100
0001
0000
,  // measure 30
0001
0010
1000
0010
,  // measure 31
0001
0000
0000
0000
,  // measure 32
1001
0100
2000
3100
,  // measure 33
0000
0010
0002
0013
,  // measure 34
0000
0001
0200
0301
,  // measure 35
0000
1000
0020
1030
,  // measure 36
0001
0010
0200
1300
,  // measure 37
1000
0010
2000
3001
,  // measure 38
0010
0001
0200
0310
,  // measure 39
1000
0001
0200
1300
,  // measure 40
0010
1000
0001
0010
,  // measure 41
1000
0010
0001
1000
,  // measure 42
0100
0001
1000
0010
,  // measure 43
0001
1000
0100
0001
,  // measure 44
0010
1000
0001
0100
,  // measure 45
1000
0001
0010
1000
,  // measure 46
0100
0001
1000
0010
,  // measure 47
0001
1000
0100
0001
,  // measure 48
1000
1000
0010
0100
,  // measure 49
0001
1000
0100
0000
,  // measure 50
0010
0010
0001
1000
,  // measure 51
0010
0100
0010
0000
,  // measure 52
1000
0001
0010
0100
,  // measure 53
1000
0100
0010
0000
,  // measure 54
0001
1000
0010
0100
,  // measure 55
0001
0000
0000
1000
,  // measure 56
1001
0000
0000
0000
;

//---------------dance-single - ----------------
#NOTES:
     dance-single:
     [Ness]:
     Beginner:
     1:
     0.139433,0.150434,0.017909,0.000000,0.000000,109.000000,107.000000,2.000000,0.000000,0.000000,0.000000,0.139433,0.150434,0.017909,0.000000,0.000000,109.000000,107.000000,2.000000,0.000000,0.000000,0.000000:
// measure 0
0000
0000
0000
0000
,  // measure 1
0000
0000
0000
0000
,  // measure 2
0000
0000
0000
0000
,  // measure 3
0000
0000
0000
0000
,  // measure 4
1000
0000
0000
0000
,  // measure 5
0010
0000
0000
0000
,  // measure 6
0100
0000
0000
0000
,  // measure 7
0001
0000
0000
0000
,  // measure 8
0010
0000
0100
0000
,  // measure 9
1000
0000
0001
0000
,  // measure 10
0100
0000
0010
0000
,  // measure 11
1000
0000
0100
0000
,  // measure 12
0010
0000
0001
0000
,  // measure 13
1000
0000
0010
0000
,  // measure 14
0100
0000
0001
0000
,  // measure 15
0010
0000
0100
0000
,  // measure 16
1000
0000
0001
0000
,  // measure 17
0100
0000
0010
0000
,  // measure 18
1000
0000
0001
0000
,  // measure 19
0010
0000
0001
0000
,  // measure 20
1000
0000
0100
0000
,  // measure 21
0010
0000
0100
0000
,  // measure 22
1000
0000
0010
0000
,  // measure 23
0001
0000
0010
0000
,  // measure 24
1000
1000
1000
1000
,  // measure 25
0000
0100
0000
0000
,  // measure 26
0001
0001
0001
0001
,  // measure 27
0000
0100
0000
0000
,  // measure 28
1000
1000
1000
1000
,  // measure 29
0000
0010
0000
0000
,  // measure 30
0001
0001
0001
0001
,  // measure 31
0000
0000
0000
0000
,  // measure 32
1001
0000
0010
0000
,  // measure 33
0000
1000
0000
0001
,  // measure 34
0001
0000
0100
0000
,  // measure 35
0000
0010
0000
0100
,  // measure 36
0100
0000
0001
0000
,  // measure 37
0000
1000
0000
0001
,  // measure 38
0001
0000
0010
0000
,  // measure 39
0000
0100
0000
1000
,  // measure 40
1000
0000
0100
0000
,  // measure 41
0001
0000
0100
0000
,  // measure 42
1000
0000
0010
0000
,  // measure 43
0001
0000
0010
0000
,  // measure 44
1000
0000
0100
0000
,  // measure 45
0010
0000
0001
0000
,  // measure 46
1000
0000
0001
0000
,  // measure 47
0100
0000
0010
0000
,  // measure 48
1000
1000
1000
1000
,  // measure 49
0000
0001
0000
0000
,  // measure 50
0010
0010
0010
0010
,  // measure 51
0000
0100
0000
0000
,  // measure 52
1000
1000
1000
1000
,  // measure 53
0000
0100
0000
0000
,  // measure 54
0010
0010
0010
0010
,  // measure 55
0000
0000
0000
0000
,  // measure 56
1001
0000
0000
0000
;
