#TITLE:Forged in Crimson;
#SUBTITLE:Mount Ordeals;
#ARTIST:Kenichi Maeyamada;
#TITLETRANSLIT:;
#SUBTITLETRANSLIT:;
#ARTISTTRANSLIT:;
#GENRE:Endwalker;
#CREDIT:[Ness];
#BANNER:Final Fantasy XIV - Forged in Crimson.png;
#BACKGROUND:Final Fantasy XIV - Forged in Crimson-bg.png;
#LYRICSPATH:Final Fantasy XIV - Forged in Crimson.lrc;
#CDTITLE:;
#MUSIC:Final Fantasy XIV - Forged in Crimson.mp3;
#OFFSET:-0.015000;
#SAMPLESTART:23.653997;
#SAMPLELENGTH:12.176470;
#LASTBEATHINT:334.000000;
#SELECTABLE:YES;
#BPMS:0.000000=170.000000
;
#STOPS:101.500000=1.235000,
104.500000=0.176000,
139.500000=2.118000
;
#BGCHANGES:;
#KEYSOUNDS:;
#ATTACKS:;

//---------------dance-single - ----------------
#NOTES:
     dance-single:
     :
     Challenge:
     10:
     0.803346,0.924016,0.599284,0.147769,0.558237,685.000000,612.000000,73.000000,18.000000,32.000000,0.000000,0.803346,0.924016,0.599284,0.147769,0.558237,685.000000,612.000000,73.000000,18.000000,32.000000,0.000000:
0000
0000
0000
0000
,
0000
0000
0000
0000
,
0000
0000
0000
0000
,
0000
0000
0000
0000
,
0000
0000
0000
0000
0000
0000
0000
0000
0000
0000
0000
0000
1000
0100
0010
0001
,
1000
0001
0101
0101
0010
0000
1000
0001
,
1000
0000
1010
0100
0000
0011
0100
0010
,
0001
0010
0100
0000
1001
1001
0010
0000
,
0101
0000
1000
0000
0010
1000
0100
0010
0001
1000
0010
0100
0001
0000
1000
0010
,
1000
0000
0001
0010
0001
0000
1000
0001
1000
0000
1010
0000
0000
0000
0100
0001
,
0100
0000
0001
0010
0001
0000
1000
0001
1000
0000
0101
0000
0000
0000
1000
0100
,
1000
0000
0001
0010
0001
0000
1000
0001
1000
0000
1100
0000
0000
0000
1000
0001
,
1000
0000
0001
0100
0001
0000
0010
0001
0010
0000
0100
0000
1100
0000
1000
0010
,
1000
0000
0001
0100
0001
0000
0010
0001
0010
0000
0110
0000
0000
0000
0001
1000
,
0001
0000
0100
0001
0100
0000
0010
1000
0010
0000
1100
0000
0000
0000
1000
0001
,
1000
0000
0100
1000
0100
0000
0010
0001
0010
0000
0001
0000
0100
0000
0010
0000
,
1000
0100
0001
0100
1001
0000
0100
1000
,
0101
0000
0100
1000
0101
0000
0100
1000
,
0001
0100
0010
0001
0010
1000
0001
0000
,
0011
1000
0100
0010
1100
0000
0010
0001
,
1010
0000
0010
0001
1010
0000
0100
0001
,
1000
0100
0010
1000
0010
0001
1000
0000
,
1010
0000
0101
1000
0010
0100
1010
0000
,
1001
0010
0000
0011
0100
0000
0001
1100
,
0000
1000
0110
0001
1100
0010
1001
0100
,
1001
0110
1001
0110
1000
0001
1000
0001
,
0100
0000
0000
0000
0001
0000
1000
0010
0100
0000
0000
0100
0001
0000
1000
0010
,
0100
0000
0000
0100
0001
0000
1000
0010
0100
0000
0001
1000
0010
0000
0100
0001
,
0010
0000
0100
1000
0001
0000
0000
1000
0100
0000
0010
0001
1000
0000
0010
0001
,
1000
0000
0000
0001
0100
0000
0010
1000
0100
0000
0000
0001
0100
0000
0010
1000
,
0100
0000
0000
0001
0100
0000
0001
1000
0010
0000
0100
0001
1000
0000
0001
0010
,
0100
0000
1000
0010
0100
0000
0000
0100
0001
0000
0000
0001
1000
0000
0100
0010
,
0001
0000
0010
0100
1000
0000
0000
0000
1000
0001
0010
0000
0000
0000
0100
0010
,
1000
0000
0000
0000
0100
0001
0010
0000
0000
0000
0010
1000
0001
0000
0010
0100
,
1000
0000
0001
0010
0100
0000
1000
0001
0100
0000
0010
1000
0100
0000
0101
0000
,
0000
0000
1020
0000
0001
0030
0201
0000
,
1000
0300
1020
0000
0001
0030
0201
0000
,
1000
0000
0300
0000
1001
0000
1000
0100
0010
0000
0010
0001
0100
0000
0100
0010
,
1000
0000
1000
0100
0010
0000
0000
0010
0001
0000
0000
0001
1000
0000
0000
1000
,
0100
0000
0000
0100
0010
0000
0001
0000
1010
0000
0000
0000
0010
0000
0001
0000
,
1100
0000
0100
1000
0101
0000
0001
0100
,
1001
0000
0100
0010
1000
0100
0010
0000
,
0110
0000
0001
0100
1000
0100
0001
0000
,
1000
0100
0010
0001
1000
0000
0001
0000
0101
0000
0101
0000
0010
0000
0000
0000
,
1000
0001
1000
0000
1010
0100
0000
0011
,
0100
0010
0001
0010
0100
0000
1001
1001
,
0010
0202
0303
0200
,
0010
0301
MMMM
2000
,
3010
MMMM
0002
0103
,
MMMM
0000
0020
0000
0031
0000
1000
0100
,
0001
0002
0103
MMMM
,
2000
3100
MMMM
0200
,
0310
MMMM
0020
1030
,
0001
0000
0010
0000
1000
0000
0000
0000
0001
0000
0000
0001
0010
0000
0000
0010
,
1000
0000
0000
1000
0100
0000
0000
0100
0010
0000
0000
0010
0001
0000
0000
0001
,
0100
0000
0000
0100
0010
0000
0000
0010
1000
0000
0000
1000
0100
0000
0000
0100
,
0001
0000
0000
0001
0100
0000
0000
0100
1000
0000
0000
1000
0010
0000
0000
0010
,
0001
0000
0000
0001
1000
0000
0000
0000
1001
0000
0000
1000
0010
0000
0100
0010
,
1000
0000
0000
1000
0100
0000
0010
0100
0001
0000
0000
0001
0100
0000
0001
0100
,
0010
0000
0000
0010
1000
0000
0001
1000
0100
0000
0000
0100
0010
0000
0001
0010
,
0100
0000
0000
0100
1000
0000
0100
1000
0001
0010
0001
1000
0010
1000
0001
1000
,
0100
0010
0001
1000
0010
0100
0001
1000
0100
0000
0001
0000
0100
0000
1000
0000
,
0001
0000
1000
0000
0010
0000
0001
0000
0010
M000
0M00
000M
00M0
0000
0000
0000
,
0100
0001
0010
0001
0200
0000
0000
0000
0310
0000
1000
0000
0010
0000
0001
0000
,
1000
0000
0001
0000
0100
0000
1000
0000
0100
00M0
000M
M000
0M00
0000
0000
0000
,
0010
1000
0001
0100
0010
1000
0100
0010
0001
0000
0010
0001
0010
0000
0001
1000
,
0001
0000
1000
0010
1000
0000
0101
0000
0000
0000
1000
0100
1000
0000
0001
0010
,
0001
0000
1000
0010
1000
0000
1001
0000
0000
0000
1000
0100
1000
0000
0001
0010
,
0001
0000
0100
0001
0100
0000
0110
0000
0000
0000
0001
1000
0001
0000
0010
0001
,
0010
0000
0100
1000
0100
0000
0010
0000
1001
0000
0001
0100
0010
0000
1000
0100
,
0010
0000
0001
1000
0100
0000
1100
0000
0000
0000
1000
0001
0100
0000
0010
1000
,
0100
0000
0010
0001
1000
0000
1001
0000
0000
0000
1000
0001
0010
0000
0100
0010
,
0001
0000
1000
0100
0010
0000
0001
1000
0001
0000
0000
0000
0101
0000
0000
0000
,
2010
0000
3001
0000
0100
0010
1000
0000
,
0101
0010
1000
0000
0100
0010
1000
0010
,
0101
0010
1000
0001
1000
0000
0100
0010
,
0101
0010
1000
0000
0001
1000
0010
0000
,
0011
1000
0010
0000
0100
1000
0001
1000
,
0011
1000
0001
0010
0001
0000
0101
0000
,
0110
1000
0001
1000
1100
0000
0110
0001
,
0000
0001
1100
0000
1100
0010
0000
0010
,
1001
0001
1000
0001
0101
0010
1000
0001
,
1000
0100
0000
0020
1000
0030
1000
0001
,
1000
0200
0000
0300
0000
0000
0000
0000
;

//---------------dance-single - ----------------
#NOTES:
     dance-single:
     :
     Hard:
     8:
     0.566447,0.581788,0.484353,0.213444,0.000000,483.000000,424.000000,59.000000,26.000000,0.000000,0.000000,0.566447,0.581788,0.484353,0.213444,0.000000,483.000000,424.000000,59.000000,26.000000,0.000000,0.000000:
0000
0000
0000
0000
,
0000
0000
0000
0000
,
0000
0000
0000
0000
,
0000
0000
0000
0000
,
0000
0000
0000
0000
0000
0000
0100
0001
,
0011
1000
0110
0001
,
1100
0101
0010
1001
,
0100
1010
0100
0011
,
1100
0000
0001
0010
0100
1000
0001
0000
,
0101
0000
1000
0100
0001
0100
0000
0000
,
0110
0000
0001
0010
0100
0010
0000
0000
,
1001
0000
1000
0010
0001
0010
0000
0000
,
0110
0000
1000
0100
0001
0000
0010
0000
,
1001
0000
0010
1000
0100
0001
0000
0000
,
0110
0000
0001
1000
0100
1000
0000
0000
,
1010
0000
1000
0001
0010
0100
1000
0000
,
0101
0000
0001
0000
1100
0000
0010
1000
,
0100
0000
0010
1000
0100
0000
0010
1000
,
0100
0010
0001
1000
0010
0100
0001
0000
,
0001
1000
0010
0100
0001
0000
0001
0010
,
1000
0000
0001
0010
1000
0000
0001
0010
,
1000
0001
0100
1000
0001
0010
1000
0000
,
1001
0000
0100
1000
0001
0010
1000
0000
,
0001
1001
0000
0100
0101
0000
0100
1000
,
0000
0100
0001
1000
0100
0010
0001
1000
,
0010
0100
0001
1000
0000
0000
0000
0000
,
0000
0000
0100
0001
0010
0000
0100
0001
,
0010
0000
0100
0001
0010
0100
1000
0001
,
0100
0001
0010
0000
1000
0001
0100
0001
,
0010
0000
0001
0100
1000
0000
0001
0100
,
1000
0000
0001
0100
1000
0001
0100
0010
,
1000
0100
0001
0000
1001
0000
0100
0010
,
1000
0100
0001
0000
1000
1001
0000
0010
,
0110
0000
1000
0010
0000
0001
0100
1000
,
0100
0001
0010
0100
1000
0001
0100
0010
,
0000
0001
0101
1000
,
1010
0100
1001
0010
,
1100
0000
0100
1000
0001
0000
0010
0001
,
0100
0000
1000
0100
0001
0100
1000
0000
,
0110
0001
1010
1000
,
0011
0010
1100
1000
,
0101
0000
0001
0100
0010
0000
1000
0100
,
1001
0000
1000
0100
1100
0000
0011
0000
,
0110
1001
0100
1001
,
0100
0011
1010
0100
,
1001
0100
1001
0100
,
1010
0000
0101
0000
1000
0001
0200
0000
,
0010
0301
0000
2000
,
3010
0000
0002
0103
,
0000
0000
0020
0000
0031
0000
1000
0100
,
0001
0002
0103
0000
,
2000
3100
0000
0200
,
0310
0000
0020
1030
,
0001
0010
1000
0000
0020
0000
0030
1000
,
0200
0000
0300
0001
2000
0000
3000
0100
,
0020
0000
0030
1000
0002
0000
0003
1000
,
0200
0000
0300
0001
0020
0000
0030
0100
,
0002
0000
0003
1000
0020
0000
1030
0001
,
0200
0000
0310
1000
0002
0000
1003
0100
,
0020
0000
0031
1000
0200
0000
1300
0001
,
0020
0000
0031
0100
0010
1000
0100
1000
,
0001
0100
0001
1000
0100
0010
0100
1000
,
0001
1000
0010
0100
0010
0000
1001
0000
,
2000
0001
3001
0000
0001
0010
0001
1000
,
0100
1000
0010
0100
0010
0000
1001
0000
,
0002
1000
1003
0000
0100
0000
1100
0000
,
1000
0010
0001
0010
0000
0000
0110
0000
,
0001
0100
1000
0100
0000
0000
1001
0000
,
0001
0010
0100
1000
0000
0000
1001
0000
,
0010
1000
0100
0000
1100
0000
0101
0000
,
1000
0010
0100
0010
0000
0000
1001
0000
,
0001
0010
1000
0010
0000
0000
0110
0000
,
1000
0100
0010
0001
0100
0000
1100
0000
,
0011
0000
1010
0000
0101
0100
0010
0000
,
0101
0100
0010
0000
0100
0001
1000
0100
,
1000
0001
0010
0100
0001
0000
1000
0001
,
0010
0100
0001
0000
1000
0100
0010
0000
,
1000
0100
0010
0000
1000
0100
0010
0001
,
0100
1000
0100
0001
0010
0000
0010
0000
,
0100
1000
0100
0001
0010
0000
0010
0100
,
0000
0100
1000
0000
1000
0010
0000
0010
,
0100
0001
1000
0100
1000
0010
0100
0001
,
0010
0100
0000
0002
0100
0003
1000
0100
,
0001
0200
0000
0300
0000
0000
0000
0000
;

//---------------dance-single - ----------------
#NOTES:
     dance-single:
     :
     Medium:
     6:
     0.452688,0.505646,0.508981,0.328375,0.000000,386.000000,324.000000,62.000000,40.000000,0.000000,0.000000,0.452688,0.505646,0.508981,0.328375,0.000000,386.000000,324.000000,62.000000,40.000000,0.000000,0.000000:
0000
0000
0000
0000
,
0000
0000
0000
0000
,
0000
0000
0000
0000
,
0000
0000
0000
0000
,
0000
0000
0000
0000
,
1001
1000
0110
0010
,
1001
1001
0000
0101
,
1000
1100
0001
1001
,
1001
0010
1000
0001
,
0100
0000
0001
0000
1000
0010
0000
0000
,
1000
0000
0100
0000
0010
0001
0000
0000
,
1000
0000
0010
0000
0100
0010
1000
0000
,
1100
0101
1001
0010
,
1000
0000
0001
0000
1000
0100
0000
0000
,
0110
0000
0001
0000
1000
0001
0000
0000
,
1001
0000
0010
1000
0100
0000
1001
0000
,
0100
0000
1000
0000
0001
0000
1000
0100
,
1000
0000
0001
0100
0001
0000
1000
0100
,
1000
0001
0110
1001
,
0100
0001
0100
0000
1001
0000
0010
1000
,
0010
0000
0010
0001
0010
0000
0100
0010
,
0100
0110
1001
0010
,
1000
0000
0001
1000
0010
0000
0110
0000
,
0000
1000
0000
0000
0100
0000
0000
0001
,
0000
0000
0010
0100
0010
0000
0001
1000
,
0001
1001
0000
0000
,
0000
0000
0010
1000
0010
0000
0001
0010
,
0001
0000
1000
0100
1000
0000
0001
0000
,
0110
0000
1001
0000
1000
0100
0001
0000
,
1001
0000
0001
0010
0001
0000
1000
0100
,
1000
0000
0010
0100
0001
0000
1000
0000
,
0110
0000
1001
0000
1001
0000
1000
0100
,
1000
0000
1001
0000
0000
0010
0000
0000
,
0001
0000
0000
0100
0000
0000
1000
0100
,
1000
0000
0001
0010
0001
0000
0110
0000
,
0000
0002
0103
2000
,
3100
0002
0013
2000
,
3010
0100
0110
0001
,
1001
0010
0110
1000
,
1001
0020
1030
2000
,
3100
0200
0301
0002
,
0013
0110
0110
0001
,
1000
0001
0010
1001
,
0110
2002
3003
0202
,
0303
1001
2200
3300
,
0220
0330
0022
0033
,
1010
0220
0330
0100
,
0010
0001
0000
1000
,
0010
0000
0001
0100
,
0000
0000
0010
0000
0001
0000
1000
0100
,
0001
0001
0100
0000
,
1000
0100
0000
0100
,
0010
0000
0010
1000
,
0001
0010
1000
0000
0002
0000
0103
0000
,
2000
3100
0002
1003
,
2000
3001
0020
1030
,
2000
3100
0020
0031
,
0200
0000
0301
0000
0002
0000
1003
0100
,
2000
0000
3001
0100
0002
0000
1003
0010
,
2000
0000
3010
0100
0020
0000
1030
0100
,
2000
0000
3001
0010
0001
0000
0101
0000
,
1001
0000
1001
0000
0020
0000
0030
0200
,
0000
0300
2000
0000
3001
0000
1001
0000
,
0010
0000
0100
0000
0002
0000
0003
2000
,
0000
3000
0200
0000
0310
0000
0110
0000
,
1000
0100
0001
0000
1000
0000
0100
0000
,
0001
0000
0000
1001
0000
0000
0010
0000
,
1000
0000
0001
0010
0000
0000
0110
0000
,
1000
0000
0001
1000
0010
0000
0100
0000
,
0001
1000
1001
0100
,
0001
0000
1000
0100
0000
0000
0110
0000
,
0010
0000
0001
1000
0000
0000
0001
0000
,
0100
0010
1000
1100
,
1001
0000
0100
0000
0001
0010
0100
0000
,
0001
0010
0100
0000
0001
0010
0001
0000
,
1000
0000
0001
0000
0110
0000
1000
0100
,
0001
0000
1001
0000
1000
0010
0100
0000
,
1000
0010
0100
0000
1000
0100
1000
0000
,
0001
1001
0010
0100
,
0001
1000
0100
0000
0110
0000
0000
0001
,
0000
0000
0010
0000
0000
1000
0000
0000
,
0100
0010
1001
0110
,
1000
0100
0000
0000
0000
0000
0000
0000
;

//---------------dance-single - ----------------
#NOTES:
     dance-single:
     :
     Easy:
     4:
     0.326029,0.437560,0.221653,0.311956,0.000000,278.000000,251.000000,27.000000,38.000000,0.000000,0.000000,0.326029,0.437560,0.221653,0.311956,0.000000,278.000000,251.000000,27.000000,38.000000,0.000000,0.000000:
// measure 0
0000
0000
0000
0000
,  // measure 1
0000
0000
0000
0000
,  // measure 2
0000
0000
0000
0000
,  // measure 3
0000
0000
0000
0000
,  // measure 4
0000
0000
0000
0000
,  // measure 5
1001
0000
0110
0000
,  // measure 6
1000
0001
0000
1001
,  // measure 7
0000
0110
0000
0001
,  // measure 8
1000
0010
0010
0100
,  // measure 9
0001
0100
0010
1000
,  // measure 10
0100
1000
0001
1000
,  // measure 11
0010
0100
0001
0010
,  // measure 12
0001
1000
0100
0001
,  // measure 13
0100
1000
0100
0010
,  // measure 14
0100
1000
0001
1000
,  // measure 15
0010
0100
0001
0020
,  // measure 16
0130
0200
0310
1001
,  // measure 17
1000
1001
1000
1001
,  // measure 18
0100
0010
0001
0100
,  // measure 19
1001
0100
0010
1001
,  // measure 20
0001
1001
0001
1001
,  // measure 21
0010
0100
1000
0010
,  // measure 22
0010
0100
0001
1000
,  // measure 23
0000
0100
0000
0000
0001
0000
0000
0100
,  // measure 24
0000
1000
0100
0001
,  // measure 25
0100
1000
0000
0000
,  // measure 26
0000
1001
0010
1001
,  // measure 27
0010
1001
0001
1000
,  // measure 28
0100
0010
1001
0100
,  // measure 29
0010
1001
0100
1001
,  // measure 30
0100
0001
0010
0100
,  // measure 31
1000
0010
0010
1000
,  // measure 32
0001
0000
0100
0000
0000
1000
0000
0000
,  // measure 33
0100
0000
0000
0001
0000
0000
0010
0000
,  // measure 34
1000
0010
0001
1000
,  // measure 35
0000
0002
0003
0020
,  // measure 36
0030
0200
0300
0020
,  // measure 37
0030
0001
0001
0010
,  // measure 38
0100
2000
0000
0000
,  // measure 39
0000
3001
0100
1000
,  // measure 40
0010
0001
0010
1000
,  // measure 41
0010
0200
0301
0010
,  // measure 42
0100
2000
3010
0001
,  // measure 43
0100
0110
0000
1001
,  // measure 44
0000
0001
1000
0000
,  // measure 45
1001
0000
0110
0000
,  // measure 46
1000
0100
0000
0000
,  // measure 47
0010
0001
0000
1000
,  // measure 48
0010
0000
0001
0100
,  // measure 49
0000
0010
0001
1000
,  // measure 50
0100
0001
0100
0000
,  // measure 51
1000
0100
0000
0100
,  // measure 52
0010
0000
0010
1000
,  // measure 53
0001
1000
0200
0300
,  // measure 54
0020
0030
0002
0003
,  // measure 55
0200
0300
0020
0030
,  // measure 56
2000
3000
0002
0003
,  // measure 57
1000
0100
0020
0031
,  // measure 58
0200
0301
2000
3100
,  // measure 59
0020
0130
2000
3010
,  // measure 60
0200
0301
0020
0130
,  // measure 61
2000
0000
3001
0000
1001
0000
0000
0010
,  // measure 62
0000
0100
0100
0000
,  // measure 63
0000
0000
0000
0000
1001
0000
0000
0010
,  // measure 64
0000
0100
0100
0000
,  // measure 65
0000
0000
0001
1000
,  // measure 66
0001
0100
1000
0100
,  // measure 67
0001
1000
0001
0010
,  // measure 68
0100
1000
0010
1000
,  // measure 69
0100
0010
0001
1000
,  // measure 70
0001
0100
0010
0100
,  // measure 71
0001
1000
0001
0010
,  // measure 72
0100
1000
0020
0130
,  // measure 73
0200
0310
2000
3000
,  // measure 74
2200
3300
0002
0003
,  // measure 75
0202
0303
0010
1000
,  // measure 76
0100
0001
0020
0030
,  // measure 77
0220
0330
0200
0300
,  // measure 78
0220
0330
0001
0010
,  // measure 79
1000
0000
0100
0000
0010
0000
0000
0001
,  // measure 80
0000
0000
0100
0000
0000
1000
0000
0000
,  // measure 81
0010
0001
0100
1000
,  // measure 82
0010
0000
0000
0000
;

//---------------dance-single - ----------------
#NOTES:
     dance-single:
     :
     Beginner:
     2:
     0.180606,0.235609,0.073884,0.000000,0.000000,154.000000,145.000000,9.000000,0.000000,0.000000,0.000000,0.180606,0.235609,0.073884,0.000000,0.000000,154.000000,145.000000,9.000000,0.000000,0.000000,0.000000:
// measure 0
0000
0000
0000
0000
,  // measure 1
0000
0000
0000
0000
,  // measure 2
0000
0000
0000
0000
,  // measure 3
0000
0000
0000
0000
,  // measure 4
0000
0000
0000
0000
,  // measure 5
0001
0000
0001
0000
,  // measure 6
0010
0010
0000
0100
,  // measure 7
0000
0100
0000
1000
,  // measure 8
1000
0000
0000
0010
,  // measure 9
0000
0010
0000
1000
,  // measure 10
0000
1000
0000
0100
,  // measure 11
0000
0100
0000
0010
,  // measure 12
0000
0001
0000
0100
,  // measure 13
0000
0100
0000
0001
,  // measure 14
0000
0001
0000
1000
,  // measure 15
0000
1000
0000
0100
,  // measure 16
0000
0000
0000
0010
,  // measure 17
0000
0010
0000
0010
,  // measure 18
0000
0001
0000
0100
,  // measure 19
0000
1000
0000
0010
,  // measure 20
0000
0010
0000
0010
,  // measure 21
0000
0010
0000
1000
,  // measure 22
0000
0100
0000
0001
,  // measure 23
0000
0000
0010
0000
,  // measure 24
0000
0100
0000
1000
,  // measure 25
0000
0001
0000
0000
,  // measure 26
0000
0100
0000
0100
,  // measure 27
0000
1000
0000
0001
,  // measure 28
0000
0100
0000
0010
,  // measure 29
0000
1000
0000
0100
,  // measure 30
0000
0010
0000
0001
,  // measure 31
0000
0100
0100
0000
,  // measure 32
0000
0010
0000
0000
,  // measure 33
1000
0000
0000
0001
,  // measure 34
0000
0010
0000
0100
,  // measure 35
0000
1000
0000
0100
,  // measure 36
0000
0001
0000
0100
,  // measure 37
0000
1000
0000
0010
,  // measure 38
0000
0100
0000
0000
,  // measure 39
0000
0000
0001
0000
,  // measure 40
0010
0000
1000
0000
,  // measure 41
0010
0010
0000
0001
,  // measure 42
0000
0100
0000
1000
,  // measure 43
0000
0010
0000
0100
,  // measure 44
0000
0010
0010
0000
,  // measure 45
1000
0000
0001
0000
,  // measure 46
1000
1000
0000
0000
,  // measure 47
0100
0000
0000
0001
,  // measure 48
0000
0000
0010
0000
,  // measure 49
0000
0100
0000
1000
,  // measure 50
0000
0010
0000
0000
,  // measure 51
0100
0000
0000
0001
,  // measure 52
0000
0000
0010
0000
,  // measure 53
0100
0000
1000
0000
,  // measure 54
1000
0000
0001
0000
,  // measure 55
0001
0000
0100
0000
,  // measure 56
0100
0000
0010
0000
,  // measure 57
0010
0000
1000
0000
,  // measure 58
0100
0000
0010
0000
,  // measure 59
0001
0000
0100
0000
,  // measure 60
0010
0000
1000
0000
,  // measure 61
0001
0000
1001
0000
,  // measure 62
0000
0000
0110
0000
,  // measure 63
0100
0000
1001
0000
,  // measure 64
0000
0000
0110
0000
,  // measure 65
0100
0000
1001
0000
,  // measure 66
0010
0000
1000
0000
,  // measure 67
0010
0000
0001
0000
,  // measure 68
0010
0000
0100
0000
,  // measure 69
1000
0000
0001
0000
,  // measure 70
0100
0000
0010
0000
,  // measure 71
1000
0000
0100
0000
,  // measure 72
0010
0000
0001
0000
,  // measure 73
1000
0000
0010
0000
,  // measure 74
1001
0000
0010
0000
,  // measure 75
1001
0000
0100
0000
,  // measure 76
0010
0000
0100
0000
,  // measure 77
1001
0000
0100
0000
,  // measure 78
1001
0000
0010
0000
,  // measure 79
0100
0000
0010
0000
,  // measure 80
0000
1000
0000
0000
,  // measure 81
0001
0000
0010
0000
,  // measure 82
0100
0000
0000
0000
;
