#TITLE:Force Your Way;
#SUBTITLE:Eden's Gate Resurrection;
#ARTIST:Masayoshi Soken;
#TITLETRANSLIT:;
#SUBTITLETRANSLIT:;
#ARTISTTRANSLIT:;
#GENRE:Shadowbringers;
#CREDIT:[Ness];
#BANNER:Final Fantasy XIV - Force Your Way.png;
#BACKGROUND:Final Fantasy XIV - Force Your Way-bg.png;
#LYRICSPATH:;
#CDTITLE:;
#MUSIC:Final Fantasy XIV - Force Your Way.mp3;
#OFFSET:-0.362000;
#SAMPLESTART:23.325365;
#SAMPLELENGTH:10.971426;
#LASTBEATHINT:358.000000;
#SELECTABLE:YES;
#BPMS:0.000000=175.000000
;
#STOPS:
;
#BGCHANGES:;
#KEYSOUNDS:;
#ATTACKS:;

//---------------dance-single - ----------------
#NOTES:
     dance-single:
     :
     Hard:
     9:
     0.575873,0.605821,0.730831,0.346183,0.057697,524.000000,429.000000,95.000000,45.000000,0.000000,0.000000,0.575873,0.605821,0.730831,0.346183,0.057697,524.000000,429.000000,95.000000,45.000000,0.000000,0.000000:
// measure 0
0000
0000
0000
0000
,  // measure 1
0000
0000
0000
0000
,  // measure 2
0000
0000
0000
0000
,  // measure 3
0000
0000
0000
0000
,  // measure 4
1001
0000
0001
0010
0100
0010
0001
0000
,  // measure 5
0001
0100
1000
0100
0001
0000
0101
0000
,  // measure 6
1100
0000
0100
1000
0010
1000
0100
0000
,  // measure 7
0100
0010
0001
1000
0100
0000
1100
0000
,  // measure 8
0011
0000
1001
0000
0100
0001
1000
0100
,  // measure 9
0010
0000
1000
0010
0001
1000
0010
0000
,  // measure 10
0011
0000
1010
0000
0001
1000
0010
0100
,  // measure 11
0001
0000
0100
1000
0100
0010
1000
0000
,  // measure 12
1010
0000
0101
0000
0001
1000
0100
1000
,  // measure 13
0001
0000
0100
1000
0100
0010
1000
0000
,  // measure 14
1100
0000
0011
0000
1000
0010
0001
0010
,  // measure 15
1000
0000
0001
1000
0100
1000
0001
0000
,  // measure 16
1100
0000
0101
0000
0110
0000
0001
0010
,  // measure 17
0100
0010
1000
0010
0100
1000
0100
0001
,  // measure 18
0100
0010
0100
1000
0001
1000
0010
0100
,  // measure 19
0001
0100
1000
0001
0010
1000
0100
0010
,  // measure 20
0001
1000
0100
0001
0100
0010
0001
0010
,  // measure 21
0001
1000
0010
0100
0010
0001
0010
0100
,  // measure 22
1000
0100
0010
0100
0001
0100
0001
1000
,  // measure 23
0100
0010
0001
1000
0100
0001
1000
0010
,  // measure 24
0001
0000
0000
0100
0000
0000
0010
0000
0000
1000
0000
0000
0100
0000
0000
0010
0000
0000
0001
0000
0000
0000
0001
0000
,  // measure 25
0010
0000
0010
0100
0000
0100
1000
0000
1000
0010
0000
0010
,  // measure 26
0100
0000
0100
0001
0000
1000
0000
0001
0000
0101
0000
0100
,  // measure 27
0010
0000
0010
1000
0000
1000
0100
0000
0100
0001
0000
0001
,  // measure 28
0100
0000
0100
1000
0000
1000
0010
0000
0000
0110
0000
0000
,  // measure 29
1000
0100
0000
0001
0100
0000
0010
1000
,  // measure 30
0000
0001
0010
0000
1100
0000
1001
0000
,  // measure 31
0001
1000
0000
1000
0010
0000
0001
1000
,  // measure 32
0000
0001
0010
0000
0110
0000
1001
0000
,  // measure 33
1000
0100
0000
0100
0010
0000
1000
0010
,  // measure 34
0000
0010
0001
0000
0110
0000
0011
0000
,  // measure 35
0001
0010
0000
1000
0010
0000
0001
0100
,  // measure 36
0000
1000
0100
0000
1001
0000
0100
0010
,  // measure 37
0100
0010
1000
0001
1000
0001
0100
0001
,  // measure 38
1000
0010
0000
0101
0000
1000
1100
0000
,  // measure 39
0100
0110
0000
0010
1001
0000
0100
0101
,  // measure 40
0000
1000
1100
0000
0110
0000
0012
0000
,  // measure 41
0000
0000
0000
0000
2000
0000
3000
0200
,  // measure 42
0000
0300
0020
0000
0033
0000
0200
0000
,  // measure 43
0000
0002
0000
0003
0020
0000
0030
2000
,  // measure 44
0000
3000
0020
0000
0330
0000
1001
0000
,  // measure 45
0000
0000
0010
0000
0001
1000
1100
0000
,  // measure 46
0000
0000
0010
0000
0100
0001
1001
0000
,  // measure 47
0000
0000
1000
0000
0010
0100
0110
0000
,  // measure 48
0000
0000
0100
0000
0001
1000
2002
0000
,  // measure 49
3000
0000
1003
0000
0100
0010
1002
0000
,  // measure 50
0000
0000
0023
0000
0031
1000
2010
0000
,  // measure 51
3000
0010
0200
0000
0301
0100
0102
0000
,  // measure 52
0000
0000
1003
0000
0100
1000
2100
0000
,  // measure 53
0000
0000
3010
0000
0100
0001
0012
0000
,  // measure 54
0000
0000
0023
0000
0130
1000
2100
0000
,  // measure 55
0000
0000
3001
0000
0100
0001
2001
0000
,  // measure 56
0000
0000
3010
0000
1000
0001
0021
0000
,  // measure 57
0130
0210
1300
1002
,  // measure 58
0103
2001
3100
1020
,  // measure 59
0130
0001
0020
0000
0130
0000
1200
0000
,  // measure 60
0310
0012
1003
2001
,  // measure 61
3010
1020
0130
0210
,  // measure 62
0301
1002
1003
2001
,  // measure 63
3100
1200
0310
0120
,  // measure 64
1030
0012
0103
1001
,  // measure 65
1000
0001
0200
0000
0000
0000
0000
0000
,  // measure 66
0000
0000
0301
1000
0010
0100
0001
0000
,  // measure 67
0000
0011
0000
0000
1010
0000
0000
1100
,  // measure 68
0000
0101
0000
0101
,  // measure 69
0000
1100
0000
0000
1001
0000
0000
1010
,  // measure 70
0000
1002
0103
0101
,  // measure 71
0000
0110
0000
0000
1100
0000
0000
1010
,  // measure 72
0000
0110
0000
1010
,  // measure 73
0000
0110
0000
0000
0011
0000
0000
2002
,  // measure 74
0000
0003
3100
0000
1100
0000
1002
0000
,  // measure 75
0000
0103
0000
0000
0201
0000
0000
0310
,  // measure 76
0000
0110
0000
1200
,  // measure 77
0000
0310
0000
0000
0012
0000
0000
1003
,  // measure 78
0000
1001
1010
0011
,  // measure 79
0110
0100
1000
0010
1000
0100
0001
0100
,  // measure 80
1000
0001
0100
0001
1000
0010
0100
0010
,  // measure 81
1000
0100
0010
0001
0100
0001
1000
0100
,  // measure 82
1000
0001
0010
0100
0110
0000
0011
0000
,  // measure 83
1010
0100
0010
1000
0100
0001
1000
0010
,  // measure 84
0100
1000
0100
0001
0100
0010
0001
1000
,  // measure 85
0010
0100
0010
1000
0001
0100
1000
0100
,  // measure 86
0001
1000
0100
1000
0001
0000
1100
0000
,  // measure 87
0110
0011
1001
0000
;

//---------------dance-single - ----------------
#NOTES:
     dance-single:
     :
     Challenge:
     12:
     0.797870,1.110671,0.807761,0.346183,0.807761,726.000000,621.000000,105.000000,45.000000,119.000000,0.000000,0.797870,1.110671,0.807761,0.346183,0.807761,726.000000,621.000000,105.000000,45.000000,119.000000,0.000000:
0000
0000
0000
0000
,
0000
0000
0000
0000
,
0000
0000
0000
0000
,
0000
0000
0000
0000
,
0001
0010
0001
1000
0010
0100
0001
1000
0100
1000
0010
0100
0010
1000
0001
0010
,
0100
1000
0001
1000
0100
0010
0001
0100
0001
0010
0100
1000
0010
0100
0010
1000
,
0100
0010
0001
1000
0100
0010
0100
1000
0001
0100
0010
1000
0001
0010
0100
1000
,
0001
0000
0000
1000
0000
0000
0010
0000
0000
0100
0000
0000
0001
0000
0000
1000
0000
0000
0001
0000
0000
0100
0000
0000
0001
0000
0000
0000
0000
0000
0000
0000
0MM0
0000
0000
0000
1001
0000
0000
0000
0000
0000
0000
0000
00MM
0000
0000
0000
,
1100
0000
0000
0000
0100
1000
0010
0100
0001
1000
0100
1000
0001
0010
0100
0010
,
0001
1000
0010
0100
0001
0010
0100
1000
0001
1000
0010
0100
0001
1000
0100
1000
,
0010
0100
0001
1000
0100
1000
0010
0100
0001
0010
0001
1000
0100
0010
0100
1000
,
0010
0100
0001
1000
0001
0100
0010
1000
0100
0010
0001
0100
0010
0100
0001
1000
,
0010
0100
0001
1000
0100
1000
0001
0100
0001
0010
0100
1000
0100
0010
0001
1000
,
0010
0100
0010
1000
0100
0010
0001
1000
0001
0100
0010
1000
0100
0010
0001
1000
,
0001
0100
0010
1000
0001
1000
0100
0010
0001
0010
0100
1000
0001
1000
0010
0100
,
0001
1000
0100
0010
0001
0100
0001
1000
0010
0100
0001
1000
0100
0000
0000
0000
,
0110
0000
0000
0000
0000
0000
1001
0000
0000
0000
MM00
0000
0011
0000
0000
0000
0000
0000
1100
0000
000M
0100
0000
0000
,
0010
0100
M001
0100
0010
0001
0M10
1000
,
001M
0100
0010
0001
1000
0001
0100
0010
,
1000
0000
0000
0010
0M00
0000
0001
0000
0000
1000
0000
0000
01M0
0000
0000
0001
0000
0000
1000
0000
0000
0010
0000
0000
,
0M01
0000
0000
1000
0000
0000
0100
0000
0000
0010
0000
0000
1000
0000
0000
0001
0000
0000
1000
0000
0000
0100
000M
0000
,
1000
0000
0000
0001
0000
0000
0100
0000
M000
0010
0000
0000
0100
0000
0000
1000
000M
0000
0100
0000
0000
0010
0000
0000
,
0001
0000
0000
0010
0000
0000
0100
0000
0000
0010
0000
0000
1000
0000
0M00
0010
0000
0000
0001
0000
0000
0010
0000
0000
,
0100
0000
0000
0001
0000
0000
10M0
0000
0000
0001
0000
0000
0010
0000
0000
1000
0M00
0000
0001
0000
0000
0100
0000
0000
,
100M
0000
0000
0010
0000
0000
0100
0000
M000
0001
0000
0000
0010
0000
0000
0100
0000
0000
1000
0000
0100
0000
0010
0000
,
0001
1000
0010
0100
0001
0100
0010
1000
0100
0010
0001
1000
,
0001
0100
0010
1000
0000
1100
0000
0110
0000
1001
0001
1000
,
0010
0100
0001
0100
0010
1000
0100
0010
0001
1000
0001
0100
,
0010
1000
0100
1000
0001
0100
0010
1000
0100
1000
0000
0000
,
0010
0000
0000
0000
0000
0000
0110
0000
000M
0000
0000
0000
0000
0000
0000
0000
0000
0000
0100
0000
0000
0000
0000
0000
0001
0000
0000
0000
0000
0000
1000
0000
0000
0001
0000
0000
0100
0000
0000
0000
0000
0000
0010
0000
0000
0000
0000
0000
,
0000
0000
00M0
1000
0000
0000
0100
0000
0000
0010
0000
0000
0001
0000
0000
1000
0000
0000
0100
0000
0000
0000
M000
0000
,
0101
0101
0000
1100
1100
0000
0110
1001
,
0MM0
1001
0110
0000
0110
0000
0011
0000
,
0001
0000
0000
0000
0M00
0000
1010
0000
0000
0000
0000
0000
0000
0000
0000
0000
0000
0000
0010
0000
0000
0000
0000
0000
1000
0000
0000
0000
0000
0000
0100
0000
0000
1000
0000
0000
0001
0000
0000
0000
0000
0000
0100
0000
0000
0000
0000
0000
,
0000
0000
000M
1000
0000
0000
0100
0000
0000
0000
0000
0000
0110
0000
0000
0000
0000
0000
1001
0000
0000
0000
0000
0000
,
0101
0101
0000
1100
1100
0000
0101
0101
,
0000
0110
0110
0000
1001
0000
0010
0001
,
1000
0010
0100
1000
0001
0010
0100
0001
,
1000
0100
0010
0011
0001
1000
1001
0001
,
0100
0101
1000
0010
1001
0100
0010
1100
,
0001
1000
1001
0000
0110
0000
2010
0000
,
0000
0000
0000
0000
0002
0000
0003
0200
,
0000
0300
0020
0000
3030
0000
0200
0000
,
0000
2000
0000
3000
0020
0000
0030
2000
,
0000
3000
0002
0000
0303
0000
1001
00M0
,
0100
0000
M110
0000
1000
0001
0101
0000
,
00M1
0000
0011
M000
0100
1000
1001
0000
,
1M00
0000
1010
000M
0010
0100
0101
0000
,
1000
0M00
1010
0000
0001
1000
2002
00M0
,
0003
0000
3001
0000
0100
0010
2001
0000
,
000M
0000
3020
0000
1M30
0001
0012
M000
,
0003
0010
020M
0000
1300
0100
21M0
0000
,
0000
0M00
3001
0000
01M0
0001
M102
0000
,
0000
0M00
0013
0000
010M
1000
2010
0000
,
0M00
0000
3020
0000
M130
0001
0102
00M0
,
0000
0000
1003
0000
010M
1000
1002
0M00
,
0000
0000
0013
M000
0001
1000
1020
0000
,
013M
0000
0210
M000
0301
00M0
2001
0000
,
3100
00M0
1002
0000
0103
M000
0021
0000
,
013M
1000
0020
M000
0130
0000
02M1
0000
,
M310
0000
1020
0M00
0031
0000
10M2
0000
,
0013
M000
0021
0000
013M
0000
0210
0000
,
13M0
0000
2001
0M00
3010
0000
10M2
0000
,
0103
M000
0201
0000
031M
0000
0120
0000
,
M031
0000
2M10
0000
3100
00M0
1001
0000
,
0001
1000
0200
0000
0000
0000
0000
0000
,
0000
0000
0000
0000
1300
0000
0001
0000
0010
0000
0100
0000
1000
0000
0000
M00M
,
0000
0000
1010
0000
0000
MM00
0000
0000
0011
0000
0000
0MM0
0000
0000
0101
0000
,
0000
00MM
0000
0000
1100
0000
0000
0000
0M0M
0000
0000
0000
1010
0000
0000
0MM0
,
0000
0000
0101
0000
0000
0MM0
0000
0000
1001
0000
0000
MM00
0000
0000
0011
0000
,
0000
0000
0MM0
0000
2001
0000
0000
0000
3100
0000
0000
0000
1100
0000
0000
00MM
,
0000
0000
0110
0000
0000
M00M
0000
0000
0101
0000
0000
0000
MM00
0000
0011
0000
,
0000
0M0M
0000
0000
0110
0000
0000
0000
M00M
0000
0000
0000
0011
0000
0000
M0M0
,
0000
0000
0110
0000
0000
00MM
0000
0000
1010
0000
0000
0MM0
0000
0000
2002
0000
,
0000
0000
3000
0000
0103
0000
0000
0000
0101
0000
0000
0000
2001
0000
0000
000M
,
0000
0000
3100
0000
0000
0000
00M0
0000
1200
0000
0000
0000
0000
M000
0310
0000
,
0000
000M
0110
0000
M000
0000
0201
00M0
,
0000
0000
0310
000M
0000
0000
0000
0M00
2010
0000
0000
0000
0000
00M0
3001
0000
,
0000
0000
0000
0000
1001
0000
0000
M000
0011
0000
0000
0000
1010
0000
0000
000M
,
1000
0100
1000
0010
0100
0001
1000
0001
0010
0100
0010
0001
0100
0001
1000
0100
,
0010
0001
1000
0010
0100
0001
0100
0010
1000
0100
1000
0001
0010
0100
1000
0001
,
0100
0010
0100
0001
1000
0010
0100
0001
1000
0001
0100
0010
1000
0100
1000
0001
,
0010
0100
1000
0001
0100
0000
0000
0000
M110
0000
0000
0000
1010
0000
0000
0000
,
1000
0100
1000
0001
0010
0001
0100
0010
0100
0001
1000
0001
0010
0100
0010
0001
,
0100
0010
1000
0100
1000
0010
0100
0001
1000
0100
1000
0010
1000
0100
0010
0100
,
1000
0001
0100
0010
0100
0001
1000
0100
0010
0001
0100
0010
0100
0001
1000
0010
,
0100
0001
1000
0100
1000
0001
0100
0010
1000
0000
0000
0000
0101
0000
0000
0000
,
1100
1010
0011
0000
;

//---------------dance-single - ----------------
#NOTES:
     dance-single:
     :
     Medium:
     5:
     0.371460,0.437537,0.269254,0.423113,0.000000,338.000000,303.000000,35.000000,55.000000,0.000000,0.000000,0.371460,0.437537,0.269254,0.423113,0.000000,338.000000,303.000000,35.000000,55.000000,0.000000,0.000000:
// measure 0
0000
0000
0000
0000
,  // measure 1
0000
0000
0000
0000
,  // measure 2
0000
0000
0000
0000
,  // measure 3
0000
0000
0000
0000
,  // measure 4
1001
0000
0000
0200
0000
0300
0002
0000
,  // measure 5
0003
2000
0000
3000
0100
0000
0010
0000
,  // measure 6
0100
0000
0000
2000
0000
3000
0002
0000
,  // measure 7
0003
0020
0000
0030
1000
0000
0001
0000
,  // measure 8
0100
0000
0101
0000
0000
0200
0000
0300
,  // measure 9
0020
0000
0030
0002
0000
0003
1000
0000
,  // measure 10
0001
0000
1000
0000
0000
0020
0000
0030
,  // measure 11
0200
0000
0300
2000
0000
3000
0001
0000
,  // measure 12
1000
0000
0100
0000
0000
0020
0000
0030
,  // measure 13
2000
0000
3000
0002
0000
0003
0010
0000
,  // measure 14
0100
0000
0010
0000
0000
0002
0000
0003
,  // measure 15
2000
0000
3000
0200
0000
0300
0010
0000
,  // measure 16
0001
0100
0010
2002
,  // measure 17
3003
1000
0001
0000
0020
0000
0030
0100
,  // measure 18
1000
0200
0300
0010
,  // measure 19
0000
1001
0000
0000
0100
0000
0000
0001
,  // measure 20
1000
0100
0010
0100
,  // measure 21
0000
1000
0001
0000
0101
0000
0000
0001
,  // measure 22
1000
1100
0000
0010
,  // measure 23
0000
1001
0000
0000
0100
0000
0010
1000
,  // measure 24
0100
0000
1000
0001
0100
0000
0102
0000
,  // measure 25
0023
0230
2300
3002
,  // measure 26
0203
0320
2030
3200
,  // measure 27
0320
0032
2003
3020
,  // measure 28
0230
0302
2003
3100
,  // measure 29
1000
0001
0000
1000
0001
0000
0100
0010
,  // measure 30
0000
0100
0010
0000
1000
0000
0001
0000
,  // measure 31
1000
0001
0000
1000
0001
0000
1000
0001
,  // measure 32
0000
1000
0001
0000
1001
0000
0010
0000
,  // measure 33
0001
0010
0000
0010
0100
0000
1000
0010
,  // measure 34
0000
0010
0100
0000
0110
0000
0001
0000
,  // measure 35
0001
1000
0000
1000
0001
0000
0001
1000
,  // measure 36
0000
1000
0001
0000
0110
0000
1001
0000
,  // measure 37
0000
0000
0000
0110
0000
0000
0000
0000
,  // measure 38
0000
0000
0000
2000
0000
3000
0002
0000
,  // measure 39
0003
0020
0000
0030
0200
0000
0300
2000
,  // measure 40
0000
3000
0001
0000
0100
0000
0020
0000
,  // measure 41
0000
0000
0000
0000
,  // measure 42
0000
0030
0000
2000
,  // measure 43
3000
0002
0000
0003
0200
0000
0300
0020
,  // measure 44
0000
0030
2000
0000
0000
0000
3100
0000
,  // measure 45
0000
0000
0010
0000
0001
1000
0001
0000
,  // measure 46
0000
0000
0100
0000
0010
1000
0100
0000
,  // measure 47
0000
0000
1000
0000
0001
0100
0010
0000
,  // measure 48
0000
0000
1000
0000
0100
0010
0001
0000
,  // measure 49
0000
0000
0010
0000
0001
1000
0010
0000
,  // measure 50
0000
0000
0100
0000
0001
0010
0100
0000
,  // measure 51
0000
0000
1000
0000
0100
0010
0001
0000
,  // measure 52
0000
0000
1000
0000
0010
1000
0100
0000
,  // measure 53
0000
0000
1000
0000
0001
0100
0010
0000
,  // measure 54
0000
0000
1000
0000
0001
0010
0001
0000
,  // measure 55
0000
0000
1000
0000
0100
0010
0100
0000
,  // measure 56
0000
0000
1000
0000
0010
0100
0001
0000
,  // measure 57
2000
3100
0001
0010
,  // measure 58
0200
0310
0001
1000
,  // measure 59
0001
0100
0010
0000
1000
0000
0100
0000
,  // measure 60
0020
0130
1000
0001
,  // measure 61
2000
3100
0001
0010
,  // measure 62
0002
0103
1000
0100
,  // measure 63
0010
0001
1000
0100
,  // measure 64
0010
0100
0010
1001
,  // measure 65
0010
1000
0200
0000
0000
0000
0000
0000
,  // measure 66
0000
1300
0001
0101
,  // measure 67
0000
1000
0000
0000
1001
0000
0000
0010
,  // measure 68
0000
1001
0000
1000
,  // measure 69
0000
0001
0000
0000
1001
0000
0000
0100
,  // measure 70
0000
0110
0110
0001
,  // measure 71
0000
1000
0000
0000
0100
0000
0000
0010
,  // measure 72
0000
1001
0000
0001
,  // measure 73
0000
1000
0000
0000
0010
0000
0000
1010
,  // measure 74
0000
0110
0110
0001
,  // measure 75
0000
0101
0000
0000
1000
0000
0000
0100
,  // measure 76
0000
1100
0000
1001
,  // measure 77
0000
0100
0000
0000
0110
0000
0000
0001
,  // measure 78
0000
1000
0001
1001
,  // measure 79
0010
0000
1000
0100
1000
0000
0001
0000
,  // measure 80
0100
0010
0100
0000
0101
0000
0100
0000
,  // measure 81
0010
0000
1000
0001
1000
0000
0010
0000
,  // measure 82
0100
0001
0010
0000
0110
0000
0100
0000
,  // measure 83
1000
0000
0100
0010
0001
0000
1000
0000
,  // measure 84
0001
0100
0010
0000
1001
0000
0001
0000
,  // measure 85
1000
0000
0001
0010
0100
0000
1000
0000
,  // measure 86
0001
1000
0110
1001
,  // measure 87
0010
0100
1001
0000
;

//---------------dance-single - ----------------
#NOTES:
     dance-single:
     :
     Easy:
     3:
     0.223096,0.302910,0.030772,0.153859,0.000000,203.000000,199.000000,4.000000,20.000000,0.000000,0.000000,0.223096,0.302910,0.030772,0.153859,0.000000,203.000000,199.000000,4.000000,20.000000,0.000000,0.000000:
// measure 0
0000
0000
0000
0000
,  // measure 1
0000
0000
0000
0000
,  // measure 2
0000
0000
0000
0000
,  // measure 3
0000
0000
0000
0000
,  // measure 4
1000
0000
0100
0000
,  // measure 5
0010
0001
0100
0000
,  // measure 6
0001
0000
1000
0000
,  // measure 7
0100
1000
0001
0100
,  // measure 8
0010
1000
0000
1000
,  // measure 9
0000
0010
0100
0001
,  // measure 10
0000
0010
0000
0100
,  // measure 11
0000
1000
0001
0100
,  // measure 12
0000
0010
0000
0100
,  // measure 13
0000
0001
1000
0010
,  // measure 14
0000
0100
0100
0010
,  // measure 15
0000
1000
0100
0010
,  // measure 16
0000
0001
0000
1000
,  // measure 17
0001
1000
0001
1000
,  // measure 18
0100
0001
0100
2000
,  // measure 19
3000
0002
0003
0200
,  // measure 20
0300
0020
0030
1000
,  // measure 21
0001
1000
0010
0001
,  // measure 22
0010
1000
0001
0200
,  // measure 23
0300
0020
0030
2000
,  // measure 24
3000
0200
0300
0020
,  // measure 25
0000
0000
0030
0200
,  // measure 26
0000
0000
0300
2000
,  // measure 27
0000
0000
3000
0002
,  // measure 28
0000
0000
0003
2002
,  // measure 29
0000
0000
3003
0000
,  // measure 30
0000
0010
0010
1000
,  // measure 31
1000
0100
0100
0001
,  // measure 32
0001
0010
0000
0220
,  // measure 33
0000
0000
0330
0001
,  // measure 34
0001
0100
0100
1000
,  // measure 35
1000
0001
0001
1000
,  // measure 36
1000
0100
0100
0001
,  // measure 37
0000
0000
0000
0000
,  // measure 38
0000
0000
0000
0220
0000
0330
0001
0000
,  // measure 39
0000
1000
0000
0000
0001
0000
0000
1000
,  // measure 40
0000
0001
1000
0002
,  // measure 41
0000
0000
0000
0003
,  // measure 42
0000
0000
0000
2000
,  // measure 43
0000
0000
0000
3000
,  // measure 44
0000
0000
0000
0100
,  // measure 45
0000
0100
0000
0010
,  // measure 46
0000
0010
0000
0100
,  // measure 47
0000
0100
0000
0010
,  // measure 48
0000
0010
0000
0001
,  // measure 49
0000
0001
0000
1000
,  // measure 50
0000
0001
0000
1000
,  // measure 51
0000
0010
0000
1000
,  // measure 52
0000
0001
1000
0100
,  // measure 53
0000
0010
0000
0001
,  // measure 54
0000
0100
0000
0001
,  // measure 55
0000
1000
0000
0001
,  // measure 56
0000
1000
0000
0100
,  // measure 57
0000
0010
0000
0100
,  // measure 58
0000
1000
0000
0001
,  // measure 59
0000
0010
0000
0100
,  // measure 60
0000
1000
0010
0100
,  // measure 61
0000
0001
0000
0010
,  // measure 62
0000
0100
1000
0010
,  // measure 63
0000
0100
0000
0001
,  // measure 64
0000
0010
0000
0100
,  // measure 65
1000
0001
0000
0000
,  // measure 66
0000
1000
0001
0100
,  // measure 67
0100
0010
0010
1000
,  // measure 68
0001
0100
0000
0010
,  // measure 69
0000
0000
0000
0000
,  // measure 70
0000
0100
0000
0001
,  // measure 71
0000
0010
0000
0100
,  // measure 72
1000
0001
0000
1000
,  // measure 73
0000
0001
0000
0100
,  // measure 74
0000
0010
0010
1000
,  // measure 75
0000
0100
0000
0010
,  // measure 76
0000
0001
0000
0010
,  // measure 77
0000
0100
0000
1000
,  // measure 78
0000
1000
0000
0001
,  // measure 79
0100
1000
0100
0001
,  // measure 80
0000
1000
0010
0000
,  // measure 81
0100
1000
0100
0001
,  // measure 82
0000
0010
0100
0000
,  // measure 83
0010
1000
0010
0001
,  // measure 84
0000
1000
0100
0000
,  // measure 85
0010
0100
0010
1000
,  // measure 86
0000
0001
0010
1000
,  // measure 87
0100
0010
1001
0000
;

//---------------dance-single - ----------------
#NOTES:
     dance-single:
     :
     Beginner:
     1:
     0.135176,0.201940,0.030772,0.000000,0.000000,123.000000,119.000000,4.000000,0.000000,0.000000,0.000000,0.135176,0.201940,0.030772,0.000000,0.000000,123.000000,119.000000,4.000000,0.000000,0.000000,0.000000:
// measure 0
0000
0000
0000
0000
,  // measure 1
0000
0000
0000
0000
,  // measure 2
0000
0000
0000
0000
,  // measure 3
0000
0000
0000
0000
,  // measure 4
0010
0000
0000
0000
,  // measure 5
1000
0000
0000
0000
,  // measure 6
0001
0000
0000
0000
,  // measure 7
1000
0000
0000
0000
,  // measure 8
0000
0100
0000
0000
,  // measure 9
0000
0010
0000
0000
,  // measure 10
0000
0001
0000
0000
,  // measure 11
0000
0100
0000
0000
,  // measure 12
0000
0010
0000
0000
,  // measure 13
0000
1000
0000
0000
,  // measure 14
0000
0100
0000
0000
,  // measure 15
0000
1000
0000
0000
,  // measure 16
0000
0000
0000
1001
,  // measure 17
0000
0010
0000
0001
,  // measure 18
0000
0010
0000
1000
,  // measure 19
0000
0100
0000
0010
,  // measure 20
0000
0001
0000
1000
,  // measure 21
0000
0001
0000
1000
,  // measure 22
0000
0001
0000
0100
,  // measure 23
0000
0100
0000
0010
,  // measure 24
0000
0010
0000
1001
,  // measure 25
0000
0000
0000
0100
,  // measure 26
0000
0000
0000
0001
,  // measure 27
0000
0000
0000
1000
,  // measure 28
0000
0000
0000
0100
,  // measure 29
0000
0010
0000
0100
,  // measure 30
0000
0010
0010
0010
,  // measure 31
0000
0100
0000
0010
,  // measure 32
0000
0100
0000
1000
,  // measure 33
0000
0001
0000
0100
,  // measure 34
0000
0010
0000
1000
,  // measure 35
0000
1000
0000
0001
,  // measure 36
0000
0001
0000
0100
,  // measure 37
0000
0000
0000
0000
,  // measure 38
0000
0000
0010
0000
,  // measure 39
0000
0010
0000
0000
,  // measure 40
0000
0000
0000
0010
,  // measure 41
0000
0000
0000
0000
,  // measure 42
0000
0000
0000
1000
,  // measure 43
0000
0000
0000
0000
,  // measure 44
0000
0000
0000
0000
,  // measure 45
0100
0000
0000
0100
,  // measure 46
0000
0000
0000
0100
,  // measure 47
0000
0000
0000
0100
,  // measure 48
0000
0000
0000
0100
,  // measure 49
0000
0000
0000
0001
,  // measure 50
0000
0001
0000
0001
,  // measure 51
0000
0010
0000
0000
,  // measure 52
0000
0100
0000
1000
,  // measure 53
0000
1000
0000
0000
,  // measure 54
0000
0001
0000
1000
,  // measure 55
0000
0000
0000
0000
,  // measure 56
0000
0000
0000
0100
,  // measure 57
0000
0000
0000
0001
,  // measure 58
0000
0001
0000
0001
,  // measure 59
0000
0010
0000
0000
,  // measure 60
0000
0100
0000
1000
,  // measure 61
0000
1000
0000
0000
,  // measure 62
0000
0001
0000
1000
,  // measure 63
0000
0010
0000
0100
,  // measure 64
0000
0001
0000
0010
,  // measure 65
0000
0100
0000
0000
,  // measure 66
0000
1000
0000
0001
,  // measure 67
0000
0001
0000
0001
,  // measure 68
0000
0100
0000
1000
,  // measure 69
0000
0000
0000
0000
,  // measure 70
0000
0000
0000
0010
,  // measure 71
0000
0100
0000
0001
,  // measure 72
0000
0000
0000
1000
,  // measure 73
0000
0100
0000
0010
,  // measure 74
0000
0000
0000
0100
,  // measure 75
0000
1000
0000
0001
,  // measure 76
0000
0000
0000
1000
,  // measure 77
0000
0010
0000
0100
,  // measure 78
0000
0001
0001
0000
,  // measure 79
1001
0000
0100
0000
,  // measure 80
1000
0000
0100
0000
,  // measure 81
0001
0000
0100
0000
,  // measure 82
1000
0000
1000
0000
,  // measure 83
0001
0000
0000
0000
,  // measure 84
0010
0000
0000
0000
,  // measure 85
0100
0000
1000
0000
,  // measure 86
0001
0000
0100
0000
,  // measure 87
1000
0000
1001
0000
;
