#VERSION:0.83;
#TITLE:Fallen Angel;
#SUBTITLE:The Howling Eye;
#ARTIST:Masayoshi Soken;
#TITLETRANSLIT:;
#SUBTITLETRANSLIT:;
#ARTISTTRANSLIT:;
#GENRE:A Realm Reborn;
#ORIGIN:;
#CREDIT:[Ness];
#BANNER:Final Fantasy XIV - Fallen Angel.png;
#BACKGROUND:Final Fantasy XIV - Fallen Angel-bg.png;
#PREVIEWVID:;
#JACKET:Final Fantasy XIV - Fallen Angel-jacket.png;
#CDIMAGE:;
#DISCIMAGE:;
#LYRICSPATH:;
#CDTITLE:;
#MUSIC:Final Fantasy XIV - Fallen Angel.mp3;
#OFFSET:-0.029000;
#SAMPLESTART:77.152252;
#SAMPLELENGTH:13.714287;
#SELECTABLE:YES;
#BPMS:0.000=140.000;
#STOPS:80.000=1.286;
#DELAYS:;
#WARPS:;
#TIMESIGNATURES:0.000=4=4;
#TICKCOUNTS:0.000=2;
#COMBOS:0.000=1;
#SPEEDS:0.000=1.000=0.000=0;
#SCROLLS:0.000=1.000;
#FAKES:;
#LABELS:0.000=Song Start;
#LASTSECONDHINT:136.783691;
#BGCHANGES:;
#KEYSOUNDS:;
#ATTACKS:
;

//---------------dance-single - ----------------
#NOTEDATA:;
#CHARTNAME:[Ness];
#STEPSTYPE:dance-single;
#DESCRIPTION:[Ness];
#CHARTSTYLE:;
#DIFFICULTY:Challenge;
#METER:10;
#RADARVALUES:0.606817,0.738041,0.123438,0.290442,0.584515,585.000000,568.000000,17.000000,40.000000,0.000000,0.000000,0.000000,0.000000,0.000000,0.606817,0.738041,0.123438,0.290442,0.584515,585.000000,568.000000,17.000000,40.000000,0.000000,0.000000,0.000000,0.000000,0.000000;
#CREDIT:[Ness];
#NOTES:
0000
0000
0000
0000
,
0000
0000
0000
0000
,
0000
0000
0000
0000
,
0000
0000
0000
0000
,
2000
0000
0000
0000
,
3020
0000
0230
0000
,
0301
1000
0001
0200
,
0000
0000
0300
0000
,
2000
0000
0000
0000
,
3020
0000
0230
0000
,
0301
0010
1000
0020
,
0000
0000
0030
0000
,
0200
0000
0000
0000
,
0320
0000
0000
0000
,
0031
1000
0001
0200
,
0000
0000
0300
0000
,
0001
1000
0000
0202
0000
0303
2020
0000
,
3030
2002
0000
3003
2100
0000
0010
0000
,
3100
1000
0000
0220
0000
0330
0022
0000
,
0033
2002
0000
3003
0201
0000
2000
0000
,
0000
3300
0000
0000
0000
0000
0000
0000
0000
0000
0000
0000
0000
0000
0000
0000
0000
0000
0000
0000
0000
0000
0000
0000
0000
0000
0000
0000
0000
0000
0000
0000
0000
0000
0000
0000
0000
0000
0000
0000
0000
0000
0000
0000
0000
0000
0000
0000
1001
0000
0000
0000
0000
0000
0000
0000
0000
0000
0000
0000
0000
0000
0000
0000
0000
0000
0000
0000
0000
0000
0000
0000
1000
0000
0000
0000
0000
0000
0000
0000
0000
0000
0000
0000
0100
0000
0000
0000
0000
0000
0000
0000
0000
0000
0000
0000
0000
0000
0000
0000
0000
0000
0000
0000
0000
0000
0000
0000
0001
0000
0000
0000
0000
0000
0000
0000
0000
0000
0000
0000
0010
0000
0000
0000
0000
0000
0000
0000
0000
0000
0000
0000
0000
0000
0000
0000
0000
0000
0000
0000
0000
0000
0000
0000
0100
0000
0000
0000
0000
0000
0000
0000
0000
0000
0000
0000
1000
0000
0000
0000
0000
0000
0000
0000
0000
0000
0000
0000
0000
0000
0000
0000
0000
0000
0000
0000
0000
0000
0000
0000
0001
0000
0000
0000
0000
0000
0000
0000
0000
0000
0000
0000
,
0000
1000
0010
0000
0100
0000
0001
1000
0000
1000
0100
0000
0000
0010
0001
0000
,
0001
1000
0000
1000
0010
0000
0100
0001
1000
0000
0100
0000
0010
0000
0001
0100
,
0010
0000
1000
0000
0100
0010
0001
0000
0001
1000
0000
1000
0010
0000
0100
0001
,
1000
0000
1000
0001
1000
0000
1000
0100
1000
0000
0010
0000
0100
0000
0001
0100
,
0001
0000
0010
0000
0001
0000
1000
0010
0001
0000
0010
0000
1000
0000
0001
0100
,
0010
0000
1000
0000
0001
0000
1000
0100
0010
0000
0001
0000
1000
0000
0001
0100
,
1000
0000
0001
0000
0010
1000
0010
0000
0100
0001
0000
0001
1000
0000
0010
0000
,
0100
0000
0001
1000
0001
0000
0010
0100
1000
0000
0001
0000
1000
0000
0010
0100
,
0001
0000
1000
0000
0100
0000
0001
0100
1000
0000
0010
0000
0001
0010
0001
0000
,
0010
1000
0010
0000
0001
0000
0010
1000
0100
0000
1000
0000
0001
0000
1000
0100
,
0010
0000
0001
0000
1000
0000
0010
1000
0001
0000
0010
0000
0100
1000
0100
0000
,
0000
1000
0001
1000
0001
0000
0100
0010
1000
0000
0010
0000
0100
0000
1000
0100
,
0001
0000
0100
0000
0010
0000
1000
0100
0010
0000
0001
0000
1000
0000
0001
0010
,
0001
0000
1000
0100
0010
0000
0100
1000
0001
0000
1000
0000
0010
0000
1000
0001
,
0000
1000
0100
0000
0001
1000
0000
0001
0010
0000
0010
1000
0000
1000
0001
0000
,
1000
0010
0000
0001
0200
0000
0000
0000
0020
0000
0000
0000
0330
0000
0000
0000
,
1000
0010
0001
0100
0020
0000
0000
0000
0200
0000
0000
0000
0330
0000
0000
0000
,
0001
1000
0010
0100
0002
0000
0000
0000
2000
0000
0000
0000
3003
0000
0000
0000
,
0100
0001
1000
0010
0002
0000
0000
0000
2000
0000
0000
0000
3003
0000
0000
0000
,
0001
0010
0100
1000
0020
0000
0000
0000
2000
0000
0000
0000
3030
0000
0001
0000
,
0100
0010
1000
0010
0200
0000
0000
0000
0002
0000
0000
0000
0303
0000
0000
0000
,
1000
0010
1000
0100
0020
0000
0000
0000
0032
0000
0000
0000
1003
0000
0000
0010
,
0000
0000
0100
0000
0001
0000
1000
0001
0100
0000
0000
0000
0001
1000
0100
0000
,
0000
0000
0000
0000
1000
0000
0000
1000
0001
0000
0000
0001
1000
0000
0000
1000
,
0010
0000
0000
0010
0001
0000
0000
0001
0010
0000
0000
0010
1000
0000
0000
1000
,
0001
0000
0000
0001
0100
0000
0000
1000
0010
0000
0000
1000
0100
0000
0000
0001
,
0100
0000
0000
0100
0010
0000
0000
0010
1000
0000
0000
1000
0001
0000
0000
0001
,
0010
0000
0100
1000
0001
0000
0000
0001
0010
0000
0000
0010
0100
0000
0000
0100
,
1000
0000
0000
1000
0010
0000
0000
0010
1000
0000
0000
1000
0001
0000
0000
0001
,
0010
0000
0000
0010
0100
0000
0000
0001
0010
0000
0000
0001
1000
0000
0000
0010
,
0001
0000
0000
0001
1000
0000
0010
1000
0000
1000
0001
0000
0010
0001
0000
0001
,
1000
0000
0010
0100
0001
0000
1000
0000
0010
0000
1000
0100
0001
0000
0010
0000
,
0001
0000
0100
0010
1000
0000
0100
0000
0010
0000
0001
0100
1000
0000
0100
0000
,
0010
0000
1000
0100
0010
0000
0001
0000
1000
0000
0010
0001
0100
0000
0001
0000
,
0010
0000
0100
1000
0001
0000
0010
0000
1000
0000
0001
0100
1000
0000
0100
0001
,
0000
0001
1000
0000
0010
0000
0100
0001
1000
0000
0010
0000
1000
0000
0001
0100
,
1000
0000
0100
0000
0010
0000
1000
0100
0010
0000
0001
0000
1000
0000
0010
0001
,
0010
0000
1000
0000
0001
0000
1000
0100
0010
0000
0001
0000
1000
0000
0001
0100
,
1000
0000
0100
0000
0010
0000
1000
0100
0000
0100
0001
0000
1000
0010
0000
0010
,
0001
0000
1000
0001
0100
0000
0000
0000
0010
0000
0000
0000
1000
0000
0000
0000
,
1001
0010
0001
0000
1000
0000
0100
0010
,
1001
0001
1000
0000
0100
0000
0010
0000
,
1001
0000
0001
0000
0100
0000
0001
1000
0001
0000
0100
0000
0010
0000
1000
0000
,
0001
0010
0100
1000
0001
0000
0000
0000
0010
0000
0000
0000
0100
0000
0000
0000
,
1001
0000
0100
1000
0001
1000
0010
0001
,
1001
1000
0100
0001
0100
1000
0001
0010
,
1001
0000
1000
0000
0100
0000
0001
1000
0100
0000
0010
0000
0001
0000
1000
0000
,
0010
1000
0001
0100
0010
0000
1000
0000
0001
0000
0010
0000
0100
0000
1000
0000
,
1001
0000
0001
0000
0100
0000
0001
1000
0001
0000
0100
0000
0010
1000
0001
0010
,
0000
0000
0000
0000
1001
0000
1000
0001
0100
0000
0010
1000
0010
0000
0100
1000
,
0100
0000
0001
1000
0001
0000
0010
0100
0010
0000
0001
1000
0001
0000
0010
0001
,
0010
0000
1000
0001
1000
0000
0100
0001
0100
0000
1000
0001
1000
0000
0010
1000
,
0010
0000
0100
1000
0100
0000
0001
1000
0001
0000
0100
0010
0100
0000
0001
1000
,
0001
0000
0010
0000
0100
0000
1000
0100
0010
0000
0100
0010
0001
0000
0010
0001
,
1000
0000
0001
1000
0100
0000
1000
0100
0010
0000
0100
0010
0001
0000
0010
0001
,
1000
0000
0001
0100
0010
0000
1000
0001
0100
0000
0010
1000
0100
0000
0010
0001
,
0100
0000
0010
1000
0100
0000
0001
0100
0000
1000
0100
0000
0001
0100
0000
1000
,
0100
0000
0001
0100
0000
0000
0000
0000
0000
0000
0000
0000
0000
0000
0000
0000
;

//---------------dance-single - ----------------
#NOTEDATA:;
#CHARTNAME:[Ness];
#STEPSTYPE:dance-single;
#DESCRIPTION:[Ness];
#CHARTSTYLE:;
#DIFFICULTY:Hard;
#METER:8;
#RADARVALUES:0.460558,0.623997,0.210571,0.348531,0.261398,444.000000,415.000000,29.000000,48.000000,0.000000,0.000000,0.000000,0.000000,0.000000,0.460558,0.623997,0.210571,0.348531,0.261398,444.000000,415.000000,29.000000,48.000000,0.000000,0.000000,0.000000,0.000000,0.000000;
#CREDIT:[Ness];
#NOTES:
0000
0000
0000
0000
,
0000
0000
0000
0000
,
0000
0000
0000
0000
,
0000
0000
0000
0000
,
0200
0000
0000
0000
,
0320
0000
2030
0000
,
3001
0010
0001
0200
,
0000
0000
0300
0000
,
0002
0000
0000
0000
,
0023
0000
0230
0000
,
1300
0001
0100
0020
,
0000
0000
0030
0000
,
0200
0000
0000
0000
,
0302
0000
0000
0000
,
1003
0010
1000
0200
,
0000
0000
0300
0000
,
0001
0010
0000
0200
0000
0300
2000
0000
,
3000
0020
0000
0030
0200
0000
0001
0000
,
0310
0100
0000
0002
0000
0003
0020
0000
,
0030
0200
0000
0300
2000
0000
0002
0000
,
0000
3003
0000
0000
0000
0000
0000
0000
0000
0000
0000
0000
0000
0000
0000
0000
0000
0000
0000
0000
0000
0000
0000
0000
0000
0000
0000
0000
0000
0000
0000
0000
0000
0000
0000
0000
0000
0000
0000
0000
0000
0000
0000
0000
0000
0000
0000
0000
1001
0000
0000
0000
0000
0000
0000
0000
0000
0000
0000
0000
0000
0000
0000
0000
0000
0000
0000
0000
0000
0000
0000
0000
0000
0000
0000
0000
0000
0000
0000
0000
0000
0000
0000
0000
1100
0000
0000
0000
0000
0000
0000
0000
0000
0000
0000
0000
0000
0000
0000
0000
0000
0000
0000
0000
0000
0000
0000
0000
0000
0000
0000
0000
0000
0000
0000
0000
0000
0000
0000
0000
1001
0000
0000
0000
0000
0000
0000
0000
0000
0000
0000
0000
0000
0000
0000
0000
0000
0000
0000
0000
0000
0000
0000
0000
0000
0000
0000
0000
0000
0000
0000
0000
0000
0000
0000
0000
0101
0000
0000
0000
0000
0000
0000
0000
0000
0000
0000
0000
0000
0000
0000
0000
0000
0000
0000
0000
0000
0000
0000
0000
0000
0000
0000
0000
0000
0000
0000
0000
0000
0000
0000
0000
,
0000
1001
0000
0000
0010
0000
0000
1100
0000
0000
1001
0000
0010
0000
0000
0101
,
0000
1001
2010
0000
3001
0000
0012
0000
,
1003
0000
0000
0000
0010
0000
0100
0000
0000
1001
0000
0000
0010
0000
0100
0000
,
0001
1000
0100
1000
0001
0000
0100
0001
,
1000
0000
0010
1000
0001
0000
0010
0001
,
0100
0010
1000
0100
0010
0000
0001
1000
,
0010
0000
0000
0000
0100
0000
0001
0000
1000
0000
0000
1001
0000
0000
0001
0000
,
0010
0001
1000
0000
2010
0000
3001
0000
,
0012
0000
1003
0010
1000
0000
0001
0100
,
0010
1000
0001
0010
0002
0000
1003
0100
,
2000
0000
3001
0010
0001
0001
1000
0100
,
1000
0000
0001
1000
0001
0000
0100
0000
0010
0000
0000
0000
1000
0000
0100
0000
,
1000
0000
0001
0010
1000
0000
0010
0001
,
1000
0000
0100
0000
0010
0000
0001
0000
1000
0000
0000
0000
0010
0000
0000
1001
,
0000
0000
0100
0000
0010
0000
0000
1100
0000
0000
1001
0000
0010
0000
0000
0101
,
0000
1001
0200
0000
0020
0000
0330
0000
,
1000
0010
1000
0000
0020
0000
0000
0000
0200
0000
0000
0000
0330
0000
0000
0000
,
0100
0010
0100
0000
0002
0000
0000
0000
2000
0000
0000
0000
3003
0000
0000
0000
,
1000
0100
1000
0000
0002
0000
0000
0000
2000
0000
0000
0000
3003
0000
0000
0000
,
0100
0001
0100
0000
0020
0000
0000
0000
2000
0000
0000
0000
3030
0000
0001
0000
,
0010
0100
0010
0000
0200
0000
0000
0000
2000
0000
0000
0000
3300
0000
0000
0000
,
1000
0001
1000
0000
0020
0000
0000
0000
0230
0000
0000
0000
0301
0000
0000
0010
,
0000
0000
0100
0000
1000
0000
0100
1000
0100
0000
0000
0000
0010
0001
0010
0000
,
0000
0000
0000
0000
1000
0000
0000
1000
0001
0000
0000
0001
1000
0000
0000
1000
,
0010
0000
0000
0010
0001
0000
0000
0001
0010
0000
0000
0010
1000
0000
0000
1000
,
0001
0000
0000
0001
0200
0000
0000
0000
0320
0000
0000
0000
2030
0000
0000
0000
,
3200
0000
0310
0000
0001
0000
1000
0010
,
0100
0000
0001
0000
0010
0000
0000
0010
0001
0000
0000
0001
1000
0000
0000
1000
,
0100
0000
0000
0100
0010
0000
0000
0010
0001
0000
0000
0001
1000
0000
0000
1000
,
0010
0000
0000
0010
0200
0000
0000
0000
0302
0000
0000
0000
0023
0000
0000
0000
,
0230
0000
0000
0000
1300
0000
0000
1001
0000
0000
0101
0000
0000
1001
0000
0000
,
1100
0000
0000
0000
0001
0000
0000
0001
1000
0000
0000
1000
0010
0000
0000
0010
,
0001
0000
0000
0001
0010
0000
0000
0010
1000
0000
0000
1000
0100
0000
0000
0100
,
0010
0000
0000
0010
0001
0000
0000
0001
1000
0000
0000
1000
0001
0000
0000
0001
,
0100
0000
0000
0100
0010
0000
0000
0010
1000
0000
0000
1000
0100
0000
0000
0100
,
1000
0000
0000
0000
0001
0000
0000
0001
1000
0000
0000
1000
0001
0000
0000
0001
,
1000
0000
0000
1000
0010
0000
0000
0010
0001
0000
0000
0001
0010
0000
0000
0010
,
1000
0000
0000
1000
0001
0000
0000
0001
0100
0000
0000
0100
0010
0000
0000
0010
,
1000
0000
0000
1000
0100
0000
0000
1001
0000
0000
0011
0000
0000
1001
0000
0000
,
1100
0100
0010
0001
,
1000
0100
0001
0000
1000
0000
0100
0010
,
0001
1000
0010
0000
0100
0000
0010
0000
,
1000
0000
0001
0000
0100
0000
0001
1000
0001
0000
0100
0000
0010
0000
1000
0000
,
0001
1000
0001
0000
1000
0000
0000
0000
0010
0000
0000
0000
0100
0000
0000
0000
,
1001
0000
0100
0001
1000
0100
0010
0100
,
1000
0000
0001
0010
0001
0000
1000
0100
,
0010
0000
0000
0000
0001
0000
1000
0001
1000
0000
0000
0000
0010
0000
0100
0000
,
0001
0100
0001
0000
0100
0000
0000
0000
0010
0000
0000
0000
1000
0000
0100
0000
,
0010
0000
0001
0000
0100
0000
0001
0000
1000
0000
0001
0000
0010
0000
0001
1000
,
0000
0000
0001
0100
0001
0100
0001
0100
,
1000
0100
0010
1000
0001
0100
0001
0100
,
1000
0100
0010
0100
0010
0100
0010
1000
,
0010
1000
0001
0010
0100
1000
0100
0010
,
0001
0000
1000
0010
1000
0100
1000
0010
,
1000
0100
0010
0001
0100
0001
0010
0001
,
0100
0001
1000
0010
1000
0100
0010
0001
,
0100
0010
1000
0001
0100
0010
0100
0001
,
1000
0010
0000
0000
0000
0000
0000
0000
;

//---------------dance-single - ----------------
#NOTEDATA:;
#CHARTNAME:[Ness];
#STEPSTYPE:dance-single;
#DESCRIPTION:[Ness];
#CHARTSTYLE:;
#DIFFICULTY:Medium;
#METER:6;
#RADARVALUES:0.364090,0.453816,0.486491,0.108916,0.000000,351.000000,284.000000,67.000000,15.000000,0.000000,0.000000,0.000000,0.000000,0.000000,0.364090,0.453816,0.486491,0.108916,0.000000,351.000000,284.000000,67.000000,15.000000,0.000000,0.000000,0.000000,0.000000,0.000000;
#CREDIT:[Ness];
#NOTES:
0000
0000
0000
0000
,
0000
0000
0000
0000
,
0000
0000
0000
0000
,
0000
0000
0000
0000
,
0200
0000
0000
0000
,
0320
0000
2030
0000
,
3001
1000
0001
0200
,
0000
0000
0300
0000
,
0002
0000
0000
0000
,
0023
0000
0230
0000
,
1300
0010
0001
0020
,
0000
0000
0030
0000
,
0200
0000
0000
0000
,
0302
0000
0000
0000
,
1003
0010
1000
0200
,
0000
0000
0300
0000
,
0001
0010
1000
0100
,
0010
0001
0100
0110
,
1000
0100
0001
0100
,
1000
0010
0100
0110
,
0000
0000
0001
0001
0000
2000
0000
0000
,
3010
0000
0000
0001
0000
0000
0110
0000
,
1001
0000
1000
1000
0000
0200
0000
0000
,
0301
0000
0000
0010
0000
0000
1000
0000
,
0110
0000
0001
0001
0000
0100
0000
0000
,
1001
0000
0000
0010
0000
0000
1000
0001
,
0100
0000
0010
1000
0000
1001
0000
0000
,
0010
0000
0000
1001
0000
0000
0100
0000
,
0010
0000
1000
0100
0000
1001
0000
0000
,
0011
0000
0000
1001
0000
0000
0101
0000
,
1001
0000
0001
0100
0000
1001
0000
0000
,
1010
0000
0000
1001
0000
0000
1100
0000
,
1001
0000
1000
0100
0000
0110
0000
0000
,
0011
0000
0000
0110
0000
0000
1100
0000
,
0101
0000
0001
0100
0000
0110
0000
0000
,
1010
0000
0000
0110
0000
0000
0001
1000
,
0100
0010
0010
0000
,
0001
0100
0001
0000
1001
0000
0000
0000
,
1000
0010
0100
0000
0010
0000
0000
0000
,
1000
0100
0010
0000
1001
0000
0000
0000
,
0010
0001
0100
0000
1010
0000
0000
0000
,
0100
0001
1000
0000
0001
0000
0000
0000
,
0010
0100
1000
0000
1001
0000
0000
0000
,
1000
0010
0100
0010
1000
0000
1000
0100
,
0000
1000
1100
0001
,
0101
0010
1001
0100
,
1001
0000
0010
1000
0100
0000
0010
0001
,
0010
0100
1000
0001
,
0110
0010
1010
1000
,
1001
0010
0011
0001
,
1001
0000
0001
0100
0001
0000
1000
0100
,
1000
0000
0010
0100
0001
0000
1000
0010
,
0100
0010
1001
0100
,
1001
1000
1010
0001
,
0011
0000
1000
0001
0100
0000
0010
1000
,
0100
0010
0110
0001
,
1001
0100
0101
1000
,
1100
0001
0101
1000
,
1010
1001
0101
1001
,
1100
0000
0100
0000
0010
0000
0001
0100
,
0001
2002
3003
0010
,
1000
0100
0100
0001
,
0100
1000
0010
0100
,
0001
0000
0001
0000
0010
0000
1000
0010
,
0001
0000
0010
0100
1000
0000
0001
0000
,
1001
0000
0010
0000
0100
0000
0010
1000
,
0010
0000
0100
0001
0100
0000
0010
0000
,
1000
0000
0001
0000
0010
0000
0100
1000
,
0100
0000
0010
0000
0001
0000
1000
0001
,
0100
0010
1000
0100
,
0010
0001
0101
0110
,
0101
1000
1010
0110
,
1010
0000
0010
0100
0010
0000
1000
0010
,
1000
0000
0001
0100
0001
0000
1000
0100
,
1000
0001
0011
0110
,
0011
1000
1100
0110
,
1100
0000
0010
1000
0010
0000
0100
0001
,
0100
0010
1000
0001
,
0010
0100
0000
0000
0000
0000
0000
0000
;

//---------------dance-single - ----------------
#NOTEDATA:;
#CHARTNAME:[Ness];
#STEPSTYPE:dance-single;
#DESCRIPTION:[Ness];
#CHARTSTYLE:;
#DIFFICULTY:Easy;
#METER:4;
#RADARVALUES:0.257249,0.311499,0.101655,0.254137,0.000000,248.000000,234.000000,14.000000,35.000000,0.000000,0.000000,0.000000,0.000000,0.000000,0.257249,0.311499,0.101655,0.254137,0.000000,248.000000,234.000000,14.000000,35.000000,0.000000,0.000000,0.000000,0.000000,0.000000;
#CREDIT:[Ness];
#NOTES:
// measure 0
0000
0000
0000
0000
,  // measure 1
0000
0000
0000
0000
,  // measure 2
0000
0000
0000
0000
,  // measure 3
0000
0000
0000
0000
,  // measure 4
0002
0000
0000
0000
,  // measure 5
0023
0000
0230
0000
,  // measure 6
1300
0100
0010
0002
,  // measure 7
0000
0000
0003
0000
,  // measure 8
0200
0000
0000
0000
,  // measure 9
0320
0000
2030
0000
,  // measure 10
3001
0100
0010
2000
,  // measure 11
0000
0000
3000
0000
,  // measure 12
0002
0000
0000
0000
,  // measure 13
2003
0000
0000
0000
,  // measure 14
3010
0100
0010
0200
,  // measure 15
0000
0000
0300
0000
,  // measure 16
0001
0000
0010
0000
,  // measure 17
1000
0000
0100
0010
,  // measure 18
0100
0000
1000
0000
,  // measure 19
0001
0000
0100
0010
,  // measure 20
0000
1000
0100
0010
,  // measure 21
0001
0010
0100
1000
,  // measure 22
1000
0001
0010
0100
,  // measure 23
1000
0100
0010
0001
,  // measure 24
0001
1000
0010
0100
,  // measure 25
0001
0100
0010
1000
,  // measure 26
1000
0001
1000
0010
,  // measure 27
0100
0001
0010
0100
,  // measure 28
0100
1000
0100
0010
,  // measure 29
0001
1000
0001
0100
,  // measure 30
0100
0010
1000
0001
,  // measure 31
0010
0100
1000
0001
,  // measure 32
0001
1000
0100
0001
,  // measure 33
0100
1000
0100
0010
,  // measure 34
0010
0001
0100
0010
,  // measure 35
1000
0100
0001
0100
,  // measure 36
1000
0001
0001
0000
,  // measure 37
1001
0010
0010
0000
,  // measure 38
0110
1000
1000
0000
,  // measure 39
1100
0010
0010
0000
,  // measure 40
0110
0001
0001
0000
,  // measure 41
0011
0100
0100
0000
,  // measure 42
0101
0010
0010
0000
,  // measure 43
0110
1000
0001
0100
,  // measure 44
0000
0010
0010
1000
,  // measure 45
1000
0002
0013
2000
,  // measure 46
3100
0010
0100
0010
,  // measure 47
0100
1000
0100
0010
,  // measure 48
0001
1000
0001
0100
,  // measure 49
0010
2000
3100
0002
,  // measure 50
0013
2000
3001
0200
,  // measure 51
0310
1000
0010
0100
,  // measure 52
0001
2000
0100
0100
,  // measure 53
3100
0020
0031
0200
,  // measure 54
0310
1000
0001
0100
,  // measure 55
0010
0100
0100
0100
,  // measure 56
0101
1000
0010
0100
,  // measure 57
0001
0010
0100
0010
,  // measure 58
0001
2000
3020
0230
,  // measure 59
0302
0023
0230
2300
,  // measure 60
0000
3001
0000
0000
,  // measure 61
0110
1000
0100
0010
,  // measure 62
0001
1000
0000
0000
,  // measure 63
1001
0100
0010
1000
,  // measure 64
0001
0010
0000
0000
,  // measure 65
1001
0010
0001
0010
,  // measure 66
1000
0000
0000
0000
,  // measure 67
1001
0010
1000
0100
,  // measure 68
0010
0001
0100
0010
,  // measure 69
1001
0010
0001
0010
,  // measure 70
1000
0200
0000
0000
,  // measure 71
1300
0010
0200
0000
,  // measure 72
0301
0020
0000
0230
,  // measure 73
0000
1300
0001
0100
,  // measure 74
0010
2000
0000
0000
,  // measure 75
3001
0100
0020
0000
,  // measure 76
1030
0200
0000
0320
,  // measure 77
0000
0031
1000
0010
,  // measure 78
0110
0000
0000
0000
;

//---------------dance-single - ----------------
#NOTEDATA:;
#CHARTNAME:[Ness];
#STEPSTYPE:dance-single;
#DESCRIPTION:[Ness];
#CHARTSTYLE:;
#DIFFICULTY:Beginner;
#METER:1;
#RADARVALUES:0.167004,0.254046,0.079872,0.000000,0.000000,161.000000,150.000000,11.000000,0.000000,0.000000,0.000000,0.000000,0.000000,0.000000,0.167004,0.254046,0.079872,0.000000,0.000000,161.000000,150.000000,11.000000,0.000000,0.000000,0.000000,0.000000,0.000000,0.000000;
#CREDIT:[Ness];
#NOTES:
// measure 0
0000
0000
0000
0000
,  // measure 1
0000
0000
0000
0000
,  // measure 2
0000
0000
0000
0000
,  // measure 3
0000
0000
0000
0000
,  // measure 4
0010
0000
0000
0000
,  // measure 5
1000
0000
0100
0000
,  // measure 6
0010
0010
0010
0010
,  // measure 7
0000
0000
0000
0000
,  // measure 8
0001
0000
0000
0000
,  // measure 9
1000
0000
0010
0000
,  // measure 10
0100
0100
0100
0100
,  // measure 11
0000
0000
0000
0000
,  // measure 12
0001
0000
0000
0000
,  // measure 13
1000
0000
0000
0000
,  // measure 14
0100
0100
0100
0100
,  // measure 15
0000
0000
0000
0000
,  // measure 16
0010
0000
0010
0000
,  // measure 17
0001
0000
1000
0000
,  // measure 18
0010
0000
0010
0000
,  // measure 19
1000
0000
0001
0000
,  // measure 20
0000
0010
0000
0100
,  // measure 21
0000
1000
0000
0010
,  // measure 22
0010
0010
0000
0100
,  // measure 23
0000
0001
0000
0010
,  // measure 24
0010
0010
0000
0100
,  // measure 25
0000
1000
0000
0001
,  // measure 26
0001
0001
0000
0100
,  // measure 27
0000
0010
0000
1000
,  // measure 28
1000
1000
0000
0100
,  // measure 29
0000
0010
0000
0001
,  // measure 30
0001
0001
0000
1000
,  // measure 31
0000
0010
0000
0100
,  // measure 32
0100
0100
0000
0001
,  // measure 33
0000
0010
0000
0100
,  // measure 34
0100
0100
0000
1000
,  // measure 35
0000
0001
0000
1000
,  // measure 36
1000
1000
0000
0000
,  // measure 37
0010
0010
0000
0000
,  // measure 38
0100
0100
0000
0000
,  // measure 39
0001
0001
0000
0000
,  // measure 40
0010
0010
0000
0000
,  // measure 41
0100
0100
0000
0000
,  // measure 42
1000
1000
0000
0000
,  // measure 43
0001
0001
0000
0000
,  // measure 44
0000
1001
0000
0000
,  // measure 45
0000
0010
0000
1000
,  // measure 46
0000
0100
0100
0100
,  // measure 47
0100
0000
0000
0000
,  // measure 48
0000
1001
0000
0000
,  // measure 49
0000
0010
0000
0000
,  // measure 50
0000
0001
0001
0001
,  // measure 51
0001
0000
0000
0000
,  // measure 52
0000
1001
0000
0110
,  // measure 53
0000
1001
0000
0110
,  // measure 54
0000
1000
1000
1000
,  // measure 55
1000
0000
0000
0000
,  // measure 56
0000
1001
0000
0110
,  // measure 57
0000
1001
0000
0110
,  // measure 58
0000
0001
0001
0001
,  // measure 59
0001
0000
0000
0000
,  // measure 60
0000
0010
0000
0100
,  // measure 61
0000
1000
0000
0001
,  // measure 62
0000
0100
0000
0010
,  // measure 63
0000
1000
0000
0001
,  // measure 64
0000
0010
0000
0100
,  // measure 65
0000
1000
0000
0001
,  // measure 66
0000
0100
0000
0010
,  // measure 67
0000
1000
0000
0100
,  // measure 68
0000
0010
0000
0001
,  // measure 69
0000
0100
0000
0010
,  // measure 70
0000
1000
0000
0000
,  // measure 71
0010
0010
0010
0000
,  // measure 72
0100
0100
0000
0001
,  // measure 73
0000
0010
0000
0100
,  // measure 74
0000
0110
0000
0000
,  // measure 75
0001
0001
0001
0000
,  // measure 76
1000
1000
0000
0010
,  // measure 77
0000
0100
0000
0001
;
