#TITLE:End of the Unknown;
#SUBTITLE:The Puppet's Bunker;
#ARTIST:Keiichi Okabe;
#TITLETRANSLIT:;
#SUBTITLETRANSLIT:;
#ARTISTTRANSLIT:;
#GENRE:NieR Automata - FFXIV Death Unto Dawn;
#CREDIT:[Ness];
#BANNER:Final Fantasy XIV - End of the Unknown.png;
#BACKGROUND:Final Fantasy XIV - End of the Unknown-bg.png;
#LYRICSPATH:;
#CDTITLE:;
#MUSIC:Final Fantasy XIV - End of the Unknown.mp3;
#OFFSET:-0.029000;
#SAMPLESTART:70.609177;
#SAMPLELENGTH:21.176476;
#LASTBEATHINT:324.000000;
#SELECTABLE:YES;
#BPMS:0.000000=136.000000
;
#STOPS:
;
#BGCHANGES:;
#KEYSOUNDS:;
#ATTACKS:;

//---------------dance-single - ----------------
#NOTES:
     dance-single:
     :
     Challenge:
     10:
     0.734992,0.728249,0.080917,0.155090,1.085630,763.000000,751.000000,12.000000,23.000000,0.000000,0.000000,0.734992,0.728249,0.080917,0.155090,1.085630,763.000000,751.000000,12.000000,23.000000,0.000000,0.000000:
0000
0000
0000
0000
,
0000
0000
0000
0000
,
0000
0000
0000
0000
,
0000
0000
0000
0000
,
0000
0000
0000
0000
,
0000
0000
0000
0000
,
0000
0000
0000
0000
,
1000
0010
1000
0010
0000
0000
0001
0010
0001
0010
0000
0000
1000
0010
1000
0001
,
0100
0000
0001
0000
0001
0010
0000
0010
0100
0000
0100
1000
0000
1000
0010
0000
,
0100
0000
0001
0000
0001
1000
0000
1000
0100
0000
0100
0010
0000
0010
0100
0000
,
1000
0000
0010
0000
0010
0100
0000
0100
0001
0000
0001
0010
0000
0010
0100
0000
,
0100
0000
1000
0000
1000
0001
0000
0001
0100
0000
0100
0010
0000
0010
1000
0000
,
0100
0000
0001
0000
0001
0100
0000
0100
0010
0000
0010
0001
0000
0001
0100
0000
,
1000
0000
0100
0000
0100
0010
0000
0010
1000
0000
1000
0001
0000
0001
0100
0000
,
0010
0000
1000
0000
1000
0010
0000
0010
0001
0000
0001
0010
0000
0010
0100
0000
,
1000
0100
1000
0100
0000
0000
0001
0100
0001
0100
0000
0000
0001
1000
0010
0100
,
0001
0000
0010
0100
0000
0010
0001
0000
1000
0100
0000
0010
0100
0000
1000
0000
,
0001
0000
1000
0000
0010
0100
0000
0010
1000
0000
0001
0100
0000
0010
0100
0000
,
0001
0000
1000
0000
0100
0010
0000
0100
1000
0000
0001
0010
0000
0100
1000
0000
,
0010
0000
1000
0000
0001
0100
0000
0010
0100
0000
0001
0010
0000
0100
1000
0000
,
0010
0000
1000
0000
0100
1000
0000
0001
1000
0000
0010
0100
0000
0001
0100
0000
,
0001
0000
0010
0000
0100
1000
0000
0100
0010
0000
0001
0100
0000
0010
0100
0000
,
0001
0000
1000
0000
0100
1000
0000
0001
0100
0000
0010
1000
0000
0001
0010
0000
,
0100
1000
0100
1000
0000
0000
0001
0100
0001
0100
0000
0000
1000
0010
0100
0001
,
1000
0000
0100
1000
0100
0010
0100
0000
0100
1000
0100
0010
0001
0000
0100
0000
,
0100
0000
0001
0010
0001
0100
0001
0000
0001
0010
0001
0100
0001
0000
1000
0000
,
1000
0000
0010
1000
0010
0100
0010
0000
0010
1000
0010
0100
0001
0000
1000
0000
,
1100
0000
0000
1000
0001
0000
0000
0001
0100
0000
0010
1000
0100
0000
0100
0000
,
0101
0000
0100
0001
0010
0100
1000
0000
1000
0010
0100
0001
0010
0000
0100
0000
,
0100
0000
1000
0001
0100
0010
1000
0000
1000
0001
0100
0010
1000
0000
0001
0000
,
0001
0000
0001
0010
0100
0010
0001
0000
0001
0010
0100
0010
0001
0000
1000
0000
,
0100
0010
0100
0010
0000
0000
0001
1000
0001
1000
0000
0000
0010
0100
0001
1000
,
0100
0000
0100
0001
0100
0010
0100
0000
0100
1000
0100
0010
0001
0000
0100
0000
,
0100
0000
0010
1000
0010
0100
0010
0000
0010
0100
0010
0001
0010
0000
0100
0000
,
0100
0000
0001
0100
0010
0100
1000
0000
1000
0100
0010
0100
0001
0000
0100
0000
,
1001
0000
0000
0001
0010
0000
0000
0010
1000
0000
1000
0001
0100
0000
0100
0000
,
0001
0000
0001
0100
0010
0100
0001
0000
0001
0100
0010
0100
0001
0000
1000
0000
,
1000
0000
0010
1000
0010
0100
0010
0000
0010
1000
0010
0100
0001
0000
1000
0000
,
0100
0000
0100
1000
0100
0010
0001
0000
0100
1000
0100
0010
0001
0000
0100
0000
,
0001
1000
0001
0100
0000
0000
0001
0010
0001
0100
0000
0000
0010
1000
0100
1000
,
0010
0000
0200
0000
0000
1000
0000
0000
0010
0000
0000
0001
0000
0000
0010
0000
,
0000
0000
1000
0000
0000
0001
0000
0000
0310
0000
0000
2000
0100
0000
0001
0000
,
0100
0000
0010
0000
0000
0001
0000
0000
3100
0000
0000
1000
0000
0000
0001
0000
,
0101
0000
0000
1000
0010
0000
0000
0010
0200
0000
0001
0000
0302
0000
1000
0000
,
2003
0000
0001
0000
0000
0100
0000
0000
0010
0000
0000
0001
0000
0000
0100
0000
,
0010
0000
0100
0000
0000
0001
0000
0000
3020
0000
0000
0001
0000
0000
1000
0000
,
0230
0000
0001
0000
0000
0010
0000
0000
0001
0000
0000
1000
0300
0000
0001
0000
,
0100
0001
1000
0001
0000
0000
1000
0100
1000
0001
0000
0000
0010
0100
1000
0001
,
0100
0000
2002
0000
0000
0000
3003
0000
1000
0001
0100
0001
0000
0001
1000
0001
,
0000
0001
0010
0001
0000
0001
1000
0001
0000
0001
0100
0001
0000
0001
1000
0001
,
0010
0000
2002
0000
0000
0000
3003
0000
0001
1000
0100
1000
0000
1000
0001
1000
,
0000
1000
0010
1000
0000
1000
0100
1000
0000
1000
0010
1000
0000
1000
0001
1000
,
0100
0000
2002
0000
0000
0000
3003
0000
0100
0010
1000
0100
0000
0010
1000
0001
,
0000
0010
1000
0100
0000
0010
1000
0001
0000
0010
1000
0100
0000
0010
1000
0001
,
0100
0000
2002
0000
0000
0000
3003
0000
1000
0001
0010
0100
0000
0010
0001
0100
,
0000
0001
0010
0100
0000
0010
0001
0100
0000
0001
0010
0100
0000
1000
0001
0100
,
0001
0000
2002
0000
0000
0000
3003
0000
0001
0100
0010
0100
0000
0100
1000
0100
,
0000
0100
0010
0100
0000
0100
0001
0100
0000
0100
1000
0100
0000
0100
0010
0100
,
0001
0000
2002
0000
0000
0000
3003
0000
1000
0010
0100
0010
0000
0010
0001
0010
,
0000
0010
0100
0010
0000
0010
1000
0010
0000
0010
0100
0010
0000
0010
1000
0001
,
0100
0000
2002
0000
0000
0000
3003
0000
0001
0100
0010
1000
0000
1000
0100
0001
,
0000
0001
0100
1000
0000
1000
0100
0001
0000
0001
0100
1000
0000
1000
0001
0100
,
0001
0000
2002
0000
0000
0000
3003
0000
0001
1000
0010
0100
0000
1000
0010
0100
,
0001
1000
0001
0100
0000
0000
1000
0001
1000
0010
0000
0000
0100
0001
1000
0010
,
0100
0000
0001
0000
0001
0010
0000
0010
1000
0000
1000
0010
0000
0010
0001
0000
,
0100
0000
1000
0000
1000
0100
0000
0100
0010
0000
0010
1000
0000
1000
0100
0000
,
0010
0000
0001
0000
0001
0100
0000
0100
0001
0000
0010
1000
0000
1000
0010
0000
,
0001
0000
0100
0000
0100
0010
0000
0010
1000
0000
0100
0001
0000
0001
0100
0000
,
1000
0000
0001
0000
0001
0100
0000
0100
0010
0000
0010
1000
0000
1000
0100
0000
,
1000
0000
0001
0000
0001
1000
0000
1000
0010
0000
0010
0100
0000
0100
0001
0000
,
0010
0000
0001
0000
0001
1000
0000
1000
0010
0000
0010
0100
0000
0100
0001
0000
,
0010
0100
0010
0001
0000
0000
1000
0100
1000
0001
0000
0000
0100
0010
1000
0001
,
0100
0000
0010
0000
1000
0100
0000
0010
0001
0000
0100
0001
0000
1000
0100
0000
,
0010
0000
0001
0000
1000
0001
0000
0100
0010
0000
1000
0100
0000
0010
0001
0000
,
0010
0000
0100
0000
1000
0001
0000
1000
0010
0000
0100
0001
0000
1000
0001
0000
,
0010
0000
0100
0000
1000
0001
0000
0100
0001
0000
0010
0001
0000
1000
0010
0000
,
0100
0000
0001
0000
1000
0100
0000
0010
0100
0000
1000
0010
0000
0100
0001
0000
,
0010
0000
0001
0000
0100
0010
0000
1000
0100
0000
0010
0001
0000
1000
0010
0000
,
0100
0000
0001
0000
1000
0100
0000
1000
0001
0000
0100
0001
0000
1000
0100
0000
,
0010
0001
1000
0010
0000
0000
0100
1000
0001
0100
0000
0000
1000
0010
0100
0001
,
1000
0000
0000
0000
;

//---------------dance-single - ----------------
#NOTES:
     dance-single:
     :
     Hard:
     8:
     0.447931,0.485499,0.202291,0.155090,0.421440,465.000000,435.000000,30.000000,23.000000,0.000000,0.000000,0.447931,0.485499,0.202291,0.155090,0.421440,465.000000,435.000000,30.000000,23.000000,0.000000,0.000000:
0000
0000
0000
0000
,
0000
0000
0000
0000
,
0000
0000
0000
0000
,
0000
0000
0000
0000
,
0000
0000
0000
0000
,
0000
0000
0000
0000
,
0000
0000
0000
0000
,
0000
0000
0000
0000
,
1001
0000
1000
0000
0000
0100
0000
0000
0001
0000
0000
0010
0000
0000
0100
0000
,
1000
0000
0001
0000
0000
0100
0000
0000
0010
0000
0000
1000
0000
0000
0100
0000
,
0010
0000
0001
0000
0000
0100
0000
0000
0001
0000
0000
0010
0000
0000
0100
0000
,
1000
0000
0001
0000
0000
0100
0000
0000
0010
0000
0000
1000
0000
0000
0100
0000
,
0010
0000
0100
0000
0000
1000
0000
0000
0010
0000
0000
0100
0000
0000
0001
0000
,
1000
0000
0001
0000
0000
0010
0000
0000
0100
0000
0000
1000
0000
0000
0100
0000
,
0010
0000
0001
0000
0000
0100
0000
0000
0001
0000
0000
1000
0000
0000
0100
0000
,
0010
0000
0001
0000
0000
1000
0000
0000
0010
0000
0000
0100
0000
0000
0001
0000
,
1001
0000
0010
0000
0000
0100
0000
0000
1000
0000
0000
0001
0000
0000
1000
0000
,
0100
0000
0010
0000
0000
0001
0000
0000
0100
0000
0000
0010
0000
0000
1000
0000
,
0001
0000
1000
0000
0000
0010
0000
0000
0100
0000
0000
0001
0000
0000
0010
0000
,
0100
0000
1000
0000
0000
0001
0000
0000
1000
0000
0000
0010
0000
0000
0100
0000
,
0001
0000
0010
0000
0000
0100
0000
0000
1000
0000
0000
0010
0000
0000
1000
0000
,
0001
0000
0100
0000
0000
0001
0000
0000
0010
0000
0000
0100
0000
0000
1000
0000
,
0001
0000
1000
0000
0000
0010
0000
0000
0100
0000
0000
0001
0000
0000
0010
0000
,
0100
0000
1000
0000
0000
0001
0000
0000
1000
0000
0000
0010
0000
0000
0100
0000
,
0101
0001
1000
0001
0010
0100
1000
0000
,
0000
0001
1000
0010
0100
0100
0001
0001
,
0000
1000
0001
0100
0010
1000
0001
0000
,
1001
0000
0000
0001
0010
0000
0000
0010
0100
0000
0000
0100
1000
0000
0000
0000
,
0000
0001
1000
0010
0100
0010
0110
0000
,
0000
0001
1000
0100
0010
0001
0100
0001
,
0000
1000
0100
0010
0001
1000
0001
0000
,
0101
0000
0000
0001
0010
0000
0000
0010
0100
0000
0000
0100
1000
0000
0000
0000
,
1010
1000
0001
0100
0010
1000
0100
0000
,
1000
0001
0100
0010
1000
1000
0001
0001
,
0000
1000
0100
0010
0001
1000
1001
0000
,
0010
0000
0000
0010
1000
0000
0000
1000
0001
0000
0000
0001
0100
0000
0000
0000
,
0001
1000
0100
0010
0001
1000
1001
0000
,
0001
0100
0001
1000
0010
0100
0110
0000
,
0001
0010
0001
1000
0100
0010
1001
0000
,
0001
0000
0000
0001
1000
0000
0000
1000
0100
0000
0100
0000
0010
0000
0010
0000
,
0210
0000
0010
0000
0000
1000
0000
0000
0010
0000
0000
0001
0000
0000
0010
0000
,
0000
0000
1000
0000
0000
0001
0000
0000
1300
0000
0000
0010
0000
0000
0100
0000
,
0002
0000
0010
0000
0000
0100
0000
0000
1000
0000
0000
0010
0003
0000
0100
0000
,
0101
0000
0000
0001
1000
0000
0000
1000
0002
0000
0000
0000
0203
0000
0000
0000
,
0320
0000
1000
0000
0000
0100
0000
0000
1000
0000
0000
0001
0000
0000
1000
0000
,
0000
0000
0100
0000
0000
1000
0000
0000
0230
0000
0000
0010
0000
0000
0001
0000
,
0302
0000
0100
0000
0000
0010
0000
0000
1000
0000
0000
0100
0000
0000
1000
0000
,
1003
1001
0000
0100
0101
0000
0100
0010
,
2002
0000
0000
0000
0000
0000
3003
0000
0000
0000
1000
0001
0000
0000
0001
1000
,
0000
0000
1000
0010
0000
0000
0010
0100
0000
0000
0100
0001
0000
0000
0000
0000
,
0000
0000
2002
0000
0000
0000
3003
0000
0000
0000
0001
0010
0000
0000
0010
1000
,
0000
0000
1000
0100
0000
0000
0100
0001
0000
0000
0001
1000
0000
0000
0000
0000
,
0000
0000
2002
0000
0000
0000
3003
0000
0000
0000
1000
0100
0000
0000
0100
1000
,
0000
0000
0010
0001
0000
0000
0001
0010
0000
0000
0001
0100
0000
0000
0000
0000
,
0000
0000
2002
0000
0000
0000
3003
0000
0000
0000
0001
0100
0000
0000
0010
1000
,
0000
0000
1000
0100
0000
0000
0010
0001
0000
0000
0001
1000
0000
0000
0000
0000
,
0000
0000
2002
0000
0000
0000
3003
0000
0000
0000
0001
0010
0000
0000
0010
0001
,
0000
0000
0100
0010
0000
0000
0010
0100
0000
0000
0001
1000
0000
0000
0100
0000
,
0000
0000
2002
0000
0000
0000
3003
0000
0000
0000
0001
0010
0000
0000
0100
1000
,
0000
0000
1000
0010
0000
0000
0100
0001
0000
0000
1000
0001
0000
0000
0010
0000
,
0000
0000
2002
0000
0000
0000
3003
0000
0000
0000
1000
0100
0000
0000
0100
0010
,
0000
0000
0001
0100
0000
0000
0100
0010
0000
0000
1000
0100
0000
0000
0001
0000
,
0000
0000
2002
0000
0000
0000
3003
0000
0000
0000
0010
0100
0000
0000
0100
0001
,
0000
0000
0001
0010
0000
0000
0010
0100
0000
0000
0100
1000
0000
0000
0010
0000
,
1001
0000
1000
0000
0000
0100
0000
0000
0001
0000
0000
1000
0000
0000
0100
0000
,
0000
0000
0001
0000
0000
0100
0000
0000
0010
0000
0000
0001
0000
0000
0010
0000
,
0000
0000
0100
0000
0000
1000
0000
0000
0001
0000
0000
1000
0000
0000
0100
0000
,
0000
0000
0001
0000
0000
0010
0000
0000
0100
0000
0000
1000
0000
0000
0010
0000
,
0000
0000
1000
0000
0000
0001
0000
0000
0100
0000
0000
0010
0000
0000
1000
0000
,
0000
0000
1000
0000
0000
0100
0000
0000
0001
0000
0000
0100
0000
0000
1000
0000
,
0000
0000
0001
0000
0000
0100
0000
0000
0010
0000
0000
1000
0000
0000
0100
0000
,
0010
0011
0000
1000
1100
0000
1000
0001
,
1001
0000
0001
0000
0000
1000
0000
0000
0010
0000
0000
0100
0000
0000
0001
0000
,
0010
0000
0100
0000
0000
1000
0000
0000
0010
0000
0000
1000
0000
0000
0100
0000
,
0010
0000
0001
0000
0000
1000
0000
0000
0001
0000
0000
0100
0000
0000
0010
0000
,
1000
0000
0100
0000
0000
0010
0000
0000
0001
0000
0000
1000
0000
0000
0001
0000
,
0100
0000
0010
0000
0000
1000
0000
0000
0100
0000
0000
0010
0000
0000
0001
0000
,
1000
0000
0001
0000
0000
0100
0000
0000
0010
0000
0000
1000
0000
0000
0100
0000
,
1000
0000
0001
0000
0000
0010
0000
0000
0100
0000
0000
1000
0000
0000
0001
0000
,
0100
0101
0000
0010
1010
0000
0001
1000
,
1001
0000
0000
0000
;

//---------------dance-single - ----------------
#NOTES:
     dance-single:
     :
     Medium:
     6:
     0.401693,0.431555,0.276465,0.114632,0.000000,417.000000,376.000000,41.000000,17.000000,0.000000,0.000000,0.401693,0.431555,0.276465,0.114632,0.000000,417.000000,376.000000,41.000000,17.000000,0.000000,0.000000:
0000
0000
0000
0000
,
0000
0000
0000
0000
,
0000
0000
0000
0000
,
0000
0000
0000
0000
,
0000
0000
0000
0000
,
0000
0000
0000
0000
,
0000
0000
0000
0000
,
0000
0000
0000
0000
,
1010
0000
0001
0000
1000
0100
1000
0000
,
0110
0001
1000
0001
,
0011
0000
0100
0000
0010
1000
0100
0000
,
1001
0000
1000
0000
0001
1000
0100
0000
,
1100
0000
0100
0000
0010
0001
0100
0000
,
0110
0000
0001
0000
1000
0001
0100
0000
,
0101
0000
0001
0000
0010
0100
1000
0000
,
1001
0000
0100
0000
1000
0010
0001
0000
,
0110
0000
1000
0000
0100
0001
0100
0000
,
1001
0000
0010
0000
0100
1000
0001
0000
,
1001
0000
1000
0000
0010
0001
0010
0000
,
1001
0000
0100
0000
1000
0100
0010
0000
,
0101
0000
0001
0000
0010
1000
0010
0000
,
1100
0000
1000
0000
0100
0001
0100
0000
,
0110
0000
0001
0000
0010
1000
0100
0000
,
1000
0001
0100
0000
1000
0010
0001
0000
,
1001
0000
1000
0001
1000
0001
0020
0000
,
0030
0001
1000
0001
1000
0001
2000
0000
,
3000
1000
0001
1000
0001
1000
0001
0000
,
0102
0013
2100
3001
,
0000
1000
0100
1000
0100
1000
0100
0000
,
0000
0001
0100
0001
0100
0001
0100
0000
,
0000
0001
0010
0001
0010
0100
1000
0000
,
0110
0000
0001
0000
1000
0010
0001
0000
,
1001
0000
0100
0000
0001
0010
1000
0000
,
1000
0100
0010
0001
0100
0001
0100
0000
,
0010
0000
1000
0000
0001
1000
0100
0000
,
0102
0013
2010
3100
,
0010
1000
0100
1000
0100
0001
0100
0000
,
1000
0001
1000
0001
0100
0001
0100
0000
,
0001
1000
0001
1000
0001
1000
0010
0000
,
0110
0000
1000
0000
0001
0100
1000
0000
,
1001
0000
1000
0010
1000
0000
0010
0001
,
0010
0000
1000
0010
1000
0000
0100
1000
,
0100
0000
0001
0100
0001
0000
0100
1000
,
0100
1010
0100
1001
,
0001
0000
0100
0001
0100
0000
0001
0010
,
0001
0000
0010
1000
0010
0000
1000
0100
,
1000
0000
0010
1000
0010
0000
0001
0010
,
0001
1100
0100
0011
,
2002
0000
3003
0000
0000
0010
0000
1000
,
0000
0100
0000
0001
0000
0100
0000
1000
,
0001
0100
0000
0001
0000
0010
0000
1000
,
0000
0100
0000
0010
0000
0001
0000
1000
,
0100
0010
0000
0001
0000
0100
0000
0010
,
0000
1000
0000
0100
0000
0010
0000
0001
,
0100
0001
0000
1000
0000
0010
0000
0100
,
0000
0001
0000
1000
0000
0001
0000
0010
,
0100
0000
0000
0000
1000
0001
1000
0001
,
0200
0000
0310
0000
1000
0100
0001
0000
,
1100
0000
0100
0000
0010
0001
0010
0001
,
2000
0000
3001
0000
0100
0010
1000
0000
,
1001
0000
0001
0000
0100
0010
0100
0010
,
0200
0000
0301
0000
1000
0010
0100
0000
,
1010
0000
0100
0000
0001
1000
0001
1000
,
0200
0000
0300
2002
0000
3003
1000
0010
,
0100
0000
0001
0000
0010
1000
0010
0000
,
0110
0000
1000
0000
0100
0001
0100
0000
,
1100
0000
1000
0000
0010
0001
0010
0000
,
1001
0000
0100
0000
0001
1000
0100
0000
,
0010
0000
0100
0000
0001
1000
0001
0000
,
0010
0000
1000
0000
0010
0001
0010
0000
,
1000
0000
0100
0000
0010
0001
0100
0000
,
0002
0000
0003
0220
0000
0330
1000
0010
,
0100
0000
1000
0000
1000
0100
0001
0000
,
0001
0001
0001
0000
0001
0100
1000
0000
,
0110
0000
0010
0000
1000
0010
0001
0000
,
0010
0010
0010
0000
0001
0100
1000
0000
,
1001
0000
0100
0000
1000
1000
1000
0000
,
1000
0010
0100
0000
0001
1000
0001
0000
,
0011
0000
0100
0000
0010
0100
0001
0000
,
1000
0100
0000
0001
0100
0000
1000
0001
,
1001
0000
0000
0000
;

//---------------dance-single - ----------------
#NOTES:
     dance-single:
     :
     Easy:
     4:
     0.288988,0.323666,0.202291,0.107889,0.000000,300.000000,270.000000,30.000000,16.000000,0.000000,0.000000,0.288988,0.323666,0.202291,0.107889,0.000000,300.000000,270.000000,30.000000,16.000000,0.000000,0.000000:
// measure 0
0000
0000
0000
0000
,  // measure 1
0000
0000
0000
0000
,  // measure 2
0000
0000
0000
0000
,  // measure 3
0000
0000
0000
0000
,  // measure 4
0000
0000
0000
0000
,  // measure 5
0000
0000
0000
0000
,  // measure 6
0000
0000
0000
0000
,  // measure 7
0000
0000
0000
0000
,  // measure 8
0001
0100
0001
0010
,  // measure 9
0100
1000
0001
1000
,  // measure 10
0010
0100
1000
0100
,  // measure 11
0010
1000
0100
1000
,  // measure 12
0001
0010
0100
1000
,  // measure 13
1000
0100
0001
0100
,  // measure 14
0010
0001
0010
0100
,  // measure 15
0001
1000
0001
0100
,  // measure 16
0010
1000
0010
0001
,  // measure 17
1000
0100
0001
1000
,  // measure 18
0001
0010
1000
0100
,  // measure 19
0001
0100
1000
0001
,  // measure 20
1000
0010
0100
0010
,  // measure 21
1000
0100
0001
0100
,  // measure 22
1000
0001
0010
0001
,  // measure 23
1000
0100
0001
0010
,  // measure 24
0200
0300
1100
1100
,  // measure 25
0000
1000
0001
0011
,  // measure 26
0000
0001
0101
0101
,  // measure 27
0010
1000
0100
0001
,  // measure 28
0020
0030
0110
0110
,  // measure 29
0000
0001
1000
1100
,  // measure 30
0000
0001
1001
1001
,  // measure 31
0010
0001
0100
1000
,  // measure 32
1001
0100
1000
1100
,  // measure 33
1000
0100
0010
0110
,  // measure 34
0000
1000
1001
1001
,  // measure 35
0010
0001
0100
1000
,  // measure 36
0001
1000
0010
0110
,  // measure 37
0001
1000
0100
1100
,  // measure 38
0000
0010
0011
0011
,  // measure 39
0100
0001
1000
0100
,  // measure 40
0210
1000
1000
1300
,  // measure 41
0001
1000
0010
0100
,  // measure 42
0002
0010
0010
0013
,  // measure 43
0011
1000
1001
1001
,  // measure 44
0020
0100
0100
0130
,  // measure 45
0001
1000
0100
1000
,  // measure 46
0002
1000
1000
1003
,  // measure 47
0001
0100
0010
1000
,  // measure 48
2002
3003
1000
0001
,  // measure 49
1000
0010
0001
0010
,  // measure 50
1000
0100
0010
0100
,  // measure 51
0001
0100
1000
0100
,  // measure 52
0001
1000
0001
0010
,  // measure 53
0100
0010
1000
0010
,  // measure 54
0001
0100
0010
1000
,  // measure 55
0100
0010
0100
1000
,  // measure 56
1001
0000
0010
0020
,  // measure 57
0200
0000
0330
0001
,  // measure 58
1000
0100
0010
0200
,  // measure 59
0020
0000
0330
0001
,  // measure 60
1000
0001
0100
0020
,  // measure 61
0200
0000
0330
0001
,  // measure 62
1000
0100
0010
0200
,  // measure 63
0020
0000
0000
0330
,  // measure 64
1001
0100
0001
0001
,  // measure 65
1000
0001
0100
0010
,  // measure 66
1000
0100
1000
0001
,  // measure 67
0010
0100
0010
0001
,  // measure 68
1000
0100
0001
0010
,  // measure 69
0001
1000
0010
0100
,  // measure 70
0001
0100
1000
0100
,  // measure 71
0001
0001
1000
1100
,  // measure 72
1001
0100
0001
0100
,  // measure 73
0001
0010
1000
0010
,  // measure 74
0100
1000
0100
0001
,  // measure 75
0100
1000
0010
1000
,  // measure 76
0010
0001
0100
0010
,  // measure 77
0100
0001
0010
1000
,  // measure 78
0100
0010
0100
1000
,  // measure 79
0001
1000
0010
0110
,  // measure 80
1001
0000
0000
0000
;

//---------------dance-single - ----------------
#NOTES:
     dance-single:
     :
     Beginner:
     1:
     0.129081,0.188805,0.040458,0.026972,0.000000,134.000000,128.000000,6.000000,4.000000,0.000000,0.000000,0.129081,0.188805,0.040458,0.026972,0.000000,134.000000,128.000000,6.000000,4.000000,0.000000,0.000000:
// measure 0
0000
0000
0000
0000
,  // measure 1
0000
0000
0000
0000
,  // measure 2
0000
0000
0000
0000
,  // measure 3
0000
0000
0000
0000
,  // measure 4
0000
0000
0000
0000
,  // measure 5
0000
0000
0000
0000
,  // measure 6
0000
0000
0000
0000
,  // measure 7
0000
0000
0000
0000
,  // measure 8
0001
0000
0000
0000
,  // measure 9
0010
0000
0000
0000
,  // measure 10
1000
0000
0000
0000
,  // measure 11
0010
0000
0000
0000
,  // measure 12
0100
0000
0010
0000
,  // measure 13
0100
0000
0000
0000
,  // measure 14
0001
0000
1000
0000
,  // measure 15
0001
0000
0000
0000
,  // measure 16
1001
0000
0010
0000
,  // measure 17
1000
0000
0000
0000
,  // measure 18
0001
0000
0100
0000
,  // measure 19
0010
0000
0000
0000
,  // measure 20
0001
0000
1000
0000
,  // measure 21
0100
0000
0000
0000
,  // measure 22
0001
0000
1000
0000
,  // measure 23
0001
0000
1000
0000
,  // measure 24
1001
0000
0010
0000
,  // measure 25
0000
1000
1000
0000
,  // measure 26
0000
0000
0001
0001
,  // measure 27
0001
0000
0010
0000
,  // measure 28
0100
0000
0100
0000
,  // measure 29
0000
0010
0010
0000
,  // measure 30
0000
0000
0001
0001
,  // measure 31
0001
0000
1000
0000
,  // measure 32
1001
0000
0010
0000
,  // measure 33
0000
0000
1000
1000
,  // measure 34
0000
0000
0100
0100
,  // measure 35
0100
0000
0010
0000
,  // measure 36
0001
0000
0100
0000
,  // measure 37
0000
1000
1000
0000
,  // measure 38
0000
0000
0010
0010
,  // measure 39
0010
0000
0100
0000
,  // measure 40
1001
0000
0010
0000
,  // measure 41
0002
0000
0003
0000
,  // measure 42
1000
0000
0100
0000
,  // measure 43
2000
0000
3000
0000
,  // measure 44
0010
0000
0100
0000
,  // measure 45
0020
0000
0030
0000
,  // measure 46
1000
0000
0001
0000
,  // measure 47
2000
0000
3000
0000
,  // measure 48
0001
0000
0010
0000
,  // measure 49
0010
0000
0010
0000
,  // measure 50
0010
0000
0100
0000
,  // measure 51
0100
0000
0100
0000
,  // measure 52
0100
0000
1000
0000
,  // measure 53
1000
0000
1000
0000
,  // measure 54
1000
0000
0001
0000
,  // measure 55
0001
0000
0001
0000
,  // measure 56
1001
0000
1000
0000
,  // measure 57
1000
0000
1000
0000
,  // measure 58
1000
0000
0010
0000
,  // measure 59
0010
0000
0010
0000
,  // measure 60
0010
0000
0100
0000
,  // measure 61
0100
0000
0100
0000
,  // measure 62
0100
0000
0001
0000
,  // measure 63
0001
0000
0001
0000
,  // measure 64
1001
0000
0010
0000
,  // measure 65
0001
0000
0000
0000
,  // measure 66
1000
0000
0100
0000
,  // measure 67
0010
0000
0000
0000
,  // measure 68
0001
0000
0100
0000
,  // measure 69
0010
0000
0000
0000
,  // measure 70
1000
0000
0001
0000
,  // measure 71
0100
0000
0000
0000
,  // measure 72
0010
0000
1000
0000
,  // measure 73
0010
0000
0100
0000
,  // measure 74
0001
0000
0010
0000
,  // measure 75
0001
0000
1000
0000
,  // measure 76
0100
0000
0010
0000
,  // measure 77
0100
0000
1000
0000
,  // measure 78
0001
0000
0100
0000
,  // measure 79
0010
0000
1000
0000
,  // measure 80
0001
0000
0000
0000
;
