#VERSION:0.83;
#TITLE:Drowning in the Horizon;
#SUBTITLE:The Azim Steppe;
#ARTIST:Masayoshi Soken;
#TITLETRANSLIT:;
#SUBTITLETRANSLIT:;
#ARTISTTRANSLIT:;
#GENRE:Stormblood;
#ORIGIN:;
#CREDIT:[Ness];
#BANNER:Final Fantasy XIV - Drowning in the Horizon.png;
#BACKGROUND:Final Fantasy XIV - Drowning in the Horizon-bg.png;
#PREVIEWVID:;
#JACKET:Final Fantasy XIV - Drowning in the Horizon-jacket.png;
#CDIMAGE:;
#DISCIMAGE:;
#LYRICSPATH:;
#CDTITLE:;
#MUSIC:Final Fantasy XIV - Drowning in the Horizon.mp3;
#OFFSET:-14.556979;
#SAMPLESTART:40.609364;
#SAMPLELENGTH:16.000000;
#SELECTABLE:YES;
#BPMS:0.000=120.000;
#STOPS:;
#DELAYS:;
#WARPS:;
#TIMESIGNATURES:0.000=4=4;
#TICKCOUNTS:0.000=2;
#COMBOS:0.000=1;
#SPEEDS:0.000=1.000=0.000=0;
#SCROLLS:0.000=1.000;
#FAKES:;
#LABELS:0.000=Song Start;
#LASTSECONDHINT:99.597366;
#BGCHANGES:;
#KEYSOUNDS:;
#ATTACKS:
;

//---------------dance-single - ----------------
#NOTEDATA:;
#CHARTNAME:[Ness];
#STEPSTYPE:dance-single;
#DESCRIPTION:[Ness];
#CHARTSTYLE:;
#DIFFICULTY:Hard;
#METER:6;
#RADARVALUES:0.260343,0.345842,0.155927,0.477527,0.009745,187.000000,171.000000,16.000000,49.000000,0.000000,0.000000,0.000000,0.000000,0.000000,0.260343,0.345842,0.155927,0.477527,0.009745,187.000000,171.000000,16.000000,49.000000,0.000000,0.000000,0.000000,0.000000,0.000000;
#CREDIT:[Ness];
#NOTES:
// measure 0
0000
0000
0000
0000
,  // measure 1
0001
0000
1000
0000
1001
0000
0000
0010
,  // measure 2
0000
0010
0100
0001
1000
0000
0001
0000
,  // measure 3
0102
0000
0103
0000
1001
0000
0000
1000
,  // measure 4
0000
1000
0100
0001
0100
0000
0010
0000
,  // measure 5
0012
0000
0013
0000
1001
0000
0000
1000
,  // measure 6
0000
0010
1000
0100
0001
0000
0100
0000
,  // measure 7
0110
0000
1001
0000
1010
0000
0000
0100
,  // measure 8
0000
0001
0100
1000
0100
0000
0010
0000
,  // measure 9
1002
0000
0010
0000
1000
0000
1003
0001
,  // measure 10
0201
1000
0010
0301
,  // measure 11
1000
0010
1000
1100
0000
0010
0010
0001
,  // measure 12
1000
0001
1000
0001
0100
0010
0100
0000
,  // measure 13
2001
0000
0010
0000
0001
0000
3001
1000
,  // measure 14
1200
0001
0010
1300
,  // measure 15
0001
0010
0001
0101
0000
0010
0010
1000
,  // measure 16
0001
1000
0001
1000
0100
0010
0100
0000
,  // measure 17
1001
0000
0001
0200
0000
0000
0000
0000
0000
0000
0000
0000
0301
0000
0001
0000
,  // measure 18
2000
3020
0230
0302
,  // measure 19
0023
0000
0130
2000
0000
3000
0001
1000
,  // measure 20
0002
0000
0200
0000
0303
0000
0000
0010
,  // measure 21
1000
0100
0010
0020
0000
0000
0030
0001
,  // measure 22
1000
0001
1000
0010
0000
0000
0100
0001
,  // measure 23
1000
0010
0100
0001
0010
0100
1000
0001
,  // measure 24
0100
0000
0000
0010
0000
0000
2000
0000
0000
0000
0000
0000
0000
0000
0000
0000
,  // measure 25
3002
0000
2003
0000
,  // measure 26
3020
0100
0230
0001
,  // measure 27
0302
0000
0000
1000
0203
0000
0000
0000
,  // measure 28
0320
0000
2030
0000
,  // measure 29
3002
0000
0023
0000
,  // measure 30
0230
1000
2300
0010
,  // measure 31
3020
0000
0000
1000
0230
0000
0000
0000
,  // measure 32
0302
0000
0023
0000
,  // measure 33
0230
0000
2300
0000
,  // measure 34
3002
0010
0023
0100
,  // measure 35
0230
0000
0000
0010
2300
0000
0000
0000
,  // measure 36
3002
0000
2003
0000
,  // measure 37
3020
0000
0230
0000
,  // measure 38
0302
0010
0023
0100
,  // measure 39
0230
0000
0000
0001
2300
0000
0000
0000
,  // measure 40
3002
0000
2003
0000
,  // measure 41
3010
0100
0100
0000
0001
0001
1100
0000
;

//---------------dance-single - ----------------
#NOTEDATA:;
#CHARTNAME:[Ness];
#STEPSTYPE:dance-single;
#DESCRIPTION:[Ness];
#CHARTSTYLE:;
#DIFFICULTY:Medium;
#METER:5;
#RADARVALUES:0.189340,0.203436,0.038982,0.399563,0.009745,136.000000,132.000000,4.000000,41.000000,0.000000,0.000000,0.000000,0.000000,0.000000,0.189340,0.203436,0.038982,0.399563,0.009745,136.000000,132.000000,4.000000,41.000000,0.000000,0.000000,0.000000,0.000000,0.000000;
#CREDIT:[Ness];
#NOTES:
0000
0000
0000
0000
,
0001
0000
1000
0000
0010
0000
0000
0100
,
0000
0001
1000
0000
,
0010
0000
0100
0000
0010
0000
0000
1000
,
0000
0100
0010
0000
,
0001
0000
1000
0000
0010
0000
0000
0100
,
0000
0001
1000
0000
,
0100
0000
0010
0000
0001
0000
0000
1000
,
0000
0010
0100
0000
,
1002
0000
0010
0000
1003
0000
0000
0100
,
0000
0001
0100
0010
,
2001
0000
0010
0000
3001
0000
0000
0100
,
0000
0000
1000
0001
0100
0000
0000
0000
,
2001
0000
0010
0000
3001
0000
0000
0100
,
0000
0001
1000
0000
,
1002
0000
0010
0000
1003
0000
0000
0100
,
0000
0000
0001
1000
0100
0000
0000
0000
,
1000
0000
0000
0002
0000
0000
0000
0000
0000
0000
0000
0000
0103
0000
0010
0000
,
1000
0010
0100
0001
,
0010
0000
0100
2000
0000
3000
0001
1000
,
0001
0200
0300
0000
,
0010
0000
1000
0200
0000
0000
0310
0000
,
0001
0000
1000
0010
0000
0000
0100
0000
,
0001
0000
0100
0010
1000
0000
0100
0000
,
0010
0000
0000
0001
0000
0000
2000
0000
0000
0000
0000
0000
0000
0000
0000
0000
,
3002
0000
2003
0000
,
3020
0100
0230
0001
,
0302
0000
0000
0100
0203
0000
0000
0000
,
0320
0000
2030
0000
,
3002
0000
0023
0000
,
0230
1000
2300
0010
,
3020
0000
0000
0100
0230
0000
0000
0000
,
0302
0000
0023
0000
,
0230
0000
2300
0000
,
3002
0010
0023
0100
,
0230
0000
0000
1000
2300
0000
0000
0000
,
3002
0000
2003
0000
,
3020
0000
0230
0000
,
0302
0010
0023
0100
,
0230
0000
0000
1000
2300
0000
0000
0000
,
3002
0000
2003
0000
,
3010
0100
0010
0000
0001
1000
0100
0000
;

//---------------dance-single - ----------------
#NOTEDATA:;
#CHARTNAME:[Ness];
#STEPSTYPE:dance-single;
#DESCRIPTION:[Ness];
#CHARTSTYLE:;
#DIFFICULTY:Easy;
#METER:2;
#RADARVALUES:0.136436,0.162749,0.009745,0.116945,0.000000,98.000000,97.000000,1.000000,12.000000,0.000000,0.000000,0.000000,0.000000,0.000000,0.136436,0.162749,0.009745,0.116945,0.000000,98.000000,97.000000,1.000000,12.000000,0.000000,0.000000,0.000000,0.000000,0.000000;
#CREDIT:[Ness];
#NOTES:
0000
0000
0000
0000
,
0001
1000
0001
0000
,
0000
0010
0100
0000
,
1000
0001
1000
0000
,
0000
0010
0100
0000
,
0001
1000
0100
0000
,
0000
0010
0001
0000
,
0100
0010
1000
0000
,
0000
0001
0100
0000
,
1000
0010
1000
0000
,
0000
0001
0100
0000
,
0001
0010
0001
0000
,
0000
1000
0100
0000
,
0010
0100
1000
0000
,
0000
0001
0100
0000
,
0010
0100
0001
0000
,
0000
1000
0100
0000
,
0010
0000
0000
0001
,
1000
0010
0100
0000
,
0001
0001
0000
1000
,
1000
0100
0000
0000
,
0010
0001
1000
0000
,
0010
0100
0000
0001
,
0100
0010
1000
0001
,
0010
0000
0000
0000
,
0020
0000
0000
0000
,
0030
0001
1000
0001
,
2000
0000
3010
0000
,
0002
0000
0013
0000
,
2000
0000
0000
0000
,
3000
0010
1000
0001
,
0200
0000
0310
0000
,
2000
0000
3001
0000
,
0020
0000
0000
0000
,
0030
1000
0001
0100
,
0020
0000
1030
0000
,
0002
0000
0013
0000
,
0200
0000
0000
0000
,
0300
1000
0010
0100
,
0002
0000
0013
0000
,
2000
0000
3100
0000
,
0010
0010
0001
1001
;

//---------------dance-single - ----------------
#NOTEDATA:;
#CHARTNAME:[Ness];
#STEPSTYPE:dance-single;
#DESCRIPTION:[Ness];
#CHARTSTYLE:;
#DIFFICULTY:Beginner;
#METER:1;
#RADARVALUES:0.122514,0.122062,0.000000,0.311854,0.000000,88.000000,88.000000,0.000000,32.000000,0.000000,0.000000,0.000000,0.000000,0.000000,0.122514,0.122062,0.000000,0.311854,0.000000,88.000000,88.000000,0.000000,32.000000,0.000000,0.000000,0.000000,0.000000,0.000000;
#CREDIT:[Ness];
#NOTES:
0000
0000
0000
0000
,
0001
0001
0001
0000
,
0000
0100
0100
0000
,
1000
1000
1000
0000
,
0000
0100
0100
0000
,
0010
0010
0010
0000
,
0000
0100
0100
0000
,
1000
1000
1000
0000
,
0000
0001
0001
0000
,
0100
0100
0100
0000
,
0000
0010
0010
0000
,
0001
0001
0001
0000
,
0000
1000
1000
0000
,
0010
0010
0010
0000
,
0000
0100
0100
0000
,
0010
0010
0010
0000
,
0000
1000
1000
0000
,
0100
0000
0000
0000
,
1000
0000
0010
0000
,
0001
0000
0010
0000
,
1000
0000
0000
0000
,
0001
0000
0100
0000
,
0010
0000
0000
1000
,
1000
0000
0100
0000
,
0010
0000
0001
0000
,
2000
3000
2000
3000
,
2000
3000
2000
3000
,
0002
0003
0002
0003
,
0002
0003
0002
0003
,
0200
0300
0200
0300
,
0200
0300
0200
0300
,
0020
0030
0020
0030
,
0020
0030
0020
0030
,
2000
3000
2000
3000
,
2000
3000
2000
3000
,
0020
0030
0020
0030
,
0020
0030
0020
0030
,
0002
0003
0002
0003
,
0002
0003
0002
0003
,
0200
0300
0200
0300
,
0200
0300
0200
0300
,
0010
0000
0000
0100
;
