#VERSION:0.83;
#TITLE:Dedicated to Moonlight;
#SUBTITLE:Euphrosyne;
#ARTIST:Masayoshi Soken;
#TITLETRANSLIT:;
#SUBTITLETRANSLIT:;
#ARTISTTRANSLIT:;
#GENRE:Endwalker;
#ORIGIN:;
#CREDIT:[Ness];
#BANNER:Final Fantasy XIV - Dedicated to Moonlight.png;
#BACKGROUND:Final Fantasy XIV - Dedicated to Moonlight-bg.png;
#PREVIEWVID:;
#JACKET:Final Fantasy XIV - Dedicated to Moonlight-jacket.png;
#CDIMAGE:;
#DISCIMAGE:;
#LYRICSPATH:Final Fantasy XIV - Dedicated to Moonlight.lrc;
#CDTITLE:;
#MUSIC:Final Fantasy XIV - Dedicated to Moonlight.mp3;
#OFFSET:-0.015000;
#SAMPLESTART:67.756943;
#SAMPLELENGTH:16.000000;
#SELECTABLE:YES;
#BPMS:0.000=120.000;
#STOPS:;
#DELAYS:;
#WARPS:;
#TIMESIGNATURES:0.000=4=4;
#TICKCOUNTS:0.000=2;
#COMBOS:0.000=1;
#SPEEDS:0.000=1.000=0.000=0;
#SCROLLS:0.000=1.000;
#FAKES:;
#LABELS:0.000=Song Start;
#LASTSECONDHINT:140.046936;
#BGCHANGES:;
#KEYSOUNDS:;
#ATTACKS:
;

//---------------dance-single - ----------------
#NOTEDATA:;
#CHARTNAME:;
#STEPSTYPE:dance-single;
#DESCRIPTION:;
#CHARTSTYLE:;
#DIFFICULTY:Challenge;
#METER:11;
#RADARVALUES:0.665116,0.814767,0.219097,0.171170,0.886658,680.000000,648.000000,32.000000,25.000000,16.000000,0.000000,0.000000,0.000000,0.000000,0.665116,0.814767,0.219097,0.171170,0.886658,680.000000,648.000000,32.000000,25.000000,16.000000,0.000000,0.000000,0.000000,0.000000;
#CREDIT:;
#NOTES:
// measure 0
0000
0000
0000
0000
,  // measure 1
0000
0000
0000
0000
,  // measure 2
0000
0000
0000
0000
,  // measure 3
0000
0000
0000
0000
0000
0000
0000
0000
0000
0000
0000
0000
0000
0000
1000
0010
,  // measure 4
1000
0000
0001
0100
0001
1000
0010
0100
0001
0010
0001
1000
0100
0010
0001
1000
,  // measure 5
0100
0010
0100
1000
0001
0010
0100
1000
0001
0010
0100
0010
0001
1000
0100
0010
,  // measure 6
0200
0000
0000
0000
0000
0000
0000
0000
0001
0000
0000
0010
0000
0000
1000
0000
,  // measure 7
0320
0000
0000
0001
0000
0000
0031
0000
0100
0000
0100
0010
1000
0000
0100
1000
,  // measure 8
0001
0000
0100
0000
0001
0000
1000
0020
0000
0000
0000
0000
1030
0000
0001
0100
,  // measure 9
0010
0000
1000
0000
0100
0000
1000
0020
0000
0000
0000
0000
0130
0000
0001
1000
,  // measure 10
0100
0000
1000
0000
0010
0000
0100
0002
0000
0000
0013
0000
0100
0000
1000
0000
,  // measure 11
0001
0000
0000
0101
0000
0000
0100
0000
1000
0100
0000
0100
1000
0000
0001
0100
,  // measure 12
0001
0000
0000
0011
0000
0000
0010
0000
0100
0000
0000
1100
0000
0000
1000
0000
,  // measure 13
0010
0000
0000
0011
0000
0000
0001
0000
0010
0000
0000
1001
0000
0000
0010
0000
,  // measure 14
1000
0000
0000
0000
1100
0000
0000
0000
0001
1000
0010
0100
0001
0000
1000
0000
,  // measure 15
1100
0000
0000
0010
0100
0000
0000
0000
0110
0000
0000
0001
0010
0000
0100
1000
,  // measure 16
0001
0000
1000
0010
0100
0000
0001
0020
0000
0000
0130
0000
0000
1000
0001
1000
,  // measure 17
0010
0000
0100
0001
1000
0000
0100
0020
0000
0000
0031
0000
0000
1000
0001
1000
,  // measure 18
0100
0000
0010
0001
0100
0000
0001
0010
0000
0000
0100
0000
1000
0100
0010
0000
,  // measure 19
0001
0000
0000
0101
0000
0000
0100
0000
0000
0000
1001
0000
0000
1000
0100
0010
,  // measure 20
0001
0000
0001
0100
0000
0000
1100
0000
0100
0000
0000
1010
0000
0000
0010
0000
,  // measure 21
0011
0000
0000
0001
0000
0000
1000
0000
0010
0000
0000
1001
0000
0000
0010
0000
,  // measure 22
2100
0000
0000
0000
3001
0000
0000
0000
0102
0000
0000
0010
0003
0000
0100
0000
,  // measure 23
1100
0000
0000
0110
0000
0000
0101
0000
1001
0000
0000
0001
1000
0010
0100
0001
,  // measure 24
1000
0000
1000
0010
1000
0001
1000
0100
1000
0001
1000
0010
1000
0000
0100
0000
,  // measure 25
0101
0000
0001
0100
0001
1000
0001
0010
0001
1000
0001
0100
0001
1000
0001
1000
,  // measure 26
0001
0000
0010
0001
0010
0100
0010
0001
1000
0010
0100
0010
1000
0000
0100
0000
,  // measure 27
1100
0000
0100
1000
0100
0010
0100
1000
0001
0100
0010
0100
0001
1000
0001
1000
,  // measure 28
0020
0000
0000
0000
1030
0000
0100
0000
2000
0000
0000
0001
0000
0000
3001
0000
,  // measure 29
0100
0001
0000
0100
0001
0000
1000
0000
0010
0000
0000
1000
0001
0100
0010
1000
,  // measure 30
0001
0010
0002
0000
0000
0000
1003
0100
0020
0000
0000
0000
0031
1000
0200
0000
,  // measure 31
0000
0000
0310
0100
2000
0000
0000
3000
1100
0000
0000
0000
0011
0000
0000
0000
,  // measure 32
0201
0000
1000
0010
0010
0001
1000
0001
,  // measure 33
0310
0000
0000
0010
1000
0000
0001
0000
0010
0000
0000
0000
0001
0100
0010
1000
,  // measure 34
0100
0000
0000
0010
0001
0000
0100
0000
0001
0000
0000
1000
0010
0000
0100
0000
,  // measure 35
0001
0000
0000
0011
0000
0000
0100
0000
1000
0000
0000
1000
0010
0100
0001
1000
,  // measure 36
0100
0000
0010
0001
0010
0100
1000
0100
1000
0000
0000
0001
0000
0000
0100
0001
,  // measure 37
1000
0000
0010
0100
0000
0001
0010
0100
1000
0010
0100
0001
0010
0000
0100
1000
,  // measure 38
0001
0000
0000
0001
0100
0000
0010
0000
1000
0000
0000
1000
0010
0000
0100
0000
,  // measure 39
0001
0000
0000
1001
0000
0000
1000
0000
0100
0000
0000
0010
0001
0000
1000
0000
,  // measure 40
0010
0000
0100
0001
1000
0100
0010
0000
0001
0000
0000
1000
0100
0000
0010
0000
,  // measure 41
0001
0000
0100
0001
0000
0100
0001
0000
1000
0000
0000
0010
0100
0000
0001
1000
,  // measure 42
0100
0000
0000
0010
0001
0000
1000
0000
0010
0000
0000
0100
0001
0000
1000
0000
,  // measure 43
0100
0000
0000
0010
0000
0000
1001
0000
0001
0000
0000
1000
0000
0000
0100
0010
,  // measure 44
0001
0000
1000
0100
0010
0001
1000
0010
0100
0000
0000
0001
0000
0000
0010
0100
,  // measure 45
1000
0000
0010
0100
0000
0001
0010
0100
0010
0001
1000
0001
0000
0000
1000
0000
,  // measure 46
0100
0000
0000
1000
0010
0000
0100
0000
0001
0000
0000
1000
0100
0000
1000
0000
,  // measure 47
0001
0000
0000
0100
0000
0000
0001
0000
1000
0000
0000
0010
0100
0000
0001
0000
,  // measure 48
2001
0000
0010
0000
3100
0000
1000
0002
,  // measure 49
0200
0003
0001
0002
0000
0003
0010
0310
,  // measure 50
0010
0000
0020
0200
0000
0000
0000
0000
0000
0000
0000
0000
0330
0000
1000
0000
,  // measure 51
0100
0000
0100
1000
0100
0010
0001
0010
0100
1000
0001
0010
0100
1000
0100
0010
,  // measure 52
0001
0100
0010
1000
0001
1000
0010
0100
0001
0010
0100
1000
0001
1000
0100
0000
,  // measure 53
0010
0000
0001
0100
0001
0010
0100
1000
0010
1000
0100
0010
0001
1000
0010
0100
,  // measure 54
M0M0
0001
1000
0100
00MM
1000
0001
0010
M00M
0100
1000
0010
0M0M
0100
0001
0010
,  // measure 55
0100
1000
0010
0100
0001
1000
0001
0010
0100
1000
0010
1000
0001
0100
0010
1000
,  // measure 56
0100
1000
0010
0100
0001
0010
0100
1000
0001
1000
0010
0100
0001
0010
0001
1000
,  // measure 57
0100
0010
0100
1000
0001
0010
0100
1000
0010
1000
0100
0010
0001
1000
0010
0100
,  // measure 58
M00M
0010
1000
0001
0MM0
1000
0100
0010
MM00
0001
1000
0100
M00M
0010
0001
0100
,  // measure 59
0001
0010
0100
1000
0001
1000
0010
0100
0001
0100
0010
1000
0000
1000
0010
0100
,  // measure 60
0001
0010
0100
1000
0001
0010
0100
0010
0001
1000
0100
0010
0001
1000
0001
0100
,  // measure 61
0010
1000
0100
1000
0001
0100
0010
1000
0100
0010
0001
1000
0100
0010
0100
1000
,  // measure 62
0001
0000
0000
0010
0000
0000
0100
0000
1000
0000
0100
0000
1000
0000
0100
0000
1000
0000
0100
0000
0000
0010
0000
0000
0001
0000
0000
1000
0000
0000
0001
0000
0000
0100
0000
0000
0010
0000
0000
1000
0000
0000
0100
0000
0000
1000
0000
0000
,  // measure 63
0010
0100
0001
1000
0010
1000
0100
0010
0001
1000
0001
0010
0100
1000
0001
0100
,  // measure 64
0001
1000
0010
0100
0010
1000
0100
0010
0001
1000
0010
1000
0001
0100
0010
1000
,  // measure 65
0200
0000
0000
0000
0000
0000
0300
0001
0100
0000
1000
0000
0001
0000
1000
0000
,  // measure 66
1020
0000
0000
0000
0001
0000
0100
0000
0000
0000
0100
0000
1030
0000
0010
1000
,  // measure 67
0002
0000
0000
1000
0013
0000
1100
0000
,  // measure 68
1001
0000
0000
0000
;

//---------------dance-single - ----------------
#NOTEDATA:;
#CHARTNAME:;
#STEPSTYPE:dance-single;
#DESCRIPTION:;
#CHARTSTYLE:;
#DIFFICULTY:Hard;
#METER:8;
#RADARVALUES:0.411785,0.465581,0.287565,0.321799,0.280718,421.000000,379.000000,42.000000,47.000000,0.000000,0.000000,0.000000,0.000000,0.000000,0.411785,0.465581,0.287565,0.321799,0.280718,421.000000,379.000000,42.000000,47.000000,0.000000,0.000000,0.000000,0.000000,0.000000;
#CREDIT:;
#NOTES:
// measure 0
0000
0000
0000
0000
,  // measure 1
0000
0000
0000
0000
,  // measure 2
0000
0000
0000
0000
,  // measure 3
0000
0000
0000
0000
,  // measure 4
1000
0000
0000
0000
0001
0000
0000
0000
0100
0000
0000
1001
0000
0000
0010
0000
,  // measure 5
0100
0000
0000
0000
0001
0000
0000
0000
0010
0000
0000
0110
0000
0000
0100
0000
,  // measure 6
1000
0000
0000
0000
0001
0000
0000
0000
1000
0000
0000
0010
0000
0000
0100
0000
,  // measure 7
2002
0000
0000
0000
0000
0000
0000
0000
0000
0000
0000
0000
3003
0000
0001
0100
,  // measure 8
0001
0000
0100
0000
0010
0000
1000
0200
0000
0000
0000
0000
0300
0000
1000
0010
,  // measure 9
1000
0000
0100
0000
0010
0000
0001
2000
0000
0000
0000
0000
3000
0000
0001
0100
,  // measure 10
0001
0000
1000
0000
0010
0000
0100
0020
0000
0000
1030
0000
0100
0000
0010
0000
,  // measure 11
0002
0000
0000
0100
0000
0000
0003
0000
1000
0100
0000
0000
1100
0000
0000
0000
,  // measure 12
0020
0000
0000
0100
0000
0000
0130
0000
0002
0000
0000
0010
0000
0000
0013
0000
,  // measure 13
0200
0000
0000
1000
0000
0000
0310
0000
2000
0000
0000
0100
0000
0000
3010
0000
,  // measure 14
0001
0000
1000
0000
0100
0000
1000
0000
0001
0000
0000
0100
0000
0000
0010
0000
,  // measure 15
1000
0000
0000
1100
0000
0000
0000
0000
1001
0000
0000
0101
0000
0000
0001
1000
,  // measure 16
0001
0000
0010
0000
0100
0000
1000
0020
0000
0000
0130
0000
0001
0000
1000
0001
,  // measure 17
1000
0000
0100
0000
0010
0000
0001
2000
0000
0000
3001
0000
0010
0000
0100
0010
,  // measure 18
0100
0000
1000
0000
0010
0000
1000
0002
0000
0000
0103
0000
0010
0000
1000
0000
,  // measure 19
0200
0000
0000
0010
0000
0000
1300
0000
0001
1000
0000
0000
1001
0000
0000
0000
,  // measure 20
0102
0000
0000
0010
0000
0000
0010
0000
1000
0000
0000
0100
0000
0000
0013
0000
,  // measure 21
2000
0000
0000
0001
0000
0000
0001
0000
0100
0000
0000
0010
0000
0000
3001
0000
,  // measure 22
0202
0000
0000
0000
0303
0000
0000
0000
1001
0000
0000
1000
0000
0000
0010
0000
,  // measure 23
0200
0000
0000
0001
0300
0000
0001
0010
0002
0000
0000
0000
1003
0000
0000
0000
,  // measure 24
1200
0000
0000
0000
0000
0000
0000
0000
0310
0000
0000
0001
0000
0000
1000
0000
,  // measure 25
0010
0000
0000
0100
0000
0000
0002
0000
0000
0000
0000
0000
1003
0000
0000
0000
,  // measure 26
2001
0000
0000
0000
0100
0000
0000
0000
3010
0000
0000
0100
0000
0000
0001
0000
,  // measure 27
1000
0000
0000
0001
0000
0000
0100
0000
0020
0000
0000
0000
0130
0000
0000
0000
,  // measure 28
0202
0000
0000
0000
0303
0000
0000
0000
0001
0000
0000
0010
0000
0000
0100
0000
,  // measure 29
1000
0000
0000
0001
0000
0000
0102
0000
0000
0000
0000
0000
1003
0000
0000
0000
,  // measure 30
0100
1000
0200
0000
0000
0000
0310
0001
0020
0000
0000
0000
0031
0100
0002
0000
,  // measure 31
0000
0000
1003
0010
1000
0000
0000
0000
0101
0000
0000
0000
1010
0000
0000
0000
,  // measure 32
2200
0000
0000
3300
,  // measure 33
0010
0000
0000
0001
0000
0000
1000
0000
0100
0000
0000
0000
0110
0000
0001
0100
,  // measure 34
0001
0101
1000
1010
,  // measure 35
1000
0000
0000
0001
0000
0000
0010
0000
0100
0000
0000
0000
0110
0000
0100
1000
,  // measure 36
0100
0000
1000
0000
0001
0000
0100
0002
0000
0000
0000
0000
1003
0000
0010
1000
,  // measure 37
0010
0000
0100
0001
0000
0010
0000
0100
0000
1000
0001
0000
0000
0000
0000
0000
,  // measure 38
0010
1100
1000
0101
,  // measure 39
0001
0000
0000
1000
0000
0000
0010
0000
0100
0000
0000
0000
0001
0000
1000
0000
,  // measure 40
0001
0000
0011
0000
1010
0000
1000
0002
,  // measure 41
2000
0000
0000
0000
3003
0000
0000
0000
1001
0000
0000
0000
0110
0000
1000
0100
,  // measure 42
1000
1001
0010
0110
,  // measure 43
0010
0000
0000
1000
0000
0000
0100
0000
0010
0000
0000
0000
1001
0000
0001
0100
,  // measure 44
0001
0000
1000
0000
0001
0000
0100
0020
0000
0000
0000
0000
1030
0000
0100
1000
,  // measure 45
0100
0000
0010
0001
0000
1000
0000
0010
0000
0100
0001
0000
0000
0000
0000
0000
,  // measure 46
1000
0101
0100
1010
,  // measure 47
0001
0000
0000
1000
0000
0000
0100
0000
0010
0000
0000
0000
0001
0000
1000
0000
,  // measure 48
1002
0000
0100
0000
0010
0000
1003
0002
,  // measure 49
2000
0000
0003
3100
,  // measure 50
2200
0000
0000
0000
0000
0000
0000
0000
0000
0000
0000
0000
3300
0000
1000
0001
,  // measure 51
1000
0001
0100
0001
1000
0001
1000
0001
,  // measure 52
0010
0001
0100
0001
1000
0100
0010
0001
,  // measure 53
1000
0000
0100
0000
0000
0010
0000
0000
0001
0000
0000
0100
0000
0000
0001
0000
,  // measure 54
1000
0000
0010
0000
0000
1000
0000
0000
0100
0000
0000
0010
0000
0000
0001
0000
,  // measure 55
0100
0001
1000
0010
0100
0001
0100
0010
,  // measure 56
1000
0100
0010
0001
1000
0100
0001
0100
,  // measure 57
1000
0000
0001
0000
0000
1000
0000
0000
0010
0000
0000
0110
0000
0000
1000
0000
,  // measure 58
0100
0000
0010
0000
0000
0001
0000
0000
0100
0000
0000
0101
0000
0000
0001
0000
,  // measure 59
1000
0000
0100
0000
0010
0000
0001
0000
1000
0000
0001
0100
0000
0000
0001
0000
,  // measure 60
0010
0000
0001
0000
1000
0000
0010
0000
1000
0000
0100
1000
0100
0000
0010
0000
,  // measure 61
0001
0000
0100
0000
0000
0010
0000
0000
1000
0000
0000
1001
0000
0000
0001
0000
,  // measure 62
0010
0000
0100
0000
0000
1000
0000
0000
0010
0000
0000
0110
0000
0000
0100
0000
,  // measure 63
0001
0000
1000
0000
0100
0000
1000
0000
0001
0000
0100
0001
1000
0000
0010
0000
,  // measure 64
0100
0000
0001
0000
0010
0000
0100
0000
1000
0000
0001
1000
0010
0000
0100
0000
,  // measure 65
0202
0000
0000
0000
0303
0000
0000
0001
0100
0000
0010
0000
1000
0000
0100
0000
,  // measure 66
0020
0000
0000
0000
0000
0000
0030
0100
,  // measure 67
0210
0000
0000
2300
0002
0000
3003
0000
,  // measure 68
1001
0000
0000
0000
;

//---------------dance-single - ----------------
#NOTEDATA:;
#CHARTNAME:;
#STEPSTYPE:dance-single;
#DESCRIPTION:;
#CHARTSTYLE:;
#DIFFICULTY:Medium;
#METER:6;
#RADARVALUES:0.301258,0.349186,0.212250,0.356033,0.092432,308.000000,277.000000,31.000000,52.000000,0.000000,0.000000,0.000000,0.000000,0.000000,0.301258,0.349186,0.212250,0.356033,0.092432,308.000000,277.000000,31.000000,52.000000,0.000000,0.000000,0.000000,0.000000,0.000000;
#CREDIT:;
#NOTES:
0000
0000
0000
0000
,
0000
0000
0000
0000
,
0000
0000
0000
0000
,
0000
0000
0000
0000
,
1000
0000
1000
0100
1000
0000
0001
0000
,
0001
0000
0010
0001
0010
0000
0100
0000
,
0220
0330
0001
1000
,
2002
0000
0000
0000
3003
0000
0000
0001
,
0100
0010
1000
0100
,
1000
0010
1000
0000
0100
0000
0010
0000
,
0001
0100
0010
0000
1000
0000
0100
0000
,
0101
0000
1100
0000
0001
1000
0100
0000
,
0020
0130
0200
0310
,
0002
0103
2000
3010
,
0001
0000
0000
0000
0010
0000
0000
0000
0100
0000
0000
1000
0000
0000
0001
0000
,
0200
0000
0310
0000
0110
0000
0010
1000
,
0001
0000
0000
0010
0000
0000
0100
0000
0000
0000
1000
0000
0000
0001
0000
0000
,
1000
0000
0000
0010
0000
0000
0100
0000
0000
0000
0001
0000
0000
0100
0000
0000
,
1000
0000
0000
0010
0000
0000
0100
0000
0000
0000
0010
0000
0000
1000
0000
0000
,
0100
0000
0000
0001
0000
0000
0010
0000
0000
0000
0100
0000
0000
1000
0000
0000
,
0002
0103
2000
3010
,
0002
0013
0200
1300
,
2200
3300
2000
3001
,
0102
0010
2000
3003
,
2200
3300
0010
0110
,
0100
0000
0001
0000
1000
0000
0100
0010
,
0001
0000
0101
0000
0100
0000
0010
1000
,
0001
0000
0000
0010
0000
0000
0100
0000
1000
0000
0000
0000
1001
0000
0000
0000
,
0020
0000
0000
0000
0030
0000
0000
0000
0100
0000
0000
0001
0000
0000
1000
0000
,
0100
0000
0000
0010
0000
0000
0001
0000
0000
0000
0000
0000
1000
0000
0000
0000
,
2002
0000
0000
3003
0000
0000
0220
0000
0000
0330
0000
0000
0202
0000
0000
0303
,
0000
0000
2200
0000
0000
3300
0000
0000
1001
0000
0000
0000
0010
0000
0000
0000
,
0220
0000
0000
0330
,
0002
0000
0000
0000
2000
0000
3003
0001
,
0010
0011
0100
0101
,
0010
0011
0100
0101
,
0001
0100
0010
1000
0200
0000
1300
0000
,
1000
0100
1000
0001
0200
0000
0301
0000
,
0010
0110
0100
1001
,
1000
0000
0000
0001
0000
0000
1000
0000
0100
0000
0000
0000
0010
0000
0001
0000
,
1000
0000
0001
0000
0100
0000
0010
1000
,
0020
0000
0100
0000
0130
0000
0001
1000
,
0100
1100
0010
1010
,
0100
1100
0010
1010
,
0001
1000
0010
0100
0002
0000
1003
0000
,
0100
0010
1000
0001
0100
0010
1000
0000
,
0001
0101
1000
1100
,
0010
0000
0000
0001
0000
0000
1000
0000
0010
0000
0000
0000
0100
0000
0001
0000
,
2000
0000
0100
0000
0100
0000
3100
1000
,
0002
0000
0000
0000
,
2000
0000
0000
0000
3003
0000
0000
0010
,
0100
0000
1000
0000
1000
0001
0100
0001
,
1000
0000
0010
0000
0100
0001
1000
0000
,
0000
0000
0001
0000
0000
0010
0000
0000
0100
0000
0000
1000
0000
0000
0000
0000
,
0000
0000
1000
0000
0000
0010
0000
0000
0100
0000
0000
0001
0000
0000
0000
0000
,
1000
0100
1000
0001
0020
0000
0130
0000
,
0001
0100
0001
1000
0200
0000
0310
0000
,
0000
0000
0001
0000
0000
0010
0000
0000
1000
0000
0000
0100
0000
0000
0000
0000
,
0000
0000
1000
0000
0000
0001
0000
0000
0100
0000
0000
1000
0000
0000
0000
0000
,
0001
0000
0100
0000
0001
0000
1000
0000
0100
0000
0000
0010
0000
0000
0001
0000
,
1000
0010
0100
0001
2000
0000
3100
0000
,
0000
0000
0010
0000
0000
0001
0000
0000
1000
0000
0000
0010
0000
0000
0000
0000
,
0000
0000
0100
0000
0000
0001
0000
0000
1000
0000
0000
0100
0000
0000
0000
0000
,
0020
0130
2000
3001
,
0200
0310
0002
0103
,
0202
0303
0001
1000
,
0200
0000
0000
0000
,
0020
0330
0002
1003
,
1001
0000
0000
0000
;

//---------------dance-single - ----------------
#NOTEDATA:;
#CHARTNAME:;
#STEPSTYPE:dance-single;
#DESCRIPTION:;
#CHARTSTYLE:;
#DIFFICULTY:Easy;
#METER:3;
#RADARVALUES:0.188776,0.232791,0.061621,0.253331,0.000000,193.000000,184.000000,9.000000,37.000000,0.000000,0.000000,0.000000,0.000000,0.000000,0.188776,0.232791,0.061621,0.253331,0.000000,193.000000,184.000000,9.000000,37.000000,0.000000,0.000000,0.000000,0.000000,0.000000;
#CREDIT:;
#NOTES:
0000
0000
0000
0000
,
0000
0000
0000
0000
,
0000
0000
0000
0000
,
0000
0000
0000
0000
,
0001
1000
0010
0000
,
0100
0001
1000
0000
,
0200
0000
0310
0000
,
0220
0000
0330
0000
,
0001
0010
0002
0003
,
1000
0010
2000
3000
,
0001
1000
0001
1000
,
0200
0000
0300
0000
,
0020
0030
0002
0003
,
2000
3000
0020
0030
,
0200
0300
0001
1000
,
2002
3003
2002
3003
,
1000
0001
0020
0030
,
0001
1000
0020
0030
,
1000
0001
0100
0010
,
2000
0000
3000
0000
,
0002
0003
0020
0030
,
0200
0300
2000
3000
,
0020
0030
0100
0010
,
0220
0330
2002
3003
,
0020
0000
1030
0100
,
1000
0100
0010
0000
,
0200
0000
1300
0001
,
1000
0001
0100
0000
,
0002
0000
0013
0100
,
1000
0100
0010
0000
,
0001
0000
0000
1000
0000
0000
0001
0000
,
0000
1000
0000
0000
0001
0000
1000
0000
,
0200
0000
0000
0000
,
0310
0000
0100
0000
,
1001
0001
0100
0001
,
0100
0010
1000
0000
,
0001
1000
0200
0300
,
0001
1000
0100
0100
,
1000
0100
1000
0100
,
0010
0001
0010
0000
,
0001
0100
1000
0100
,
0001
0000
0000
0000
,
1001
1000
0100
1000
,
0100
0010
0001
0000
,
1000
0001
0200
0300
,
1000
0001
0100
0100
,
0001
0100
0001
0100
,
0010
1000
0010
0000
,
1000
0100
0001
0010
,
2000
0000
3000
0000
,
0002
0000
0003
0000
,
1001
0100
1000
0100
,
1000
0001
0100
0001
,
0100
0010
0100
0000
,
0010
0100
0010
0000
,
1000
0100
0010
0001
,
1000
0100
0010
0001
,
1000
0001
1000
0000
,
0001
0100
0001
0000
,
0010
0100
0010
0100
,
1000
0001
1000
0001
,
0100
0001
1000
0000
,
0100
1000
0001
0000
,
1000
0010
1000
0010
,
0100
0001
0100
0001
,
0100
0000
0010
0000
,
2000
0000
0000
0000
,
0002
0000
0000
3003
,
1001
0000
0000
0000
;

//---------------dance-single - ----------------
#NOTEDATA:;
#CHARTNAME:;
#STEPSTYPE:dance-single;
#DESCRIPTION:;
#CHARTSTYLE:;
#DIFFICULTY:Beginner;
#METER:1;
#RADARVALUES:0.105636,0.139674,0.020540,0.102702,0.000000,108.000000,105.000000,3.000000,15.000000,0.000000,0.000000,0.000000,0.000000,0.000000,0.105636,0.139674,0.020540,0.102702,0.000000,108.000000,105.000000,3.000000,15.000000,0.000000,0.000000,0.000000,0.000000,0.000000;
#CREDIT:;
#NOTES:
0000
0000
0000
0000
,
0000
0000
0000
0000
,
0000
0000
0000
0000
,
0000
0000
0000
0000
,
0001
0000
0000
0000
,
1000
0000
0000
0000
,
0010
0000
0100
0000
,
0001
0000
0000
0000
,
1000
0000
0000
0000
,
0100
0000
0000
0000
,
0010
0000
0100
0000
,
0010
0000
0100
0000
,
0020
0000
0030
0000
,
0002
0000
0003
0000
,
2000
0000
3000
0000
,
0200
0000
0300
0000
,
1000
0000
0001
0000
,
1000
0000
0001
0000
,
0100
0000
0010
0000
,
0100
0000
0010
0000
,
2000
0000
3000
0000
,
0200
0000
0300
0000
,
0020
0000
0030
0000
,
0002
0000
0003
0000
,
0100
0000
0000
0000
,
0010
0000
1000
0000
,
0100
0000
0000
0000
,
1000
0000
0001
0000
,
0100
0000
0100
0000
,
0010
0000
0010
0000
,
1000
0000
0000
1000
,
0000
0000
0001
0000
,
0100
0000
0000
0000
,
0020
0000
0030
0000
,
1001
0000
0010
0000
,
0001
0000
0010
0000
,
0100
0000
0100
0000
,
0010
0000
0010
0000
,
1000
0000
1000
0000
,
0001
0000
0001
0000
,
1000
0000
0100
0000
,
0010
0000
0001
0000
,
1000
0000
0100
0000
,
1000
0000
0001
0000
,
0100
0000
0001
0000
,
0100
0000
0001
0000
,
1000
0000
0010
0000
,
0100
0000
0001
0000
,
0020
0000
0030
0000
,
0200
0000
0300
0000
,
2000
0000
3000
0000
,
1001
0000
0001
0000
,
0001
0000
0100
0000
,
1000
0000
1000
0000
,
1000
0000
0010
0000
,
0001
0000
0010
0000
,
0001
0000
0010
0000
,
0100
0000
1000
0000
,
0100
0000
1000
0000
,
0001
0000
1000
0000
,
0001
0000
1000
0000
,
0001
0000
0010
0000
,
1000
0000
0010
0000
,
0100
0000
0010
0000
,
0100
0000
0001
0000
,
2000
0000
3000
0000
,
0002
0000
0003
0000
,
0200
0000
0300
0000
,
1001
0000
0000
0000
;
