#TITLE:Bipolar Nightmare;
#SUBTITLE:The Copied Factory;
#ARTIST:Keigo Hoashi;
#TITLETRANSLIT:;
#SUBTITLETRANSLIT:;
#ARTISTTRANSLIT:;
#GENRE:NieR Automata - FFXIV Death Unto Dawn;
#CREDIT:[Ness];
#BANNER:Final Fantasy XIV - Bipolar Nightmare.png;
#BACKGROUND:Final Fantasy XIV - Bipolar Nightmare-bg.png;
#LYRICSPATH:Final Fantasy XIV - Bipolar Nightmare.lrc;
#CDTITLE:;
#MUSIC:Final Fantasy XIV - Bipolar Nightmare.mp3;
#OFFSET:-0.015000;
#SAMPLESTART:2.285419;
#SAMPLELENGTH:18.227848;
#LASTBEATHINT:372.000031;
#SELECTABLE:YES;
#BPMS:0.000000=158.000000
;
#STOPS:
;
#BGCHANGES:;
#KEYSOUNDS:;
#ATTACKS:;

//---------------dance-single - ----------------
#NOTES:
     dance-single:
     :
     Challenge:
     10:
     0.693778,0.809068,0.428510,0.000000,0.380898,714.000000,651.000000,63.000000,0.000000,57.000000,0.000000,0.693778,0.809068,0.428510,0.000000,0.380898,714.000000,651.000000,63.000000,0.000000,57.000000,0.000000:
0000
0000
0000
0000
,
0000
0000
0000
0000
1010
0000
0000
1001
,
0000
0000
0000
0000
0011
0000
0000
0000
0010
0000
0001
0000
1000
0001
1000
0001
,
1000
0000
0000
0101
0000
0000
0100
0001
,
1000
0100
1000
0100
1000
0100
1000
0100
1000
0000
0000
0000
0100
0000
0110
0000
,
0000
0000
0010
0000
0001
0000
1000
0000
0001
0100
0001
0100
0001
0100
0001
0100
,
0001
0000
0010
1100
0000
0100
0011
0001
,
1000
0000
0010
0000
1000
0001
1000
0001
1000
0000
0000
0000
0010
0000
0101
0000
,
0000
0000
0100
0000
0001
0000
1000
0000
0100
0010
0100
0010
0100
0010
0100
0010
,
0100
0000
1000
0011
0000
0001
1100
0100
,
0010
0001
0010
0001
0010
0001
0010
0001
0010
0000
0000
0000
0001
0000
1100
0000
,
0000
0000
0010
0000
0101
0000
0100
0000
0001
1000
0001
1000
0001
1000
0001
1000
,
0001
0000
0010
1001
0000
0100
1001
0100
,
0001
1000
0001
1000
0001
1000
0001
1000
0004
0000
0000
0000
00M0
0000
1000
0000
,
0000
0000
0100
0000
0000
M000
0010
0000
,
1000
0M00
0000
0010
0000
0000
10M0
0000
,
0100
0000
0103
0000
4000
00M0
0000
0001
,
0000
0M00
0010
0000
0000
0000
00M1
0000
,
0100
000M
0000
0001
0M00
0000
0010
0000
,
010M
0000
3100
0000
0040
M000
0000
0001
,
0000
0M00
0000
000M
0100
0000
0001
M000
,
0000
000M
0000
1000
0000
0M00
1000
0000
,
0100
000M
0130
0000
0400
0000
M000
0001
,
0000
00M0
1000
0000
0010
0000
000M
0000
,
M000
0000
0000
0010
0000
000M
0000
00M0
,
1000
0000
0301
M000
0004
0000
0M00
0010
,
0000
1000
0100
00M0
0000
1000
0M10
0000
,
1000
00M0
0000
M010
0000
0100
1000
00M0
,
0100
0000
0M13
0000
4000
00M0
0000
0M01
,
0000
0100
0010
000M
0000
00M1
0001
0000
,
0100
00M0
0000
0M01
0000
0100
001M
0000
,
0100
0000
3M01
0000
0040
M000
0000
0001
,
0M00
1000
000M
0000
0100
0000
1000
0M00
,
0000
M000
0000
100M
0000
0001
1000
0000
,
010M
0000
M031
0000
0400
00M0
0000
M001
,
0000
10M0
0000
0000
M001
0000
001M
0000
,
0000
00M0
0000
100M
0000
00M1
1000
0000
,
M001
0000
1300
00M0
1001
0000
0000
0011
,
0000
0000
0000
0000
1010
0000
0000
0000
0001
0000
1000
0000
0010
0100
0001
1000
,
0100
0000
0000
0101
0000
0000
0001
1000
,
0010
0100
0001
1000
0100
0010
0100
1000
0001
0000
0000
0000
1000
0000
0101
0000
,
0000
0000
0001
0000
1000
0000
0010
0000
1000
0100
0010
0100
1000
0001
0100
0001
,
1000
0000
0001
0110
0000
0100
1001
1000
,
0010
0000
0100
0000
0001
0100
0001
1000
0010
0000
0000
0000
0001
0000
1100
0000
,
0000
0000
0100
0000
1000
0000
0010
0000
0100
0001
0010
0100
1000
0010
0100
0001
,
0100
0000
0010
0101
0000
0001
1010
1000
,
0001
0010
0001
1000
0001
0100
0001
1000
0001
0000
0000
0000
1000
0000
0011
0000
,
0000
0000
0001
0000
1100
0000
0100
0000
0010
0100
1000
0100
0010
0001
0010
0100
,
1000
0000
0001
1100
0000
1000
0101
0100
,
0010
0100
0001
0010
0100
1000
0100
0010
0001
0000
0000
0000
0001
0000
0100
0000
,
0001
1000
0010
0001
0010
0000
0001
0100
,
0001
1000
0010
0001
0010
0000
1000
0010
,
1000
0001
0100
1000
0100
0000
1000
0010
,
1000
0001
0100
1000
0100
0000
1000
0100
,
1000
0001
0010
1000
0010
0000
1000
0100
,
1000
0001
0010
1000
0010
0000
0001
0010
,
0001
1000
0100
0001
0100
0000
0001
0010
,
0001
1000
0100
0001
0100
1000
0001
0010
,
1000
0001
0100
1000
0001
0100
1000
0001
,
0010
1000
0001
0100
0010
1000
0001
0010
,
1000
0001
0100
1000
0010
0001
1000
0100
,
0001
1000
0010
0001
1000
0100
0010
1000
,
0100
0001
1000
0010
0001
0100
0010
0001
,
1000
0100
0001
1000
0010
0100
1000
0100
,
0001
1000
0010
0001
1000
0100
0010
1000
,
0100
0010
0001
0000
0011
0000
0001
1001
,
0000
1000
1010
0000
0010
0110
0000
0100
,
0001
1000
0100
0010
0001
1000
0010
0100
0001
0000
0000
0000
0010
0000
1010
0000
,
0000
0010
0011
0000
1000
0101
0000
0100
,
0010
1000
0001
0100
0010
1000
0100
0010
0001
0000
0000
0000
1000
0000
1001
0000
,
0000
0010
1001
0000
0100
1001
0000
1000
,
0001
0010
0100
1000
0100
0010
0001
0100
0001
0000
0000
0000
0001
0000
1010
0000
,
0000
0010
1100
0000
0100
1001
0000
0100
,
1000
0001
1000
0100
0010
0100
1000
0001
0100
0000
0010
0000
1000
0000
1001
0000
,
1000
0100
1001
1000
0010
0110
0100
0001
,
0010
0001
0100
0010
1000
0001
0010
0100
1000
0000
0010
0000
1000
0000
1001
0000
,
0001
0010
0011
0100
0010
0110
0001
0100
,
0001
0010
0001
1000
0010
1000
0001
0100
0001
0000
1000
0000
0100
0000
1100
0000
,
0100
0010
1010
0010
0100
1100
0100
0010
,
0100
1000
0001
1000
0100
0010
0001
0100
0001
0000
1000
0000
0010
0000
1001
0000
,
1000
0010
1001
0100
0001
1001
1000
0100
,
1000
0010
0100
0010
1000
0001
1000
0010
0100
0000
0001
0000
0010
0000
0011
0000
,
1000
0001
1001
0100
0001
0101
0100
0010
,
1000
0100
1000
0001
0010
0100
1000
0001
0100
0000
0001
0000
1000
0000
0101
0000
,
1000
0001
1100
0100
0010
0011
0001
0100
,
0001
1000
0010
0100
0001
1000
0100
0010
0100
0000
0100
0000
0100
0000
1100
0000
,
0100
0000
0100
0000
0010
0000
0100
0000
0010
0001
0010
0100
1000
0001
0010
0100
,
1000
0010
1000
1010
0010
1000
0001
0100
,
0001
1000
0010
0100
0001
1000
0010
0100
0001
0000
1000
0000
0100
0000
1001
0000
,
1000
0000
0001
0000
0100
0000
0010
0000
1000
0001
1000
0100
0010
0001
0100
0001
,
0010
1000
0100
1010
0001
0010
0100
1000
,
0010
1000
0010
0100
0001
1000
0010
0100
0001
0000
0000
0000
0000
0000
0000
0000
;

//---------------dance-single - ----------------
#NOTES:
     dance-single:
     :
     Hard:
     8:
     0.579120,0.560124,0.680175,0.204052,0.000000,596.000000,496.000000,100.000000,30.000000,0.000000,0.000000,0.579120,0.560124,0.680175,0.204052,0.000000,596.000000,496.000000,100.000000,30.000000,0.000000,0.000000:
0000
0000
0000
0000
,
0000
0000
0000
0000
1001
0000
1000
0100
,
0000
1000
0001
0000
0100
0000
0110
0000
,
0001
0000
0010
0100
0000
0010
0001
0000
,
0110
0000
0011
0000
0100
0000
0001
1000
,
0000
0010
0100
0000
0101
0000
1100
0000
,
0100
0000
1000
0010
0000
0001
0010
0000
,
0011
0000
1001
0000
1010
0000
0010
1000
,
0000
1000
0001
0000
1001
0000
0010
0000
,
1001
0000
0100
0010
0000
1000
0100
0000
,
1100
0000
0101
0000
0100
0000
0001
0010
,
0000
0100
1000
0000
1100
0000
0110
0000
,
0011
0000
0001
1000
0000
0001
0100
0000
,
0110
0000
1001
0000
0001
0000
0001
1000
,
0001
0101
0001
0011
,
1001
0000
0001
0010
0001
0000
1001
0000
,
0101
0000
0101
0000
1000
0000
1000
0001
,
1000
1010
1000
1001
,
1100
0000
1000
0001
1000
0000
1010
0000
,
1100
0000
1100
0000
0010
0000
0010
0001
,
0010
0010
0110
0011
,
0010
0000
0010
1000
0010
0000
1010
0000
,
0110
0000
0110
0000
0100
0000
0100
0001
,
0100
1100
0110
0100
,
0100
0000
0100
0010
0100
0000
0100
0000
,
1100
0000
0101
0000
0001
0000
0001
0010
,
0001
1000
0101
0000
0001
1000
0011
0000
,
1001
0000
0001
0010
0001
0100
1001
0000
,
0101
0000
0011
0000
1000
0000
1000
0001
,
1000
0100
1010
0000
1000
0001
1001
0000
,
1100
0000
1000
0001
1000
0100
1010
0000
,
1100
0000
1001
0000
0010
0000
0010
0001
,
0010
1000
0010
0000
0110
0000
1010
0000
,
0010
0000
0010
1000
0010
0001
1010
0000
,
0110
0000
0011
0000
0100
0000
0100
0001
,
0100
1000
0100
0000
0101
0000
0110
0000
,
0100
0000
0100
1000
0100
0001
1100
0000
,
0101
0000
1100
0000
1001
0000
0002
0100
,
0003
2000
0100
3000
1100
0000
0001
0000
,
0101
0000
2000
0010
3000
0002
0010
0003
,
0110
0000
0100
0000
1100
0000
0020
0001
,
0030
0020
1000
0030
1001
0000
0010
0000
,
0101
0000
0200
1000
0300
0200
0001
0300
,
0110
0000
1001
0000
1100
0000
0000
1001
,
0000
0101
1100
0110
,
1001
0000
0000
1010
0000
0000
1100
0000
,
0110
0000
0011
0000
0101
0000
0000
1001
,
0000
1010
0110
0011
,
0101
0000
0000
0110
0000
0000
1100
0000
,
1001
0000
0101
0000
1001
0000
0001
0100
,
0001
1000
0010
0001
0010
0000
0001
0100
,
0001
1000
0010
0001
0010
0000
1000
0010
,
1000
0001
0100
1000
0100
0000
1000
0010
,
1000
0001
0100
1000
0100
0000
1000
0100
,
1000
0001
0010
1000
0010
0000
1000
0100
,
1000
0001
0010
1000
0010
0000
0001
0010
,
0001
1000
0100
0001
0100
0000
0001
0010
,
0001
1000
0100
0001
0100
0000
1000
0001
,
1000
0010
0001
0010
1000
0000
1000
0001
,
1000
0010
0001
0010
1000
0000
0100
0001
,
0100
0010
0001
0010
1000
0000
0100
0001
,
0100
0010
0001
0010
1000
0000
0010
1000
,
0010
0001
1000
0001
0100
0000
0010
1000
,
0010
0001
1000
0001
0100
0000
0010
0001
,
0010
1000
0001
1000
0100
0000
0010
0001
,
0010
1000
0001
1000
0200
0000
1300
0001
,
0020
0000
0031
0100
2000
0000
3100
0001
,
0020
0000
0130
1000
0200
0000
1300
0001
,
2000
0000
3010
0000
0110
0000
0001
0100
,
1000
0000
0110
0000
0002
0000
0013
0001
,
2000
0000
3010
0100
0002
0000
0103
1000
,
0200
0000
0310
1000
0020
0000
1030
0100
,
2000
0000
3001
0000
0110
0000
1000
0001
,
0020
0100
0130
0000
0210
0000
1300
0001
,
0020
0000
0031
0100
2000
0000
3100
0001
,
0200
0000
0310
1000
0020
0000
1030
0100
,
2000
0000
3001
0000
1001
0000
1000
0100
,
0020
0000
0031
0000
1001
0000
0001
0100
,
1000
0100
0001
1000
0200
0000
0310
0001
,
2000
0000
3010
0100
0001
0000
1000
0010
,
0001
1000
0100
0001
0100
0000
1000
0010
,
0001
1000
0100
0001
0100
0000
1000
0100
,
0001
1000
0010
0001
0010
0000
1000
0100
,
0001
1000
0010
0001
0010
0000
0001
0010
,
1000
0001
0100
1000
0001
0010
1000
0001
,
0100
1000
0100
0010
0001
0000
0000
1001
,
0000
0000
0010
1000
0100
1000
0001
0000
,
1100
0000
1000
0001
0000
1000
0010
0000
,
0100
0001
1000
0001
0100
0000
0001
1000
,
0000
0100
0010
0000
0001
1000
0010
0100
,
0001
0000
1000
0100
0000
0010
0001
0000
,
1000
0010
1000
0001
0101
0000
0000
0000
;

//---------------dance-single - ----------------
#NOTES:
     dance-single:
     :
     Medium:
     6:
     0.442114,0.435652,0.380898,0.108828,0.000000,455.000000,399.000000,56.000000,16.000000,0.000000,0.000000,0.442114,0.435652,0.380898,0.108828,0.000000,455.000000,399.000000,56.000000,16.000000,0.000000,0.000000:
0000
0000
0000
0000
,
0000
0000
0000
0000
1001
0000
0000
0010
,
0000
1000
0100
0010
,
0110
0000
0000
0001
0000
0000
1000
0000
,
0001
0000
0100
0000
0101
0000
0000
1000
,
0000
0100
0010
0001
,
0011
0000
0000
1000
0000
0000
0001
0000
,
1000
0000
0010
0000
1010
0000
0000
0100
,
0000
0001
1000
0100
,
0110
0000
0000
1000
0000
0000
0001
0000
,
0010
0000
1000
0000
1010
0000
0000
1000
,
0000
0001
1000
0100
,
0101
0000
0000
0100
0000
0000
0010
0000
,
0001
0000
1000
0000
2001
0000
0000
0100
,
0000
3000
1000
0000
0100
0000
0001
0000
,
1002
0000
0000
0100
0000
0003
0001
0000
,
0100
0000
1000
0000
1200
0000
0000
0010
,
0000
0300
0100
0000
1000
0000
0010
0000
,
1020
0000
0000
0100
0000
0030
0010
0000
,
0001
0000
0100
0000
2100
0000
0000
0001
,
0000
3000
1000
0000
0001
0000
0100
0000
,
1002
0000
0000
0010
0000
0003
0001
0000
,
1000
0000
0010
0000
0210
0000
0000
1000
,
0000
0300
0100
0000
0001
0000
1000
0000
,
1002
0000
0000
0010
0000
0003
0001
0000
,
0100
1000
0110
2000
,
3010
0000
1000
0001
0100
0001
1000
0000
,
1001
0000
0002
0000
0103
0000
1000
0001
,
0100
0001
1000
0000
1010
0000
0200
0000
,
0310
0000
1000
0001
0100
0001
1000
0000
,
0011
0000
2000
0000
3100
0000
1000
0001
,
0100
0001
1000
0000
1001
0000
0020
0000
,
0031
0000
1000
0001
0100
0001
1000
0000
,
0110
0000
0200
0000
0301
0000
1000
0001
,
0100
0001
1000
0000
0101
0000
0020
0000
,
0130
0000
1000
0001
0100
0001
1000
0000
,
0110
0000
2000
0000
3100
0000
1000
0001
,
0100
0001
1000
0000
1100
0000
0000
0110
,
0000
0001
1000
0010
,
0011
0000
0000
0110
0000
0000
0001
0000
,
0100
0000
1000
0000
1100
0000
0000
1001
,
0000
1000
0010
0100
,
0101
0000
0000
0011
0000
0000
0010
0000
,
0001
0000
1000
0000
1001
0000
0000
1010
,
0000
0100
1000
0001
,
0101
0000
0000
0110
0000
0000
1000
0000
,
0001
0000
1000
0000
1100
0000
0000
0110
,
0000
0001
1000
0010
,
0011
0000
0000
1010
0000
0000
0100
0000
,
0001
0000
1000
0000
0100
0000
1000
0001
,
0100
0000
0001
1000
0010
0000
1000
0100
,
0010
0000
0001
0100
0010
0000
1000
0100
,
1000
0001
0010
0100
,
1000
0000
0001
0000
0100
0000
0010
1000
,
0001
0000
0010
0001
0100
0000
0010
1000
,
0001
0000
0010
0100
1000
0000
0100
0010
,
0001
1000
0100
0010
,
0001
0000
0100
0000
0010
0000
1000
0010
,
0100
0000
0001
1000
0010
0000
1000
0100
,
0010
0000
0001
1000
0100
0000
0010
0100
,
1000
0000
0001
0010
0100
0000
1000
0010
,
0100
0000
0001
0100
0010
0000
1000
0001
,
0100
1000
0100
0001
,
0010
0100
1000
0000
0001
0000
0010
0001
,
0100
0000
1000
0000
0001
0000
1000
0001
,
0010
0000
0100
0000
1100
0000
1000
0010
,
0100
0000
0100
0001
0010
0000
0010
0100
,
1000
0000
1000
0001
0100
0000
0100
0010
,
1000
0000
1001
0000
0010
0000
1000
0100
,
0001
0000
0101
0000
1000
0000
0001
0010
,
0100
0000
0100
1000
0010
0000
0010
0100
,
0001
0000
0001
0010
0100
0000
0100
1000
,
0001
0000
1000
0000
0010
0000
0100
0001
,
1000
0000
0010
0100
0001
0000
0010
0001
,
0010
0000
0100
1000
0010
0000
1000
0010
,
1000
0000
0001
0100
0010
0000
1000
0100
,
0001
0000
0100
1000
0010
0000
1000
0100
,
0001
0000
0100
0000
0110
0000
0001
0010
,
0100
0000
1000
0000
1010
0000
1000
0010
,
0100
0000
0001
0000
1001
0000
0001
0100
,
0001
0000
1000
0000
1001
0000
1000
0100
,
1000
0000
0001
0000
0011
0000
1000
0010
,
1000
0000
0001
0000
0101
0000
1000
0100
,
1000
0000
0010
0000
1010
0000
0001
0010
,
0001
0000
0100
0000
1100
0000
0001
0100
,
0001
0000
0010
0000
0110
0000
0000
1000
,
0000
0001
1000
0100
,
1001
0000
0000
0100
0000
0000
1000
0000
,
0001
0000
0100
0000
1001
0000
0000
0010
,
0000
1000
0100
0010
,
0011
0000
0000
1000
0000
0000
0001
0000
,
1000
0010
0110
0000
;

//---------------dance-single - ----------------
#NOTES:
     dance-single:
     :
     Easy:
     4:
     0.270127,0.311180,0.027207,0.469321,0.000000,278.000000,274.000000,4.000000,69.000000,0.000000,0.000000,0.270127,0.311180,0.027207,0.469321,0.000000,278.000000,274.000000,4.000000,69.000000,0.000000,0.000000:
// measure 0
0000
0000
0000
0000
,  // measure 1
0000
0000
0000
0000
1000
0000
0000
0001
,  // measure 2
0000
1000
0100
1000
,  // measure 3
0001
0000
0000
0100
0000
0000
0010
0000
,  // measure 4
0100
0000
0001
0000
0010
0000
0000
0001
,  // measure 5
0000
0010
0100
1000
,  // measure 6
0010
0000
0000
0100
0000
0000
0010
0000
,  // measure 7
1000
0000
0001
0000
1000
0000
0000
0100
,  // measure 8
0000
0010
0100
1000
,  // measure 9
0010
0000
0000
1000
0000
0000
0001
0000
,  // measure 10
0100
0000
0010
0000
0100
0000
0000
0001
,  // measure 11
0000
0010
0001
1000
,  // measure 12
0010
0000
0000
1000
0000
0000
0100
0000
,  // measure 13
1000
0001
0200
0000
,  // measure 14
0301
0000
0010
0100
,  // measure 15
2000
0000
3010
0000
,  // measure 16
1000
0001
2000
0000
,  // measure 17
3100
0000
0010
0001
,  // measure 18
0200
0000
0301
0000
,  // measure 19
0010
0100
0020
0000
,  // measure 20
0031
0000
1000
0001
,  // measure 21
2000
0000
3010
0000
,  // measure 22
0100
0001
0200
0000
,  // measure 23
0310
0000
1000
0001
,  // measure 24
0020
0000
0130
0000
,  // measure 25
1000
0100
0020
0000
,  // measure 26
0031
0000
1000
0001
,  // measure 27
0200
0000
1300
0000
,  // measure 28
0100
0010
0200
0000
,  // measure 29
0301
0000
0010
0100
,  // measure 30
0020
0000
1030
0000
,  // measure 31
0010
0100
0020
0000
,  // measure 32
0031
0000
1000
0001
,  // measure 33
0200
0000
0301
0000
,  // measure 34
0001
1000
0002
0000
,  // measure 35
0013
0000
1000
0100
,  // measure 36
2000
0000
3010
0000
,  // measure 37
1000
0000
0001
0000
1001
0000
0000
0100
,  // measure 38
0000
0001
0100
0010
,  // measure 39
1000
0000
0000
0100
0000
0000
1000
0000
,  // measure 40
0001
0000
0010
0000
0001
0000
0000
0100
,  // measure 41
0000
0001
0010
1000
,  // measure 42
0100
0000
0000
0010
0000
0000
0100
0000
,  // measure 43
1000
0000
0010
0000
0100
0000
0000
0010
,  // measure 44
0000
1000
0001
0100
,  // measure 45
0010
0000
0000
1000
0000
0000
0001
0000
,  // measure 46
0100
0000
1000
0000
0010
0000
0000
0100
,  // measure 47
0000
0001
0010
0100
,  // measure 48
1000
0000
0000
0001
0000
0000
0100
0000
,  // measure 49
0001
1000
2002
0003
,  // measure 50
0200
0300
0002
0003
,  // measure 51
0200
0300
0002
3000
,  // measure 52
0200
0300
2000
3000
,  // measure 53
0200
0303
0020
0000
,  // measure 54
0200
0300
2000
3000
,  // measure 55
0200
0030
0002
0003
,  // measure 56
0020
0300
2000
3000
,  // measure 57
0200
0330
0002
0000
,  // measure 58
2000
0003
0200
3000
,  // measure 59
0020
0300
0002
0030
,  // measure 60
0200
0003
0020
0300
,  // measure 61
2000
0030
0002
3000
,  // measure 62
2000
0000
0000
0003
,  // measure 63
0200
3000
0020
0000
,  // measure 64
0000
0300
0002
0000
,  // measure 65
0000
0033
1001
0010
,  // measure 66
2000
3100
0002
0013
,  // measure 67
0200
1300
0020
0130
,  // measure 68
0002
1003
0100
0010
,  // measure 69
0100
1000
0002
0013
,  // measure 70
2000
3010
0002
0103
,  // measure 71
2000
3100
0020
0130
,  // measure 72
2000
3001
0200
0310
,  // measure 73
2000
3100
0020
0031
,  // measure 74
0200
0301
2000
3010
,  // measure 75
0002
0103
0020
0130
,  // measure 76
0002
0013
0100
1000
,  // measure 77
0002
1003
0200
1300
,  // measure 78
0010
0100
0002
1003
,  // measure 79
0200
0310
0001
0100
,  // measure 80
1000
0100
0001
0100
,  // measure 81
1000
0100
0001
0010
,  // measure 82
1000
0010
0001
0010
,  // measure 83
1000
0010
0001
0100
,  // measure 84
0010
1000
0001
0100
,  // measure 85
0010
0000
1000
0000
0100
0000
0000
0010
,  // measure 86
0000
0001
1000
0001
,  // measure 87
0100
0000
0000
0010
0000
0000
1000
0000
,  // measure 88
0010
0000
1000
0000
0100
0000
0000
0010
,  // measure 89
0000
0001
0100
0001
,  // measure 90
0010
0000
0000
0100
0000
0000
1000
0000
,  // measure 91
0001
0100
1001
0000
;

//---------------dance-single - ----------------
#NOTES:
     dance-single:
     :
     Beginner:
     2:
     0.154497,0.186708,0.020405,0.129233,0.000000,159.000000,156.000000,3.000000,19.000000,0.000000,0.000000,0.154497,0.186708,0.020405,0.129233,0.000000,159.000000,156.000000,3.000000,19.000000,0.000000,0.000000:
// measure 0
0000
0000
0000
0000
,  // measure 1
0000
0000
0001
0000
,  // measure 2
0000
0010
0010
0000
,  // measure 3
0100
0000
0000
1000
,  // measure 4
1000
0000
0001
0000
,  // measure 5
0000
0100
0100
0000
,  // measure 6
1000
0000
0000
0010
,  // measure 7
0010
0000
0100
0000
,  // measure 8
0000
0001
0001
0000
,  // measure 9
0010
0000
0000
0100
,  // measure 10
0100
0000
1000
0000
,  // measure 11
0000
0001
0001
0000
,  // measure 12
0010
0000
0000
0100
,  // measure 13
0100
0000
2000
0000
,  // measure 14
3000
0000
0010
0000
,  // measure 15
0020
0000
0030
0000
,  // measure 16
0100
0100
0200
0000
,  // measure 17
0300
0000
0000
0000
,  // measure 18
0000
0000
0000
0000
,  // measure 19
0000
0000
0002
0000
,  // measure 20
0003
0000
0010
0010
,  // measure 21
0020
0000
0030
0000
,  // measure 22
0100
0100
0200
0000
,  // measure 23
0300
0000
0000
0000
,  // measure 24
2000
0000
3000
0000
,  // measure 25
0000
0000
0020
0000
,  // measure 26
0030
0000
1000
1000
,  // measure 27
2000
0000
3000
0000
,  // measure 28
0001
0001
0002
0000
,  // measure 29
0003
0000
0000
0000
,  // measure 30
0000
0000
0000
0000
,  // measure 31
0010
0010
0020
0000
,  // measure 32
0030
0000
0000
0100
,  // measure 33
0200
0000
0300
0000
,  // measure 34
1000
1000
2000
0000
,  // measure 35
3000
0000
0000
0000
,  // measure 36
0000
0000
0000
0000
,  // measure 37
0000
0000
0010
0000
,  // measure 38
0000
1000
1000
0000
,  // measure 39
0100
0000
0000
0001
,  // measure 40
0001
0000
0010
0000
,  // measure 41
0000
0100
0100
0000
,  // measure 42
1000
0000
0000
0001
,  // measure 43
0001
0000
0100
0000
,  // measure 44
0000
0010
0010
0000
,  // measure 45
1000
0000
0000
0100
,  // measure 46
0100
0000
0010
0000
,  // measure 47
0000
0001
0001
0000
,  // measure 48
0100
0000
0000
0001
,  // measure 49
0001
0000
1000
0000
,  // measure 50
0100
0000
0001
0000
,  // measure 51
0010
0000
0100
0000
,  // measure 52
1000
0000
0001
0000
,  // measure 53
0100
0000
0001
0000
,  // measure 54
0010
0000
0100
0000
,  // measure 55
1000
0000
0010
0000
,  // measure 56
0100
0000
0001
0000
,  // measure 57
1000
0000
0100
0000
,  // measure 58
0010
0000
0100
0000
,  // measure 59
0010
0000
0001
0000
,  // measure 60
1000
0000
0001
0000
,  // measure 61
1000
0000
0001
0000
,  // measure 62
0100
0000
1000
0000
,  // measure 63
0100
0000
0001
0000
,  // measure 64
0010
0000
0100
0000
,  // measure 65
1000
0000
1001
0000
,  // measure 66
0100
0000
0010
0000
,  // measure 67
0100
0000
0010
0000
,  // measure 68
0001
0000
0100
0000
,  // measure 69
0010
0000
1000
0000
,  // measure 70
0001
0000
0100
0000
,  // measure 71
0010
0000
1000
0000
,  // measure 72
0100
0000
0010
0000
,  // measure 73
0001
0000
1000
0000
,  // measure 74
0001
0000
0100
0000
,  // measure 75
0010
0000
1000
0000
,  // measure 76
0100
0000
0010
0000
,  // measure 77
0001
0000
1000
0000
,  // measure 78
0001
0000
1000
0000
,  // measure 79
0001
0000
0200
0000
,  // measure 80
0300
0000
0200
0000
,  // measure 81
0300
0000
0020
0000
,  // measure 82
0030
0000
0020
0000
,  // measure 83
0030
0000
0020
0000
,  // measure 84
0030
0000
0020
0000
,  // measure 85
0030
0000
1001
0000
,  // measure 86
0000
0010
0010
0000
,  // measure 87
1000
0000
0000
0100
,  // measure 88
0100
0000
0001
0000
,  // measure 89
0000
1000
1000
0000
,  // measure 90
0100
0000
0000
0001
,  // measure 91
0001
0000
1001
0000
;
