#VERSION:0.83;
#TITLE:Bee My Honey;
#SUBTITLE:AAC Light-heavyweight M2;
#ARTIST:Masayoshi Soken;
#TITLETRANSLIT:;
#SUBTITLETRANSLIT:;
#ARTISTTRANSLIT:;
#GENRE:Dawntrail;
#ORIGIN:;
#CREDIT:[Ness];
#BANNER:Final Fantasy XIV - Bee My Honey.png;
#BACKGROUND:Final Fantasy XIV - Bee My Honey-bg.png;
#PREVIEWVID:;
#JACKET:Final Fantasy XIV - Bee My Honey-jacket.png;
#CDIMAGE:;
#DISCIMAGE:;
#LYRICSPATH:Final Fantasy XIV - Bee My Honey.lrc;
#CDTITLE:;
#MUSIC:Final Fantasy XIV - Bee My Honey.mp3;
#OFFSET:-0.035000;
#SAMPLESTART:95.430779;
#SAMPLELENGTH:12.387100;
#SELECTABLE:YES;
#BPMS:0.000=155.000,
232.000=310.000,
355.000=155.000,
367.000=310.000,
378.000=155.000;
#STOPS:35.500=0.194,
37.500=0.581,
65.500=0.194,
67.500=0.194,
96.500=0.194,
98.500=0.194,
228.000=0.387,
229.000=0.387,
234.000=0.194,
235.000=0.484,
235.500=0.097,
236.000=0.484,
236.500=0.097,
237.000=0.097,
237.500=0.097,
238.000=0.097,
238.500=0.097,
363.000=0.387,
364.000=0.387,
369.000=0.194,
370.000=0.484,
370.500=0.097,
371.000=0.484,
371.500=0.097,
372.000=0.097,
372.500=0.097,
373.000=0.097,
373.500=0.097;
#DELAYS:;
#WARPS:;
#TIMESIGNATURES:0.000=4=4,
36.000=2=4,
38.000=4=4,
66.000=3=4,
69.000=4=4,
97.000=3=4,
100.000=4=4,
228.000=2=4,
230.000=5=4,
235.000=2=4,
239.000=4=4,
363.000=2=4,
365.000=5=4,
370.000=2=4,
372.000=7=4,
378.000=4=4;
#TICKCOUNTS:0.000=2;
#COMBOS:0.000=1;
#SPEEDS:0.000=1.000=0.000=0;
#SCROLLS:0.000=1.000;
#FAKES:;
#LABELS:0.000=Song Start;
#LASTSECONDHINT:130.117798;
#BGCHANGES:;
#KEYSOUNDS:;
#ATTACKS:
;

//---------------dance-single - ----------------
#NOTEDATA:;
#CHARTNAME:;
#STEPSTYPE:dance-single;
#DESCRIPTION:;
#CHARTSTYLE:;
#DIFFICULTY:Challenge;
#METER:11;
#RADARVALUES:0.801371,0.981680,0.511987,0.051941,0.315354,756.000000,687.000000,69.000000,7.000000,0.000000,0.000000,0.000000,0.000000,0.000000,0.801371,0.981680,0.511987,0.051941,0.315354,756.000000,687.000000,69.000000,7.000000,0.000000,0.000000,0.000000,0.000000,0.000000;
#CREDIT:;
#NOTES:
// measure 0
0000
0000
0000
0000
,  // measure 1
0000
0000
0000
0000
,  // measure 2
0101
0000
0100
1000
0010
0000
1000
0010
,  // measure 3
0001
0000
0010
0000
0100
0001
0000
0000
0100
0000
0000
0000
0100
0000
1000
0000
,  // measure 4
1100
0000
0100
0001
0010
0000
0001
1000
,  // measure 5
0010
0000
0100
0000
1000
0100
0000
0010
0000
0000
0000
0000
1000
0000
0010
0000
,  // measure 6
1010
0000
0010
0001
0100
0000
0001
1000
,  // measure 7
0100
0000
0001
0000
1000
0010
0000
0100
0000
0000
0000
0000
0001
0000
0010
0000
,  // measure 8
0011
0000
0010
1000
0100
0000
0001
1000
,  // measure 9
0110
0001
1000
0101
1000
0100
1000
1000
,  // measure 10
0010
0000
0001
0000
0010
0000
0010
0000
0100
0000
0001
0000
1000
0100
0000
0010
,  // measure 11
0000
0000
1001
0000
0001
1000
0010
1000
,  // measure 12
0100
0000
0001
0000
0100
0000
1000
0000
0010
0000
0100
0000
1000
0100
0000
0001
,  // measure 13
0000
0000
1000
0000
1000
0001
1000
0000
1001
0000
1000
0000
0001
0000
1000
0000
,  // measure 14
0010
0000
0001
0000
0001
0000
0010
0000
1000
0000
1000
0000
0001
0010
0000
0100
,  // measure 15
0000
0000
1001
0000
0010
1000
0100
0010
,  // measure 16
0001
1000
0010
0100
0101
0010
0100
1010
,  // measure 17
0000
0000
0010
0001
0010
1000
0010
0100
,  // measure 18
1000
0000
0100
0000
0001
0000
0010
0000
0100
0001
0000
0100
0000
0000
0000
0000
,  // measure 19
0110
0000
0100
1000
0100
0001
1000
0100
,  // measure 20
0001
0000
0100
0000
1000
0000
0010
0000
0100
1000
0000
0100
0000
0000
0001
0000
,  // measure 21
0001
1000
0100
0000
1100
0000
0001
0000
0010
0000
0100
0000
1000
0000
0001
0000
,  // measure 22
0010
0000
1000
0000
0100
0000
0010
0000
0001
0100
0000
1000
0000
0000
0000
0000
,  // measure 23
0110
0000
0001
0000
1010
0100
0010
0000
,  // measure 24
1000
0001
1001
0100
0010
1001
0200
0000
,  // measure 25
0310
0000
0010
1000
0100
0000
1000
0000
0100
0000
0001
0100
0010
0000
0100
0000
,  // measure 26
0001
0000
1000
0010
0100
0000
0001
0000
0010
0000
1000
0100
0010
0000
0100
1000
,  // measure 27
0100
0000
0001
0010
0100
0000
1000
0000
0010
0000
0001
1000
0010
0000
0100
0000
,  // measure 28
0001
0000
1000
0100
0010
0000
0100
0000
0100
0000
0001
0000
0001
0100
0010
1000
,  // measure 29
0100
0000
0010
0001
1000
0000
0001
0000
0100
0000
1000
0100
0010
0000
0100
0000
,  // measure 30
1000
0000
0100
0010
0001
0000
1000
0000
0100
0000
0001
0010
0100
0000
1000
0010
,  // measure 31
1000
0000
0010
0100
0001
0000
1000
0000
0010
0000
0001
1000
0100
0000
0010
0000
,  // measure 32
0001
0000
1000
0010
0100
0000
0001
0000
0001
0000
0010
0000
1001
0000
0010
0000
,  // measure 33
1001
0001
0100
1000
0100
0010
0100
0001
,  // measure 34
0100
0000
1000
0000
0100
0000
0010
0000
0100
0000
1000
0000
0100
0100
0001
0000
,  // measure 35
0010
0100
0010
1000
0010
0100
0010
0001
,  // measure 36
0010
0000
1000
0000
0010
0000
0001
0000
0010
0010
0100
0000
0010
0010
0100
0000
,  // measure 37
1001
0001
0010
0100
0010
1000
0010
0001
,  // measure 38
0100
0000
1000
0000
0100
0000
0010
0100
0000
0000
0001
0000
1000
0000
0100
0000
,  // measure 39
0110
0001
0010
1000
0020
0000
0130
1000
,  // measure 40
1000
0000
0001
0000
0100
0000
0010
0000
0200
0000
0010
0000
0310
1000
0001
0100
,  // measure 41
0010
1000
0000
0000
1000
0100
0000
0000
0100
0001
0000
0000
0001
1000
0000
0000
,  // measure 42
0010
0001
0000
0000
0010
1000
0000
0000
0100
0001
0000
0000
1000
1000
0100
0000
,  // measure 43
0100
0001
0000
0000
0001
1000
0000
0000
1000
0100
0000
0000
0100
0010
0000
0000
,  // measure 44
0010
1000
0000
0000
1000
0001
0000
0000
0001
0001
0010
0000
1000
1000
0010
0100
,  // measure 45
0100
0001
0100
0000
0010
1000
0010
0000
1000
0100
1000
0000
0001
0010
0001
0000
,  // measure 46
1000
0001
0100
0000
0010
1000
0100
0000
1000
0001
0010
0000
0100
1000
0001
0000
,  // measure 47
0101
0100
1000
0001
0020
0000
1030
0001
,  // measure 48
0100
1000
0001
0010
2000
0000
3100
0000
,  // measure 49
0110
0000
0001
0100
0000
0000
1000
0000
0100
0000
0000
0000
0110
0000
0000
0010
,  // measure 50
0001
0000
0000
0000
1000
0000
0000
0010
0100
0000
0001
1000
0010
0100
0001
1000
,  // measure 51
0100
0000
0010
0000
0010
0000
0001
0100
0000
0000
1000
0000
1000
0000
0100
0000
,  // measure 52
0001
0000
0100
0000
1000
0000
0100
0000
0001
0000
1000
0100
0010
0001
0100
0010
,  // measure 53
1000
0000
0100
1000
0000
0000
0001
0000
0100
0000
0000
0000
0110
0000
0000
1000
,  // measure 54
0010
0000
0000
0000
0100
0000
0000
0001
1000
0000
0010
0100
0001
1000
0100
0010
,  // measure 55
0001
0000
0100
0000
0100
0000
0001
0100
0000
0000
0010
0000
0010
0000
0010
0000
,  // measure 56
1010
1001
1100
1010
1001
0000
0002
0000
,  // measure 57
0103
1001
1100
1001
0101
1001
1100
1001
,  // measure 58
0101
0000
0010
0000
0010
0000
0110
1010
,  // measure 59
0110
0011
0110
1010
0110
0011
0110
0000
,  // measure 60
1000
0100
1000
1001
,  // measure 61
0001
0010
0100
0000
1000
0001
0100
0000
,  // measure 62
1000
0010
0100
0000
1000
0010
0001
0000
,  // measure 63
0001
0100
0010
0000
0001
0100
1000
0000
,  // measure 64
0001
0010
0100
1000
0100
0010
0001
0000
,  // measure 65
1000
0001
0100
0000
1000
0001
0010
0000
,  // measure 66
1000
0010
0100
0001
0100
0010
1000
0000
,  // measure 67
0001
0010
0100
0000
0001
0010
1000
0000
,  // measure 68
0001
0100
0010
1000
0100
0010
0100
0000
,  // measure 69
0010
0001
0100
0000
0010
1000
0100
0000
,  // measure 70
0010
0001
0100
0010
1000
0100
0010
0000
,  // measure 71
0100
1000
0010
0000
0100
0001
0010
0000
,  // measure 72
0100
1000
0001
0100
0001
1000
0100
0000
,  // measure 73
0100
1000
0001
0100
0001
1000
0100
0000
,  // measure 74
0100
1000
0001
0100
0001
1000
0010
0000
,  // measure 75
0010
1000
0001
0100
0001
1000
0010
0000
,  // measure 76
0110
0001
1000
0101
,  // measure 77
0001
0100
0010
0000
1000
0100
0010
0000
,  // measure 78
0100
0010
0001
1000
0001
0010
0100
0000
,  // measure 79
0010
0001
0100
0000
1000
0100
0010
0000
,  // measure 80
1000
0100
0010
1000
0010
0100
1000
0000
,  // measure 81
0100
0010
0001
0000
0100
0010
0001
0000
,  // measure 82
0010
0100
0001
0100
0010
1000
0100
0000
,  // measure 83
1000
0100
0001
0000
0001
0100
1000
0000
,  // measure 84
1000
0100
0001
0100
1000
0100
0010
0000
,  // measure 85
0001
0100
0010
0000
0001
0010
1000
0000
,  // measure 86
0100
0010
0100
1000
0001
0010
0100
0000
,  // measure 87
1000
0010
0100
0000
0001
0010
0100
0000
,  // measure 88
1000
0010
0100
0001
1000
0100
0010
0000
,  // measure 89
0001
1000
0100
0000
0010
0000
0011
0000
,  // measure 90
1000
0010
0100
0000
0100
0000
1001
0110
,  // measure 91
1001
0110
1001
0110
1001
0110
1001
0000
,  // measure 92
0010
0000
0010
0000
0101
1100
0101
1010
,  // measure 93
0011
0101
1100
1010
1001
0000
0100
0000
,  // measure 94
0200
0000
0300
0000
;

//---------------dance-single - ----------------
#NOTEDATA:;
#CHARTNAME:;
#STEPSTYPE:dance-single;
#DESCRIPTION:;
#CHARTSTYLE:;
#DIFFICULTY:Hard;
#METER:9;
#RADARVALUES:0.543788,0.627741,0.385845,0.534248,0.196633,513.000000,461.000000,52.000000,72.000000,0.000000,0.000000,0.000000,0.000000,0.000000,0.543788,0.627741,0.385845,0.534248,0.196633,513.000000,461.000000,52.000000,72.000000,0.000000,0.000000,0.000000,0.000000,0.000000;
#CREDIT:;
#NOTES:
// measure 0
0000
0000
0000
0000
,  // measure 1
0000
0000
0000
0000
,  // measure 2
0102
1003
2100
3001
,  // measure 3
1000
0000
0100
0000
1000
0100
0000
0000
0001
0000
0000
0000
0100
0000
0000
0000
,  // measure 4
0012
1003
2010
3001
,  // measure 5
1000
0000
0010
0000
0100
0001
0000
1000
0000
0000
0000
0000
0010
0000
0000
0000
,  // measure 6
2100
3010
0102
0013
,  // measure 7
0100
0000
1000
0000
0001
0100
0000
0010
0000
0000
0000
0000
0100
0000
0000
0000
,  // measure 8
2010
0000
3100
0000
0012
0000
0103
0010
,  // measure 9
1000
0100
0010
0001
1000
0100
1000
0000
,  // measure 10
0001
0000
0010
0000
0001
0000
0000
0000
1000
0000
0010
0000
0100
0001
0000
0100
,  // measure 11
0000
0000
0010
0000
1000
0001
0010
0000
,  // measure 12
0100
0000
1000
0000
0001
0000
0000
0000
0010
0000
0100
0000
0010
0001
0000
0100
,  // measure 13
0000
0000
0010
0000
1000
0001
0010
0000
,  // measure 14
0100
0000
1000
0000
0001
0000
0000
0000
0100
0000
0010
0000
1000
0001
0000
0010
,  // measure 15
0000
0000
0000
0000
0100
1000
0010
0000
,  // measure 16
0100
0001
1000
0100
0010
0001
1000
0100
,  // measure 17
0000
0000
0110
0000
0001
1000
0010
0000
,  // measure 18
0100
0000
0001
0000
0010
0000
0100
0000
0000
1100
0000
0000
0101
0000
0000
0000
,  // measure 19
0100
0000
0010
0000
1000
0001
0010
0000
,  // measure 20
0100
0000
1000
0000
0010
0000
0100
0000
0000
0101
0000
0000
1001
0000
0000
0000
,  // measure 21
0001
0010
0100
0000
1000
0010
0100
0000
,  // measure 22
0001
0000
1000
0000
0100
0000
0010
0000
0000
0011
0000
0000
1010
0000
0000
0000
,  // measure 23
1000
0001
0100
0000
0010
1000
0100
0000
,  // measure 24
0010
0001
1000
0100
0010
0001
0000
0000
,  // measure 25
1001
0000
0000
0001
1000
0000
0000
1000
0010
0000
0000
0010
0100
0000
0000
0100
,  // measure 26
0001
0000
0000
0001
0010
0000
0000
0010
0100
0000
0000
0100
1000
0000
0000
1000
,  // measure 27
0010
0000
0000
0010
0001
0000
0000
0001
0100
0000
0000
0100
1000
0000
0000
1000
,  // measure 28
0010
0000
0000
0010
0100
0000
0000
0100
0001
0000
1000
0000
0100
0000
0000
0000
,  // measure 29
1100
0000
0000
0100
0010
0000
0000
0010
0001
0000
0000
0001
0100
0000
0000
0100
,  // measure 30
0010
0000
0000
0010
1000
0000
0000
1000
0100
0000
0000
0100
0010
0000
0000
0010
,  // measure 31
0001
0000
0000
0001
0100
0000
0000
0100
1000
0000
0000
1000
0010
0000
0000
0010
,  // measure 32
0001
0000
0000
0001
0100
0000
0000
0100
0010
0000
1000
0000
0100
0000
0000
0000
,  // measure 33
0102
0013
2100
3010
,  // measure 34
0100
0001
1000
0100
0000
0010
0010
0000
,  // measure 35
2001
3010
1002
0103
,  // measure 36
0010
1000
0100
0010
0000
0001
1000
0000
,  // measure 37
2010
3100
0012
1003
,  // measure 38
0100
0000
0010
0000
1000
0000
0010
0100
0000
0000
0000
0000
0001
0000
1000
0000
,  // measure 39
0200
0000
0001
0000
1300
0000
0100
1000
,  // measure 40
0020
0001
1030
0110
,  // measure 41
0001
0001
1000
1000
,  // measure 42
0001
0100
1000
0100
0001
0100
1000
0100
,  // measure 43
0001
0001
0010
0010
,  // measure 44
1000
0010
0001
0010
1000
0010
0001
0010
,  // measure 45
0100
0100
1000
1000
,  // measure 46
0001
1000
0010
0100
0001
1000
0010
0100
,  // measure 47
0001
0010
0001
0010
1000
0000
1010
0000
,  // measure 48
1000
0100
1000
0100
0001
0000
0101
0000
,  // measure 49
1000
0000
0000
0001
0000
0000
0100
0000
0001
0000
0000
0000
0011
0000
0000
0010
,  // measure 50
0100
0000
0000
0100
1000
0000
0000
1000
0010
0000
0000
1000
0000
0000
0002
0000
,  // measure 51
0000
0103
0010
1000
,  // measure 52
0001
1000
0100
1000
0001
0100
0001
1000
,  // measure 53
0100
0000
0000
0010
0000
0000
0001
0000
0100
0000
0000
0000
1010
0000
0000
1000
,  // measure 54
0001
0000
0000
0001
0010
0000
0000
0010
0100
0000
0000
1000
0000
0000
0020
0000
,  // measure 55
0000
0130
0001
1000
,  // measure 56
0100
0010
0001
1000
0010
0000
0100
0000
,  // measure 57
1001
0001
1000
0001
1000
0010
0100
0001
,  // measure 58
2000
0000
0100
0000
3100
0000
1001
1000
,  // measure 59
0001
1000
0001
1000
0001
1000
0001
0000
,  // measure 60
1000
0010
0100
0002
,  // measure 61
0003
2002
3003
0100
,  // measure 62
0010
0000
2020
0030
,  // measure 63
0200
0300
0020
3030
,  // measure 64
0001
0100
0010
2000
,  // measure 65
3000
2002
3003
0100
,  // measure 66
0010
0000
2200
3300
,  // measure 67
0022
0033
2002
3003
,  // measure 68
1000
0100
0010
0022
,  // measure 69
0033
0200
0300
1000
,  // measure 70
0001
0100
0020
0030
,  // measure 71
2020
3030
2002
3003
,  // measure 72
1000
0001
0100
0220
,  // measure 73
0330
1000
0000
0001
,  // measure 74
0100
0010
1000
0100
,  // measure 75
0010
0100
0010
0001
,  // measure 76
1000
0001
0100
0020
,  // measure 77
0030
2002
3003
0100
,  // measure 78
0010
0000
2020
3030
,  // measure 79
2002
3003
2200
3300
,  // measure 80
0001
0100
0001
0020
,  // measure 81
0030
0220
0330
1000
,  // measure 82
0010
0000
0022
0033
,  // measure 83
2020
3030
0220
0330
,  // measure 84
0001
0100
1000
0100
,  // measure 85
0001
1000
0100
0010
,  // measure 86
0001
0100
0020
0030
,  // measure 87
0022
0033
2020
3030
,  // measure 88
0100
0010
0100
0020
,  // measure 89
1030
0100
1000
0001
0100
0000
0002
0000
,  // measure 90
1003
0001
0100
0001
1000
0000
1100
1000
,  // measure 91
0001
0100
0001
1000
0001
0100
0002
0000
,  // measure 92
1000
0000
1003
0000
1001
0001
1000
0001
,  // measure 93
1000
0010
0100
0001
2000
0000
0100
0000
,  // measure 94
3100
0000
0000
0000
;

//---------------dance-single - ----------------
#NOTEDATA:;
#CHARTNAME:;
#STEPSTYPE:dance-single;
#DESCRIPTION:;
#CHARTSTYLE:;
#DIFFICULTY:Medium;
#METER:7;
#RADARVALUES:0.396446,0.485646,0.192923,0.126142,0.044521,374.000000,348.000000,26.000000,17.000000,0.000000,0.000000,0.000000,0.000000,0.000000,0.396446,0.485646,0.192923,0.126142,0.044521,374.000000,348.000000,26.000000,17.000000,0.000000,0.000000,0.000000,0.000000,0.000000;
#CREDIT:;
#NOTES:
// measure 0
0000
0000
0000
0000
,  // measure 1
0000
0000
0000
0000
,  // measure 2
2000
0100
0001
3001
,  // measure 3
0000
0000
1000
0000
0000
0001
0000
0000
0100
0000
0000
0000
0100
0000
0000
0000
,  // measure 4
0002
0010
1000
1003
,  // measure 5
0000
0000
0010
0000
0000
1000
0000
0000
0001
0000
0000
0000
1000
0000
0000
0000
,  // measure 6
0002
0100
1000
1003
,  // measure 7
0000
0000
0001
0000
0000
1000
0000
0000
0100
0000
0000
0000
0100
0000
0000
0000
,  // measure 8
1000
0000
0010
0000
0100
0000
0001
1000
,  // measure 9
0010
0100
0010
0100
0000
0000
0001
1000
,  // measure 10
0100
0000
0000
0000
1000
0000
0000
0000
0000
0000
0010
0000
0000
0100
0000
0000
,  // measure 11
0001
0000
1000
0000
0100
0000
0010
0001
,  // measure 12
0100
0000
0000
0000
0010
0000
0000
0000
0000
0000
1000
0000
0000
0001
0000
0000
,  // measure 13
0100
0000
0010
0000
1000
0000
0100
0010
,  // measure 14
0001
0000
0000
0000
1000
0000
0000
0000
0000
0000
0010
0000
0000
0100
0000
0000
,  // measure 15
0001
0000
1000
0000
0100
0000
0010
0001
,  // measure 16
1000
0000
0010
0100
0001
1000
0001
1000
,  // measure 17
0000
0002
0103
2000
,  // measure 18
3010
0000
0000
0000
0000
0000
0100
0000
0000
0001
0000
0000
1000
0000
0000
0000
,  // measure 19
0100
0000
0010
0000
0001
0100
0010
0000
,  // measure 20
1000
0000
0000
0000
0000
0000
0100
0000
0000
0010
0000
0000
0001
0000
0000
0000
,  // measure 21
1000
0020
1030
0200
,  // measure 22
0301
0000
0000
0000
0000
0000
0010
0000
0000
0100
0000
0000
1000
0000
0000
0000
,  // measure 23
0001
0000
0010
0000
0100
1000
0010
0000
,  // measure 24
1000
0001
0100
0010
1000
0001
0000
0000
,  // measure 25
0020
0000
0000
0000
0030
1000
0000
0100
,  // measure 26
0010
0000
0000
0001
0000
0000
0100
0000
0000
0000
0000
0000
0001
0000
0000
0000
,  // measure 27
0010
0000
0010
0100
0000
0100
1000
0000
,  // measure 28
0010
0100
0001
1000
,  // measure 29
0100
0000
0010
0000
0001
0100
0000
0100
,  // measure 30
0010
0000
1000
0100
0000
1000
0100
0000
,  // measure 31
2000
3010
0002
1003
,  // measure 32
0002
0103
2000
3001
,  // measure 33
0100
0100
0010
0010
,  // measure 34
1000
0100
0001
0101
,  // measure 35
0001
0001
1000
1000
,  // measure 36
0001
0010
1000
1010
,  // measure 37
0010
0010
0100
0100
,  // measure 38
0001
0010
0100
1000
,  // measure 39
1200
0001
1000
0300
,  // measure 40
0021
1000
0001
0030
,  // measure 41
0001
0100
0001
0100
0001
0000
0100
0000
,  // measure 42
1000
0100
1000
0100
1000
0000
0001
0000
,  // measure 43
1000
0010
1000
0010
1000
0000
0100
0000
,  // measure 44
0010
0001
0010
0001
0010
0000
0100
0000
,  // measure 45
1000
0001
0100
0010
,  // measure 46
1000
0100
0010
0001
,  // measure 47
0201
1000
0001
0300
,  // measure 48
1020
0001
1000
0030
,  // measure 49
1000
0000
0000
0100
0000
0000
0010
0000
0001
0000
0000
0000
1000
0000
0000
0000
,  // measure 50
0010
0100
0001
1000
,  // measure 51
0100
0100
0010
0010
,  // measure 52
0001
0100
1000
1100
,  // measure 53
0001
0000
0000
0100
0000
0000
0010
0000
1000
0000
0000
0000
0001
0000
0000
0000
,  // measure 54
0010
0100
1000
0001
,  // measure 55
0100
0100
0010
0010
,  // measure 56
1000
0100
0001
0101
,  // measure 57
1001
0000
1001
0000
0010
1000
0001
0100
,  // measure 58
0010
0000
0000
1001
,  // measure 59
1001
0000
0010
0001
1000
0100
0010
0000
,  // measure 60
0000
0001
0000
0101
,  // measure 61
0000
0101
0000
1001
,  // measure 62
0000
1001
0000
2000
,  // measure 63
0000
0100
0000
0001
,  // measure 64
0000
3001
0000
0010
,  // measure 65
0001
0010
0000
0100
,  // measure 66
1000
0001
0000
1000
,  // measure 67
0000
0010
0000
0100
,  // measure 68
0001
1000
0001
0010
,  // measure 69
0000
0100
0000
1000
,  // measure 70
0001
0100
0000
0001
,  // measure 71
1000
0001
0000
0010
,  // measure 72
0001
1000
0000
0100
,  // measure 73
0000
0110
0000
1000
,  // measure 74
0001
0100
0010
1000
,  // measure 75
0000
0001
0000
1000
,  // measure 76
0010
0100
0001
1000
,  // measure 77
0000
0100
0000
1100
,  // measure 78
0000
1100
0000
0010
,  // measure 79
0000
0100
0000
0001
,  // measure 80
0000
0010
0000
0100
,  // measure 81
1000
0010
0000
0100
,  // measure 82
0001
0010
0000
0100
,  // measure 83
0000
1001
0000
0010
,  // measure 84
0100
0001
1000
0100
,  // measure 85
0000
0010
0000
0110
,  // measure 86
0000
0110
0000
1000
,  // measure 87
0000
0001
0000
0100
,  // measure 88
0010
1000
0001
0010
,  // measure 89
0000
0100
0000
0000
1000
0000
0010
0000
,  // measure 90
0000
0100
0000
0000
0001
0000
1001
0000
,  // measure 91
1001
0000
0010
1000
0001
1000
0100
0000
,  // measure 92
0000
0000
1001
1001
,  // measure 93
0010
0001
0100
0010
1000
0000
0000
0000
;

//---------------dance-single - ----------------
#NOTEDATA:;
#CHARTNAME:;
#STEPSTYPE:dance-single;
#DESCRIPTION:;
#CHARTSTYLE:;
#DIFFICULTY:Easy;
#METER:5;
#RADARVALUES:0.322244,0.381579,0.051941,0.029680,0.000000,304.000000,297.000000,7.000000,4.000000,0.000000,0.000000,0.000000,0.000000,0.000000,0.322244,0.381579,0.051941,0.029680,0.000000,304.000000,297.000000,7.000000,4.000000,0.000000,0.000000,0.000000,0.000000,0.000000;
#CREDIT:;
#NOTES:
0000
0000
0000
0000
,
0000
0000
0000
0000
,
1000
0001
0100
0010
,
1000
0100
0110
0010
,
0100
1000
0010
0100
,
0001
0010
1001
1000
,
0001
0100
0010
1000
,
0100
0010
0110
1000
,
0100
0001
0010
0100
,
0000
1000
0000
1000
0000
0000
0001
0000
,
0010
1000
0100
0010
,
0100
0010
1000
0100
,
0001
0100
1000
0001
,
1000
0001
0100
0010
,
1000
0100
0010
0001
,
0100
0010
1000
0001
,
0100
0000
0010
0000
0000
0100
0000
0100
,
0000
0001
0010
1000
,
0010
0100
1000
0001
,
1000
0010
0100
0001
,
0010
0100
1000
0010
,
1000
0100
0010
0001
,
0100
0010
1000
0001
,
0010
0100
1000
0001
,
0010
0000
0000
0100
0000
0100
0000
0000
,
1000
0010
1000
0100
,
0010
0001
0100
0010
,
1000
0001
0100
0010
,
1000
0000
0100
0000
0010
0000
0100
0100
,
0100
1000
0001
0100
,
0010
1000
0001
0010
,
0100
1000
0001
0100
,
0010
0000
1000
0000
0100
0000
0010
0010
,
0010
0010
0001
0001
,
0100
0100
1000
1000
,
0001
1000
0010
0010
,
0100
0100
0001
0001
,
1000
0100
1000
1000
,
0010
0010
0001
0001
,
0200
1000
0310
0000
,
0200
0001
0310
0000
,
0001
0001
1000
1000
,
0100
0001
0010
1000
,
0100
0100
0001
0001
,
0010
1000
0100
0001
,
0010
0010
1000
1000
,
0100
0001
0010
1000
,
0200
0001
0310
0000
,
0200
1000
0310
0000
,
1000
0100
0001
0100
,
1000
0100
0001
1000
,
0010
0001
0010
1000
,
0001
0001
0001
0000
1000
1000
1000
0000
,
0001
0100
1000
0010
,
0001
0010
1000
1000
,
0100
0010
0001
0100
,
1000
0100
0001
0000
1001
0000
0000
0000
,
0010
0100
0010
0100
,
0010
0000
0000
1000
,
0001
1000
0001
1000
,
0000
0000
0000
1001
,
0000
0001
0000
0010
,
0000
0001
0000
1000
,
0000
0001
0000
1000
,
0000
0001
0000
1000
,
0000
0100
0000
0001
,
0000
0100
0000
1000
,
0000
0100
0000
0001
,
0000
0100
0000
1000
,
0000
0001
0000
1000
,
0000
0001
0000
1000
,
0000
0010
0000
0001
,
0000
0010
0000
1000
,
0000
0100
0000
1000
,
0000
0100
0000
0010
,
0000
0001
0000
0010
,
0000
0001
0000
1000
,
0000
0001
0000
0100
,
0000
0010
0000
1000
,
0000
0100
0000
0010
,
0000
0100
0000
1000
,
0000
0001
0000
0010
,
0000
0100
0000
1000
,
0000
0100
0000
0010
,
0000
0001
0000
1000
,
0000
0001
0000
1000
,
0000
0001
0000
1000
,
0000
0100
0000
0001
,
0000
0010
0000
0100
,
0000
0100
0000
1000
,
0000
1000
0000
1001
,
0010
0001
1000
0100
,
0000
0000
1001
0010
,
1000
0001
0100
0000
;

//---------------dance-single - ----------------
#NOTEDATA:;
#CHARTNAME:;
#STEPSTYPE:dance-single;
#DESCRIPTION:;
#CHARTSTYLE:;
#DIFFICULTY:Beginner;
#METER:3;
#RADARVALUES:0.193983,0.525900,0.089041,0.074201,0.000000,183.000000,171.000000,12.000000,10.000000,0.000000,0.000000,0.000000,0.000000,0.000000,0.193983,0.525900,0.089041,0.074201,0.000000,183.000000,171.000000,12.000000,10.000000,0.000000,0.000000,0.000000,0.000000,0.000000;
#CREDIT:;
#NOTES:
0000
0000
0000
0000
,
0000
0000
0000
0000
,
1000
0000
1000
0000
,
0000
0001
0001
0000
,
0100
0000
0100
0000
,
0000
0010
0010
0000
,
1000
0000
0100
0000
,
0000
0010
0010
0000
,
0001
0000
0100
0000
,
0000
0000
0000
0000
,
0001
0000
0000
0010
,
0010
0000
1000
0000
,
0100
0000
0000
0010
,
0010
0000
0100
0000
,
1000
0000
0000
0001
,
0001
0000
0100
0000
,
0010
0000
0000
0000
,
0000
1000
0000
0001
,
0000
0000
0100
0100
,
0000
0001
0000
1000
,
0000
0000
0010
0010
,
0000
0100
0000
0001
,
0000
0000
1000
1000
,
0000
0100
0000
0010
,
0000
0000
0000
0000
,
0001
0000
0100
0000
,
1000
0000
0010
0000
,
0100
0000
0001
0000
,
0010
0000
0100
0000
,
1000
0000
1000
0000
,
0001
0000
0001
0000
,
1000
0000
0010
0000
,
0100
0000
0001
0000
,
0010
0010
0010
0000
,
0100
0100
0100
0000
,
1000
1000
1000
0000
,
0001
0001
0001
0000
,
0100
0100
0100
0000
,
0010
0010
0010
0000
,
2000
0000
3000
0000
,
0002
0000
0003
0000
,
0100
0100
0100
0100
,
0100
0100
0100
0000
,
0010
0010
0010
0010
,
0010
0010
0010
0000
,
0110
0110
0110
0110
,
0110
0110
0110
0000
,
1000
1000
1000
0000
,
0001
0001
0001
0000
,
1000
1000
1000
1000
,
1000
0000
0100
0000
,
0002
0000
0003
0000
,
0010
0010
0010
0010
,
0010
0010
0010
0010
,
0010
0000
0001
0000
,
0200
0000
0300
0000
,
1001
1001
1001
0000
,
0020
0000
0000
0000
,
0000
0000
0030
0200
,
0000
0000
0000
0000
,
0000
0000
0300
0001
,
0000
0001
0000
0001
,
0000
0001
0000
0001
,
0000
0000
0000
0010
,
0000
0000
0000
1000
,
0000
1000
0000
1000
,
0000
1000
0000
1000
,
0000
0000
0000
0100
,
0000
0000
0000
0010
,
0000
0010
0000
0010
,
0000
0010
0000
0010
,
0000
0000
0000
0001
,
0000
0000
0000
0100
,
0000
0000
0000
0010
,
0000
0000
0000
1000
,
0000
0000
0000
0100
,
0000
0000
0000
0010
,
0000
0010
0000
0010
,
0000
0010
0000
0010
,
0000
0000
0000
0100
,
0000
0000
0000
1000
,
0000
1000
0000
1000
,
0000
1000
0000
1000
,
0000
0000
0000
0001
,
0000
0000
0000
0100
,
0000
0100
0000
0100
,
0000
0100
0000
0100
,
0000
0000
0000
0010
,
0000
0000
0000
1000
,
0000
0000
0000
0001
,
0000
0000
0000
2002
,
0000
0000
0000
0000
,
0000
3003
2002
0000
,
0000
0000
0000
0000
,
0000
0000
3003
0000
;
