#VERSION:0.83;
#TITLE:Beauty's Wicked Wiles;
#SUBTITLE:Emanation;
#ARTIST:Masayoshi Soken;
#TITLETRANSLIT:;
#SUBTITLETRANSLIT:;
#ARTISTTRANSLIT:;
#GENRE:Stormblood;
#ORIGIN:;
#CREDIT:[Ness];
#BANNER:Final Fantasy XIV - Beauty's Wicked Wiles.png;
#BACKGROUND:Final Fantasy XIV - Beauty's Wicked Wiles-bg.png;
#PREVIEWVID:;
#JACKET:Final Fantasy XIV - Beauty's Wicked Wiles-jacket.png;
#CDIMAGE:;
#DISCIMAGE:;
#LYRICSPATH:Final Fantasy XIV - Beauty's Wicked Wiles.lrc;
#CDTITLE:;
#MUSIC:Final Fantasy XIV - Beauty's Wicked Wiles.mp3;
#OFFSET:0.083000;
#SAMPLESTART:50.688694;
#SAMPLELENGTH:16.243660;
#SELECTABLE:YES;
#BPMS:0.000=119.000,
18.000=117.000,
28.000=118.000,
88.000=117.500,
96.000=118.000,
100.000=118.200,
152.000=117.500,
172.000=118.200,
184.000=117.500,
196.000=117.800,
200.000=119.500,
208.000=118.500,
216.000=117.750,
244.000=118.500,
250.000=116.000,
252.000=118.000;
#STOPS:;
#DELAYS:;
#WARPS:;
#TIMESIGNATURES:0.000=4=4;
#TICKCOUNTS:0.000=2;
#COMBOS:0.000=1;
#SPEEDS:0.000=1.000=0.000=0;
#SCROLLS:0.000=1.000;
#FAKES:;
#LABELS:0.000=Song Start;
#LASTSECONDHINT:159.586563;
#BGCHANGES:;
#KEYSOUNDS:;
#ATTACKS:
;

//---------------dance-single - ----------------
#NOTEDATA:;
#CHARTNAME:[Ness];
#STEPSTYPE:dance-single;
#DESCRIPTION:[Ness];
#CHARTSTYLE:;
#DIFFICULTY:Challenge;
#METER:8;
#RADARVALUES:0.393996,0.417309,0.301089,0.325176,0.126457,458.000000,408.000000,50.000000,54.000000,0.000000,0.000000,0.000000,0.000000,0.000000,0.393996,0.417309,0.301089,0.325176,0.126457,458.000000,408.000000,50.000000,54.000000,0.000000,0.000000,0.000000,0.000000,0.000000;
#CREDIT:[Ness];
#NOTES:
0000
0000
0000
0000
0000
0000
0000
0000
0000
0000
0000
0000
0001
0100
0010
1000
,
0002
0000
0000
0000
0000
0000
0000
0000
0000
0000
0000
0000
0003
0000
0010
0100
,
0020
0001
1000
0130
,
0002
0000
0100
0010
,
1000
0010
0100
0013
,
1000
0000
0000
0001
0000
0000
0100
0000
0010
0000
0000
0000
1000
0000
0100
0000
,
0010
0000
0000
0001
0000
0000
1000
0000
0001
0000
0000
0000
0100
0000
0010
0000
,
2000
0000
0000
0000
,
3002
0000
0100
0010
0200
0000
0303
0000
,
2010
0000
0000
0001
0000
0000
0001
0000
3001
0000
0000
0000
1001
0000
0000
0000
,
0100
0001
0100
1000
0020
0000
1030
0001
,
2000
0000
0000
0100
0000
0000
3001
0000
0000
0000
0001
0000
0100
0000
0000
0000
,
0002
0000
0000
0010
0000
0000
1003
0000
0000
0000
1000
0000
0010
0000
0100
0000
,
0001
0000
0000
0010
0000
0000
0100
0000
0000
0000
1000
0000
0010
0000
1000
0000
,
0002
2000
3003
1001
,
0010
0000
0000
1000
0000
0000
0100
0000
0000
0000
0010
0000
0001
0000
1000
0000
,
0020
0200
0330
0110
,
0002
0000
0000
0100
0000
0000
1003
0000
0000
0000
1000
0000
0100
0000
1000
0000
,
0020
0000
0000
1000
0000
0000
0130
0000
0000
0000
0001
0000
0100
0000
1000
0000
,
0010
0000
0000
0100
0000
0000
0001
0000
0000
0000
1000
0000
0010
0000
0100
0000
,
1001
0000
0000
0000
0000
0000
0000
0000
0011
0000
0000
0110
0000
0000
1100
0000
,
0020
0100
0030
0002
1000
0003
0100
0010
,
0100
1000
0100
0001
0020
0000
0031
0100
,
0002
0000
0000
0010
0000
0000
1003
0000
0000
0000
1000
0000
0010
0000
1000
0000
,
0001
0000
0001
0000
0100
0000
1000
0000
0000
0000
0000
0000
0001
0100
0010
1000
,
0002
0000
0000
0100
0000
0000
1003
0000
0000
0000
1000
0000
1100
0000
0000
0000
,
2000
0000
0000
0010
0000
0000
3001
0000
0000
0000
0001
0000
0011
0000
0000
0000
,
0001
0000
0000
0100
0000
0000
0010
0000
0000
0000
1000
0000
0010
0000
0001
0000
,
0010
1000
0100
0010
0000
0010
0001
1000
,
0001
0100
0001
1001
0000
1000
0100
1000
,
0010
1000
0100
1001
0000
1000
0010
0100
,
0001
0010
0110
1100
,
0010
0000
0000
0100
0000
0000
0001
0000
0101
0000
0000
1100
0000
0000
0110
0000
,
1002
0000
0000
0010
0000
0000
1003
0000
0000
0000
0010
0000
0100
0000
0000
0000
,
2001
0000
0000
0010
0000
0000
3001
0000
0000
0000
0010
0000
0100
0000
0000
0000
,
0020
0000
0000
0001
0000
0000
0130
0000
0000
0000
1000
0000
0100
0000
0001
0000
,
0010
0001
0100
0010
0000
1000
0010
0100
,
0001
0010
0100
0110
0000
0100
1000
0001
,
1000
0010
0100
1001
0000
0001
0010
0100
,
2000
0000
0001
0000
0100
0100
0100
0100
,
3100
0000
0000
0000
,
1000
0000
0000
1000
0000
0000
1000
0000
1000
0000
0010
0000
0100
0000
0001
0000
,
0010
0100
0010
0001
0100
0010
0000
1000
,
0010
0001
0010
1000
0100
0010
0001
1000
,
0001
0000
0100
0010
0100
0000
0001
0000
1000
0000
0000
0000
0100
0000
1000
0000
,
2002
0000
0000
3003
,
0100
1000
0100
0001
0020
0000
0031
1000
,
0002
0000
0000
0103
,
2000
0000
0000
0000
0000
0000
3010
0100
,
0001
0000
0010
0100
0000
0000
1000
0000
,
1010
0202
0303
1001
,
0022
0000
0033
2200
0000
3300
1001
0000
,
0011
2200
3300
0010
,
2000
0000
0000
0100
0000
0000
3001
0000
0000
0000
0001
0000
0100
0000
0001
0000
,
0020
0000
0000
0001
0000
0000
0130
0000
0000
0000
1000
0000
0100
0000
0001
0000
,
0010
0000
0000
0100
0000
0000
1000
0000
0000
0000
0001
0000
0010
0000
0100
0000
,
1001
0000
0000
0000
0000
0000
0000
0000
1010
0000
0000
0110
0000
0000
0101
0000
,
0020
0100
0030
2000
0001
3000
0100
0010
,
0100
0001
0100
1000
0020
0000
1030
0100
,
2000
0000
0000
0010
0000
0000
3001
0000
0000
0000
0001
0000
0100
0000
0010
0000
,
1000
0000
1000
0000
0001
0000
0101
0000
0000
0000
0000
0000
1000
0010
0100
0001
,
2000
0000
0000
0100
0000
0000
3001
0000
0000
0000
0001
0000
0101
0000
0000
0000
,
0002
0000
0000
0010
0000
0000
1003
0000
0000
0000
1000
0000
1010
0000
0000
0000
,
1000
0000
0000
0100
0000
0000
0010
0000
0000
0000
0001
0000
0010
0000
1000
0000
,
0010
0001
0100
0010
0000
0010
1000
0001
,
1000
0100
1000
1001
0000
0001
0100
0001
,
0010
0001
0100
1001
0000
0001
0010
0100
,
1000
0010
0110
0101
,
0010
0000
0000
0100
0000
0000
1000
0000
1100
0000
0000
0101
0000
0000
0110
0000
,
2001
0000
0000
0010
0000
0000
3001
0000
0010
0000
0100
0000
1000
0000
0000
0000
,
1002
0000
0000
0010
0000
0000
1003
0000
0010
0000
0100
0000
1001
0000
0000
0000
,
0020
0000
0000
1000
0000
0000
0130
0000
0000
0000
0001
0000
0100
0000
1000
0000
,
0020
0000
0200
0000
0330
0001
0010
0100
,
1000
0010
0100
0101
0000
0100
0001
1000
,
0001
0010
0100
0011
0000
1000
0010
0100
,
0002
2000
0000
0000
,
3003
0000
0000
0000
,
1001
0000
0000
0000
;

//---------------dance-single - ----------------
#NOTEDATA:;
#CHARTNAME:[Ness];
#STEPSTYPE:dance-single;
#DESCRIPTION:[Ness];
#CHARTSTYLE:;
#DIFFICULTY:Hard;
#METER:7;
#RADARVALUES:0.305390,0.370941,0.072261,0.379372,0.075272,355.000000,343.000000,12.000000,63.000000,0.000000,0.000000,0.000000,0.000000,0.000000,0.305390,0.370941,0.072261,0.379372,0.075272,355.000000,343.000000,12.000000,63.000000,0.000000,0.000000,0.000000,0.000000,0.000000;
#CREDIT:[Ness];
#NOTES:
0000
0000
0000
0000
0000
0000
1000
0001
,
2000
0000
0000
3000
,
0020
0100
1000
0130
,
2000
0000
0020
0030
,
0002
0003
0010
3010
,
0001
0000
0000
1000
0000
0000
0010
0000
0100
0000
0000
0000
0001
0000
0000
0000
,
0010
0000
0000
0100
0000
0000
1000
0000
0010
0000
0000
0000
0100
0000
0000
0000
,
2002
0000
3003
0000
,
0100
0000
1000
0010
0200
0000
0300
0000
,
0102
0010
1003
1001
,
0100
1000
0100
0001
0010
0000
0100
1000
,
0020
0000
0000
0100
0030
1000
0100
0000
,
2000
0000
0000
3010
0000
0001
0010
0100
,
0020
0000
0000
0031
0000
0100
0010
0000
,
2000
0002
3000
1003
,
0010
0000
0000
1000
0000
0000
0100
0000
0000
0000
0010
0000
0001
0000
1000
0000
,
0020
0200
0030
0310
,
2000
0000
0000
0100
0000
0000
3001
0000
0000
0000
0001
0000
0100
0000
0000
0000
,
0002
0000
0000
0010
0000
0000
0103
0000
0000
0000
1000
0000
0100
0000
0000
0000
,
0010
0000
0000
0001
0000
0000
1000
0000
0000
0000
0001
0000
0010
0000
0000
0000
,
0011
0000
0000
0000
0000
0000
0000
0000
1000
0000
0000
1000
0000
0000
1000
0000
,
0001
0000
0100
0010
0000
1000
0100
0000
,
0010
0001
1000
0001
0020
0000
0130
1000
,
0020
0000
0000
0130
0000
0100
0001
0000
,
0010
0010
0100
0100
0000
0000
1000
0001
,
2000
0000
0000
0100
0000
0000
3001
0000
0000
0000
0001
0000
0101
0000
0000
0000
,
0002
0000
0000
0010
0000
0000
1003
0000
0000
0000
1000
0000
1010
0000
0000
0000
,
1000
0000
0000
0100
0000
0000
0010
0000
0000
0000
0001
0000
0010
0000
1000
0000
,
0010
0001
0200
0000
0300
0000
0010
1000
,
0200
0000
1300
0001
0000
0000
0100
0001
,
0020
0000
0031
1000
0000
0000
0001
1000
,
0200
0300
0010
0001
,
1000
0000
0000
0000
0010
0000
0000
0000
0100
0000
0000
0001
0000
0000
1000
0000
,
0200
0000
0000
1000
0000
0000
0310
0000
0000
0000
0000
0000
0001
0000
0000
0000
,
0020
0000
0000
0001
0000
0000
0130
0000
0000
0000
0000
0000
1000
0000
0000
0000
,
0020
0000
0000
0100
0000
0000
1030
0000
0000
0000
0001
0000
0100
0000
0010
0000
,
1000
0100
0020
0000
0030
0001
0010
0100
,
2000
0000
3010
0100
0000
0001
0100
0000
,
0002
0000
0013
0100
0000
1000
0100
0010
,
0002
2000
0000
0000
,
3003
0000
0000
0000
,
0001
0000
0000
0001
0000
0000
0001
0000
0001
0000
0010
0000
0100
0000
1000
0000
,
0010
0100
0010
1000
0100
0010
0000
0001
,
0010
0100
0010
0001
1000
0100
0010
0001
,
1000
0100
0001
0100
1000
0000
0001
0000
,
2002
0000
0000
3003
,
0100
0001
0100
1000
0020
0000
1030
0001
,
2000
0000
0000
3100
,
0002
0000
0000
0000
0000
0000
0013
0100
,
1000
0000
0010
0100
0000
0000
0001
0000
,
0010
2200
3300
1000
,
0020
0000
0030
0200
0000
0300
0001
0000
,
0010
2200
3300
0010
,
0002
0000
0000
0103
0000
0000
1000
0001
,
0020
0000
0000
0130
0000
0000
1000
0010
,
0100
0000
0000
0001
0000
0000
1000
0000
0000
0000
0000
0000
0010
0000
0100
0000
,
0001
0000
0000
0000
0000
0000
0000
0000
0010
0000
0000
0010
0000
0000
0010
0000
,
0100
0000
1000
0010
0000
0100
0001
0000
,
0010
0100
1000
0100
0020
0000
0031
0100
,
0002
0000
0000
0010
0000
0000
1003
0000
0000
0000
1000
0000
0010
0000
0000
0000
,
0100
0100
0001
1000
0000
0000
0001
1000
,
0002
0000
0000
0100
0000
0000
1003
0000
0000
0000
1000
0000
1100
0000
0000
0000
,
2000
0000
0000
0010
0000
0000
3001
0000
0000
0000
0001
0000
0011
0000
0000
0000
,
0001
0000
0000
0100
0000
0000
0010
0000
0000
0000
1000
0000
0010
0000
0001
0000
,
0010
1000
0200
0000
0300
0000
0010
0001
,
0200
0000
0301
1000
0000
0000
0100
1000
,
0020
0000
1030
0001
0000
0000
1000
0001
,
0200
0300
0010
1000
,
0001
0000
0000
0000
0010
0000
0000
0000
0100
0000
0000
1000
0000
0000
0001
0000
,
0200
0000
0000
0001
0000
0000
0310
0000
0000
0000
0000
0000
1000
0000
0000
0000
,
0020
0000
0000
1000
0000
0000
0130
0000
0000
0000
0000
0000
0001
0000
0000
0000
,
0020
0000
0000
0100
0000
0000
0031
0000
0000
0000
1000
0000
0100
0000
0010
0000
,
0001
0100
0020
0000
0030
1000
0010
0100
,
0002
0000
0013
0100
0000
1000
0100
0000
,
2000
0000
3010
0100
0000
0001
0100
0010
,
2000
0002
0000
0000
,
3003
0000
0000
0000
,
1001
0000
0000
0000
;

//---------------dance-single - ----------------
#NOTEDATA:;
#CHARTNAME:[Ness];
#STEPSTYPE:dance-single;
#DESCRIPTION:[Ness];
#CHARTSTYLE:;
#DIFFICULTY:Medium;
#METER:5;
#RADARVALUES:0.212483,0.324574,0.102370,0.367328,0.006022,247.000000,230.000000,17.000000,61.000000,0.000000,0.000000,0.000000,0.000000,0.000000,0.212483,0.324574,0.102370,0.367328,0.006022,247.000000,230.000000,17.000000,61.000000,0.000000,0.000000,0.000000,0.000000,0.000000;
#CREDIT:[Ness];
#NOTES:
0000
0000
0000
0000
0000
0000
1000
0001
,
2000
0000
0000
0000
,
0000
3010
0100
0001
,
0020
0000
0000
0000
,
0130
1000
0001
0100
,
0110
0000
0000
0100
0000
0000
0100
0000
0001
0000
0000
0000
1000
0000
0000
0000
,
1001
0000
0000
0001
0000
0000
0001
0000
1000
0000
0000
0000
0010
0000
0000
0000
,
0220
0000
0000
0330
,
1000
0000
0100
0010
0200
0000
0300
0000
,
2000
0000
0000
0000
,
3000
0001
0100
0010
1000
0000
0001
1000
,
0002
0000
0000
0013
,
0200
0000
0000
1300
,
0020
0000
0000
0130
0000
0000
0001
0000
,
0020
0130
0000
1000
,
0002
0000
0000
0103
0000
0000
0010
0000
,
2000
3100
0000
0010
,
0002
0000
0000
1003
0000
0000
0010
0000
,
0200
0000
0000
0301
0000
0000
1000
0000
,
0020
0000
0000
1030
0000
0000
0100
0000
,
0020
0000
0030
0001
,
2000
0000
0000
0000
,
3000
0001
0010
0100
1000
0000
0010
0100
,
0020
0000
0000
1030
,
0002
0000
0000
0003
,
2002
0000
0000
3003
,
0220
0000
0000
0330
,
0002
0000
0000
0013
0000
0100
1000
0100
,
2000
0000
0000
3010
0000
0000
0100
0000
,
0002
0000
0000
1003
0000
0000
0100
0000
,
2000
0000
0000
3001
0000
0000
0100
0000
,
0220
0000
0000
0000
,
0000
0000
0000
0330
0000
0000
0000
0000
,
0001
0010
0100
1001
,
1000
0010
0100
1001
,
0010
0000
1000
0000
0001
1000
0010
0100
,
0001
1000
0100
0110
,
0100
0010
0100
1001
,
0010
1000
0001
1001
,
0100
2000
0001
0010
,
3001
0000
0000
0000
,
0010
0000
0000
0100
,
1000
0010
0001
0100
,
1000
0010
0001
0100
,
1000
0000
0000
0000
,
2002
0000
0000
0000
0000
0000
0000
3003
,
0000
0001
0100
0010
1000
0000
0100
0010
,
0002
0000
0000
0103
,
2000
0000
0000
3010
,
0002
0000
0000
0013
0000
0000
0100
0000
,
2000
0002
3003
0100
,
0020
0000
0000
1030
0000
0000
0001
0000
,
0020
0200
0330
1000
,
0002
0000
0000
0103
0000
0000
0010
0000
,
2000
0000
0000
3100
0000
0000
0010
0000
,
0002
0000
0000
1003
0000
0000
0010
0000
,
0200
0000
0000
0301
,
2000
0000
0000
0100
0000
0000
0100
0000
,
3100
0010
0100
0010
0100
0000
0010
0001
,
0020
0000
0000
0031
,
0200
0000
0000
0300
,
1000
0001
0100
0110
,
0001
1000
0010
0110
,
0002
0000
0000
0000
0003
1000
0100
0010
,
0002
0000
0200
0000
0303
0000
0010
0100
,
0020
0000
0000
1030
0000
0000
0001
0000
,
0020
0000
0000
0031
0000
1000
0100
1000
,
0200
0000
0000
0000
,
0000
0000
0310
0000
,
0002
0000
0000
1003
0000
0000
1001
0000
,
0020
0000
0000
0130
0000
0000
0110
0000
,
0002
0000
0000
0013
0000
0100
1000
0100
,
2000
0000
0020
0000
3030
0000
0100
0010
,
0200
0000
0000
0000
0000
0000
0301
1000
,
0002
0000
0000
0000
0000
1003
0010
1000
,
0010
0200
0001
0010
,
0301
0000
0000
0000
,
1001
0000
0000
0000
;

//---------------dance-single - ----------------
#NOTEDATA:;
#CHARTNAME:[Ness];
#STEPSTYPE:dance-single;
#DESCRIPTION:[Ness];
#CHARTSTYLE:;
#DIFFICULTY:Easy;
#METER:2;
#RADARVALUES:0.123016,0.139103,0.036131,0.283023,0.000000,143.000000,137.000000,6.000000,47.000000,0.000000,0.000000,0.000000,0.000000,0.000000,0.123016,0.139103,0.036131,0.283023,0.000000,143.000000,137.000000,6.000000,47.000000,0.000000,0.000000,0.000000,0.000000,0.000000;
#CREDIT:[Ness];
#NOTES:
// measure 0
0000
0000
0000
0001
,  // measure 1
0002
0000
0000
0000
,  // measure 2
0003
0010
0010
0100
,  // measure 3
0200
0000
0000
0300
,  // measure 4
1000
0000
0000
0000
,  // measure 5
0001
0000
0010
0000
,  // measure 6
1000
0000
0010
0000
,  // measure 7
0100
0000
0000
0000
,  // measure 8
0001
0000
0000
0000
,  // measure 9
2000
0000
0000
3000
,  // measure 10
0000
0100
0100
0010
,  // measure 11
0002
0000
0003
0010
,  // measure 12
2000
0000
3000
0010
,  // measure 13
0010
0000
0100
0000
,  // measure 14
0001
0000
1000
0000
,  // measure 15
0100
0000
0010
0000
,  // measure 16
0001
0000
1000
0000
,  // measure 17
0020
0000
1030
0000
,  // measure 18
0002
0000
0013
0000
,  // measure 19
0200
0000
1300
0000
,  // measure 20
1001
0000
0000
0010
,  // measure 21
0200
0000
0000
0300
,  // measure 22
0000
0001
0010
0100
,  // measure 23
0200
0000
0300
1000
,  // measure 24
2000
0000
3000
0000
,  // measure 25
2002
0000
0000
3003
,  // measure 26
0020
0000
0000
0030
,  // measure 27
2000
0000
3000
0100
,  // measure 28
0001
0010
0000
1000
,  // measure 29
0200
0000
0300
0010
,  // measure 30
0002
0000
0003
1000
,  // measure 31
0020
0000
0000
0000
,  // measure 32
0000
0000
0030
0000
,  // measure 33
0200
0000
0000
0300
,  // measure 34
0020
0000
0000
0030
,  // measure 35
0200
0000
0300
0001
,  // measure 36
0010
1000
0000
0100
,  // measure 37
0002
0000
0000
0103
,  // measure 38
2000
0000
0000
3100
,  // measure 39
0010
0200
0000
0000
,  // measure 40
0300
0000
0000
0000
,  // measure 41
1001
0000
0000
1000
,  // measure 42
1000
0000
0010
0000
,  // measure 43
0001
0000
0010
0000
,  // measure 44
0100
0000
0000
1000
,  // measure 45
2000
0000
0000
3000
,  // measure 46
0000
0001
0001
0100
,  // measure 47
0020
0000
0030
0100
,  // measure 48
0002
0000
0000
1003
,  // measure 49
0010
0000
1000
0000
,  // measure 50
0001
0000
0010
0000
,  // measure 51
0100
0000
1000
0000
,  // measure 52
0001
0000
0100
0000
,  // measure 53
0020
0000
0000
1030
,  // measure 54
0200
0000
0000
0310
,  // measure 55
0002
0000
0000
1003
,  // measure 56
0010
0000
0100
0000
,  // measure 57
2002
0000
0000
3003
,  // measure 58
0000
0001
0010
0100
,  // measure 59
2000
0000
3000
0010
,  // measure 60
0200
0000
0300
0000
,  // measure 61
2002
0000
0000
3003
,  // measure 62
0020
0000
0000
0030
,  // measure 63
0002
0000
0003
0100
,  // measure 64
1000
0010
0000
0001
,  // measure 65
0200
0000
0300
0010
,  // measure 66
2000
0000
3000
0001
,  // measure 67
0020
0000
0000
0000
,  // measure 68
0000
0000
0130
0000
,  // measure 69
2000
0000
0000
3100
,  // measure 70
0002
0000
0000
0013
,  // measure 71
2000
0000
3000
0100
,  // measure 72
0001
0010
0000
1000
,  // measure 73
0200
0000
0300
0010
,  // measure 74
0002
0000
0003
1000
,  // measure 75
0010
0200
0000
0000
,  // measure 76
0300
0000
0000
0000
,  // measure 77
1001
0000
0000
0000
;

//---------------dance-single - ----------------
#NOTEDATA:;
#CHARTNAME:[Ness];
#STEPSTYPE:dance-single;
#DESCRIPTION:[Ness];
#CHARTSTYLE:;
#DIFFICULTY:Beginner;
#METER:1;
#RADARVALUES:0.098929,0.139103,0.018065,0.264958,0.000000,115.000000,112.000000,3.000000,44.000000,0.000000,0.000000,0.000000,0.000000,0.000000,0.098929,0.139103,0.018065,0.264958,0.000000,115.000000,112.000000,3.000000,44.000000,0.000000,0.000000,0.000000,0.000000,0.000000;
#CREDIT:[Ness];
#NOTES:
// measure 0
0000
0000
0000
0001
,  // measure 1
0002
0000
0003
0000
,  // measure 2
0000
0000
0010
0000
,  // measure 3
0200
0000
0300
0000
,  // measure 4
1000
0000
0000
0000
,  // measure 5
0001
0000
1000
0000
,  // measure 6
0010
0000
0100
0000
,  // measure 7
0001
0000
0000
0000
,  // measure 8
0100
0000
0000
0000
,  // measure 9
2000
0000
3000
0000
,  // measure 10
0000
0000
0100
0000
,  // measure 11
0002
0000
0003
0000
,  // measure 12
2000
0000
3000
0000
,  // measure 13
0010
0000
0100
0000
,  // measure 14
0010
0000
1000
0000
,  // measure 15
0001
0000
0010
0000
,  // measure 16
0100
0000
1000
0000
,  // measure 17
0010
0000
0100
0000
,  // measure 18
0001
0000
1000
0000
,  // measure 19
0100
0000
0010
0000
,  // measure 20
0001
0000
0000
1000
,  // measure 21
2000
0000
3000
0000
,  // measure 22
0000
0000
0010
0000
,  // measure 23
0200
0000
0300
0000
,  // measure 24
0002
0000
0003
0000
,  // measure 25
2000
0000
3000
0000
,  // measure 26
0020
0000
0030
0000
,  // measure 27
2000
0000
3000
0100
,  // measure 28
0100
0000
0000
0010
,  // measure 29
0020
0000
0030
0001
,  // measure 30
0002
0000
0003
1000
,  // measure 31
2000
0000
0000
0000
,  // measure 32
3000
0000
0000
0000
,  // measure 33
0020
0000
0030
0000
,  // measure 34
0200
0000
0300
0000
,  // measure 35
0002
0000
0003
0010
,  // measure 36
0020
0000
0030
0100
,  // measure 37
0200
0000
0300
1000
,  // measure 38
2000
0000
3000
0010
,  // measure 39
0010
0020
0000
0000
,  // measure 40
0030
0000
0000
0000
,  // measure 41
1001
0000
0000
0100
,  // measure 42
0100
0000
1000
0000
,  // measure 43
0001
0000
0010
0000
,  // measure 44
0100
0000
0000
1000
,  // measure 45
2000
0000
0000
3000
,  // measure 46
0000
0000
0001
0000
,  // measure 47
0020
0000
0030
0000
,  // measure 48
0200
0000
0300
1000
,  // measure 49
1000
0000
0010
0000
,  // measure 50
0001
0000
0010
0000
,  // measure 51
1000
0000
0010
0000
,  // measure 52
0001
0000
0010
0000
,  // measure 53
2000
0000
3000
0000
,  // measure 54
0002
0000
0003
0000
,  // measure 55
0200
0000
0300
0000
,  // measure 56
1001
0000
0000
0000
,  // measure 57
0020
0000
0000
0030
,  // measure 58
0000
0000
0001
0000
,  // measure 59
2000
0000
3000
0000
,  // measure 60
0020
0000
0030
0000
,  // measure 61
0200
0000
0300
0000
,  // measure 62
0002
0000
0003
0000
,  // measure 63
0020
0000
0030
0100
,  // measure 64
0200
0000
0300
1000
,  // measure 65
2000
0000
3000
0010
,  // measure 66
0020
0000
0030
0100
,  // measure 67
0200
0000
0000
0000
,  // measure 68
0300
0000
0001
0000
,  // measure 69
2000
0000
3000
0000
,  // measure 70
0020
0000
0030
0000
,  // measure 71
0200
0000
0300
0001
,  // measure 72
0002
0000
0003
0010
,  // measure 73
0020
0000
0030
0100
,  // measure 74
0200
0000
0300
1000
,  // measure 75
1000
2000
0000
0000
,  // measure 76
3000
0000
0000
0000
,  // measure 77
1001
0000
0000
0000
;
