#VERSION:0.83;
#TITLE:A New Hope;
#SUBTITLE:Ul'dah;
#ARTIST:Masayoshi Soken;
#TITLETRANSLIT:;
#SUBTITLETRANSLIT:;
#ARTISTTRANSLIT:;
#GENRE:A Realm Reborn;
#ORIGIN:;
#CREDIT:[Ness];
#BANNER:Final Fantasy XIV - A New Hope.png;
#BACKGROUND:Final Fantasy XIV - A New Hope-bg.png;
#PREVIEWVID:;
#JACKET:Final Fantasy XIV - A New Hope-jacket.png;
#CDIMAGE:;
#DISCIMAGE:;
#LYRICSPATH:;
#CDTITLE:;
#MUSIC:Final Fantasy XIV - A New Hope.mp3;
#OFFSET:0.918000;
#SAMPLESTART:20.252340;
#SAMPLELENGTH:16.138498;
#SELECTABLE:YES;
#BPMS:0.000=126.000,
36.000=124.000,
43.000=120.000,
45.000=118.000,
47.000=122.000,
55.000=110.000,
60.000=122.000,
68.000=118.000,
71.000=120.000,
76.000=124.000,
83.000=120.000,
86.000=115.000,
89.000=122.000,
91.000=126.000,
104.000=125.000,
115.000=123.000,
123.000=105.000,
124.000=120.000,
133.000=124.000,
141.000=125.000,
163.000=120.000,
166.500=110.000,
173.000=122.000,
176.000=118.000,
180.000=126.000,
196.000=124.000,
216.000=125.000;
#STOPS:;
#DELAYS:;
#WARPS:;
#TIMESIGNATURES:0.000=4=4;
#TICKCOUNTS:0.000=2;
#COMBOS:0.000=1;
#SPEEDS:0.000=1.000=0.000=0;
#SCROLLS:0.000=1.000;
#FAKES:;
#LABELS:0.000=Song Start;
#LASTSECONDHINT:124.863304;
#BGCHANGES:;
#KEYSOUNDS:;
#ATTACKS:
;

//---------------dance-single - ----------------
#NOTEDATA:;
#CHARTNAME:[Ness];
#STEPSTYPE:dance-single;
#DESCRIPTION:[Ness];
#CHARTSTYLE:;
#DIFFICULTY:Hard;
#METER:8;
#RADARVALUES:0.374795,0.508813,0.325958,0.580365,0.294157,330.000000,289.000000,41.000000,73.000000,0.000000,0.000000,0.000000,0.000000,0.000000,0.374795,0.508813,0.325958,0.580365,0.294157,330.000000,289.000000,41.000000,73.000000,0.000000,0.000000,0.000000,0.000000,0.000000;
#CREDIT:[Ness];
#NOTES:
0000
0000
0000
0000
0000
0000
0000
0000
0000
0000
0000
0000
0001
0100
0001
0100
,
0001
1001
0110
1010
,
2002
0000
0000
0000
0000
0000
0000
0000
3003
0000
0000
0000
1000
0100
0010
0001
,
1000
1001
0110
0011
,
2002
0000
0000
0000
0000
0000
0000
0000
3003
0000
0000
0000
0001
0100
0010
1000
,
0001
1010
1001
0011
,
2002
0000
0000
3003
,
0002
0103
2000
3001
,
2000
3100
0002
1003
,
0010
0100
0012
1003
,
0102
1003
1100
1001
,
2020
0000
0000
0000
3030
0000
0001
1000
0002
0000
0000
0000
1003
0000
0000
0000
,
0202
0000
0000
0000
0303
0000
1000
0001
2000
0000
0000
0000
3001
0000
0000
0000
,
0200
1000
0001
0010
,
1300
0001
0010
0100
,
2000
0000
0000
0000
3000
0000
0001
0100
0002
0000
0000
0000
1003
0000
0000
0000
,
0020
0000
0000
0000
0030
0000
0100
0001
0100
0000
0000
0000
0010
0000
0000
0000
,
2000
0100
0010
3001
,
0200
0300
0010
0100
,
2000
0000
0000
0000
3000
0000
0001
1000
0002
0000
0000
0000
0003
0000
0000
0000
,
0020
0000
0000
0000
0030
0000
0100
0010
0200
0000
0000
0000
0300
0000
0000
0000
,
2000
0000
0000
0000
3000
0000
0010
1000
0020
0000
0000
0000
0030
0000
0000
0000
,
0200
0000
0000
0000
0300
0000
0001
0100
0001
0000
0000
0000
0020
0000
0000
0000
,
0130
0000
0000
0000
1100
0000
0000
0000
1001
0000
0000
0000
0101
0000
0000
0001
,
0010
0000
0000
0000
1100
0000
0000
0000
1001
0000
0000
0000
0101
0000
0000
0001
,
0010
0000
0000
0000
0101
0000
0000
0000
1010
0000
0000
0000
1001
0000
0000
0001
,
1000
0000
0000
0000
0101
0000
0000
0000
1010
0000
0000
0000
1001
0000
0000
0001
,
1000
0000
0000
0000
0110
0000
0000
0000
1010
0000
0000
0000
1001
0000
0000
1000
,
0020
0130
0201
0301
,
2002
0000
0000
0000
3003
0000
1000
0001
2000
0000
0000
0000
3001
0000
0000
0000
,
0200
0310
2010
3010
,
2002
0000
0000
0000
,
0000
0000
0000
0000
,
3003
0000
0000
1000
0000
0000
0010
0000
0000
0100
0000
0001
,
0010
0100
0010
0100
,
1000
0000
0000
0010
0000
0000
1000
0000
0000
0001
0000
0010
,
0001
1000
0100
0010
,
0001
0000
0000
1000
0000
0000
0010
0000
0000
0100
0000
0001
,
1000
0010
1000
0001
,
0010
0000
0000
0001
0000
0000
0100
0000
0000
0001
0000
1000
,
0100
0010
0100
1000
,
0002
0023
0230
2300
,
0002
0000
0000
0000
,
3003
2000
3020
0230
,
0302
2003
3200
0000
,
0310
0000
0001
0010
0001
0100
0000
0010
1000
0010
0000
0100
,
0001
0000
1000
0010
1000
0100
0000
0010
0001
0010
0000
0100
,
1000
0000
0010
1000
0010
0100
0000
0001
0100
0001
0000
0010
,
0100
0000
1000
0001
1000
0100
0000
1000
0001
1000
0000
0010
,
0100
0001
0100
0001
0000
0000
0000
0010
0100
0010
0000
0000
,
2002
0000
0000
3003
0001
1000
0020
0000
0000
1030
0000
0000
,
2002
0000
0000
3003
1000
0001
0020
0000
0000
0031
0000
0000
,
2000
3100
0002
0013
,
1000
0000
1000
0100
0000
0000
0001
1000
0001
0010
0000
0000
,
0002
0000
0000
0103
0001
1000
0020
0000
0000
0130
0000
0000
,
0020
0000
0000
1030
0100
0010
0002
0000
0000
1003
0000
1000
,
0100
0000
0000
1001
0000
0000
0100
0000
0000
0001
1000
0001
,
0100
0000
0000
1001
0000
0000
0100
1000
0001
0100
0000
0000
,
0020
1000
0130
0000
,
2000
0000
0000
0100
0000
0000
3001
0000
0000
1000
0010
0100
,
0002
0000
0000
0003
1000
0010
2000
0000
0000
3000
0001
0010
,
0200
2300
3002
2003
,
3020
0000
0000
0000
,
0000
0000
0000
0000
,
0030
0000
0000
0000
;

//---------------dance-single - ----------------
#NOTEDATA:;
#CHARTNAME:[Ness];
#STEPSTYPE:dance-single;
#DESCRIPTION:[Ness];
#CHARTSTYLE:;
#DIFFICULTY:Medium;
#METER:5;
#RADARVALUES:0.256678,0.356169,0.206705,0.524713,0.063602,226.000000,200.000000,26.000000,66.000000,0.000000,0.000000,0.000000,0.000000,0.000000,0.256678,0.356169,0.206705,0.524713,0.063602,226.000000,200.000000,26.000000,66.000000,0.000000,0.000000,0.000000,0.000000,0.000000;
#CREDIT:[Ness];
#NOTES:
0000
0000
0000
0000
,
1001
0100
0010
1000
,
0200
0000
0000
0310
,
1001
0010
0100
0001
,
2000
0000
0000
3100
,
1001
0100
0010
0100
,
0002
0000
0000
0000
,
1003
0100
1000
0100
,
0001
0010
0001
0010
,
0120
0130
1002
1003
,
2010
3010
0012
0013
,
0220
0000
0330
1000
0100
0000
0010
0000
,
0002
0000
0003
1000
0100
0000
0010
0000
,
0200
0000
0000
0000
,
1300
0010
0001
0010
,
2000
0000
3000
0001
0100
0000
0010
0000
,
0200
0000
0300
0001
0010
0000
0100
0000
,
2000
0000
0000
3020
0000
0000
0230
0000
,
0302
0000
1003
0001
,
0220
0000
0330
1000
0100
0000
0000
0000
,
0220
0000
0330
0001
0100
0000
0000
0000
,
2002
0000
3003
1000
0010
0000
0000
0000
,
2002
0000
3003
0001
0010
0000
0100
0000
,
1100
0000
0000
0000
0100
0000
0000
0000
0010
0000
0000
0000
0001
0000
0000
1000
,
0010
0000
0000
0000
0100
0000
0000
0000
0001
0000
0000
0000
1000
0000
0000
0100
,
0010
0000
0000
0000
0001
0000
0000
0000
1000
0000
0000
0000
0010
0000
0000
0100
,
0001
0000
0000
0000
1000
0000
0000
0000
0100
0000
0000
0000
0010
0000
0000
0001
,
0100
0000
0000
0000
0010
0000
0000
0000
1000
0000
0000
0000
0100
0000
0000
0010
,
0002
1003
2001
3001
,
0020
0000
0030
0001
2000
0000
3000
0000
,
0200
0300
0020
0030
,
0220
0000
0000
0000
,
0000
0000
0000
0000
,
0330
0000
0000
0001
0000
0000
0001
0000
0000
0001
0000
0010
,
0100
1000
0100
1000
,
0100
0000
0000
0010
0000
0000
0001
0000
0000
1000
0000
0001
,
0100
0010
0100
0010
,
1000
0000
0000
0100
0000
0000
0010
0000
0000
0100
0000
1000
,
0100
0010
0001
1000
,
0010
0000
0000
0100
0000
0000
0001
0000
0000
1000
0000
0010
,
0100
0010
1000
0100
,
0020
0001
0001
0001
,
0002
0000
0000
0033
,
2000
0010
0010
0010
,
0010
0010
0020
3030
,
0000
0000
0000
0000
,
0000
0000
0000
0000
,
0000
0000
0000
0000
,
0000
0000
0000
0000
,
1001
0000
0000
2002
0000
3003
0000
0220
0000
0330
0000
0000
,
0020
0000
0000
0030
0000
0001
0100
0000
0000
0010
0000
0000
,
2000
0000
0000
3000
0000
0100
0010
0000
0000
0001
0000
0000
,
1000
0000
0000
2020
0000
3030
0000
0000
0000
2002
0000
3003
,
0000
0000
0000
0022
0000
0033
0000
2000
0000
3001
0000
0000
,
0200
0000
0000
0300
0000
0010
1000
0000
0000
0100
0000
0000
,
0020
0000
0000
0030
0000
0001
1000
0000
0000
0010
0000
0000
,
0100
0000
0000
0202
0000
0303
0000
0000
0000
2020
0000
3030
,
0000
0000
0000
2002
0000
3003
0000
0020
0000
0130
0000
0000
,
1000
0010
0200
0000
,
0301
1000
0200
1300
,
2002
3003
0220
0330
,
1000
0100
0010
0001
,
0200
0000
0000
0000
,
0000
0000
0000
0000
,
0300
0000
0000
0000
;

//---------------dance-single - ----------------
#NOTEDATA:;
#CHARTNAME:[Ness];
#STEPSTYPE:dance-single;
#DESCRIPTION:[Ness];
#CHARTSTYLE:;
#DIFFICULTY:Easy;
#METER:3;
#RADARVALUES:0.177176,0.228966,0.047701,0.286207,0.003975,156.000000,150.000000,6.000000,36.000000,0.000000,0.000000,0.000000,0.000000,0.000000,0.177176,0.228966,0.047701,0.286207,0.003975,156.000000,150.000000,6.000000,36.000000,0.000000,0.000000,0.000000,0.000000,0.000000;
#CREDIT:[Ness];
#NOTES:
// measure 0
0000
0000
0000
0000
,  // measure 1
0001
0010
0001
0010
,  // measure 2
0002
0000
0000
1000
,  // measure 3
1003
0010
1000
0010
,  // measure 4
2000
0000
0000
3100
,  // measure 5
0100
0010
0100
0010
,  // measure 6
0200
0000
0000
0300
,  // measure 7
2000
3000
0002
0003
,  // measure 8
0200
0300
0020
0030
,  // measure 9
2000
0000
3010
0000
,  // measure 10
0002
0000
0013
0100
,  // measure 11
0020
0000
0031
1000
,  // measure 12
0002
0000
1003
0010
,  // measure 13
2000
0000
0000
0000
,  // measure 14
3000
0100
0010
0100
,  // measure 15
0020
0000
0031
1000
,  // measure 16
0002
0000
0103
0010
,  // measure 17
0200
0000
0301
0000
,  // measure 18
2000
0000
3010
0000
,  // measure 19
0100
0000
0001
0000
,  // measure 20
1000
0000
0100
0000
,  // measure 21
0020
0000
0031
0000
,  // measure 22
2000
0000
3010
0100
,  // measure 23
0010
1000
0010
1000
,  // measure 24
0010
0100
0001
0100
,  // measure 25
0001
1000
0010
1000
,  // measure 26
0010
0100
0001
0100
,  // measure 27
0001
1000
0010
0100
,  // measure 28
0002
0000
2003
0000
,  // measure 29
3010
0000
0200
0000
,  // measure 30
0000
0000
0310
0000
,  // measure 31
2002
0000
0000
0000
,  // measure 32
0000
0000
0000
0000
,  // measure 33
3003
0000
0000
0000
,  // measure 34
0010
1000
0010
0010
,  // measure 35
0000
0100
0001
0000
,  // measure 36
1000
0100
1000
1000
,  // measure 37
0000
0001
0010
0000
,  // measure 38
0100
1000
0100
0100
,  // measure 39
0000
0010
0001
0000
,  // measure 40
1000
0010
1000
1000
,  // measure 41
0000
0001
0010
0100
,  // measure 42
2000
0000
0000
3000
,  // measure 43
0000
1000
0100
0010
,  // measure 44
0002
0000
1003
0000
,  // measure 45
0010
0000
0000
0000
,  // measure 46
0000
0000
0000
0000
,  // measure 47
0000
0000
0000
0000
,  // measure 48
0000
0000
0000
0000
,  // measure 49
0100
0000
0000
0110
0000
0000
0000
1001
0000
0000
0000
0000
,  // measure 50
0020
0000
1030
0100
,  // measure 51
2000
0000
3001
0010
,  // measure 52
0002
0100
0000
0100
,  // measure 53
0000
0100
0000
0103
,  // measure 54
0020
0000
1030
0001
,  // measure 55
2000
0000
3010
0100
,  // measure 56
0002
0010
0000
1000
,  // measure 57
0000
0103
0000
0110
,  // measure 58
0000
1000
0100
0000
,  // measure 59
0001
0001
0100
0000
,  // measure 60
2002
3003
0220
0330
,  // measure 61
0010
1000
0001
1000
,  // measure 62
0020
0000
0000
0000
,  // measure 63
0000
0000
0000
0000
,  // measure 64
0030
0000
0000
0000
;

//---------------dance-single - ----------------
#NOTEDATA:;
#CHARTNAME:[Ness];
#STEPSTYPE:dance-single;
#DESCRIPTION:[Ness];
#CHARTSTYLE:;
#DIFFICULTY:Beginner;
#METER:1;
#RADARVALUES:0.110167,0.197165,0.103353,0.023851,0.000000,97.000000,84.000000,13.000000,3.000000,0.000000,0.000000,0.000000,0.000000,0.000000,0.110167,0.197165,0.103353,0.023851,0.000000,97.000000,84.000000,13.000000,3.000000,0.000000,0.000000,0.000000,0.000000,0.000000;
#CREDIT:[Ness];
#NOTES:
// measure 0
0000
0000
0000
0000
,  // measure 1
1001
0000
0000
0000
,  // measure 2
0020
0000
0030
0000
,  // measure 3
1001
0000
0000
0000
,  // measure 4
0020
0000
0030
0000
,  // measure 5
1001
0000
0000
0000
,  // measure 6
0020
0000
0030
0000
,  // measure 7
1000
0000
1000
0000
,  // measure 8
0001
0000
0001
0000
,  // measure 9
0100
0000
0010
0000
,  // measure 10
1000
0000
0001
0001
,  // measure 11
0001
0000
0000
0000
,  // measure 12
0010
0000
0000
0000
,  // measure 13
0100
0000
0000
0000
,  // measure 14
0000
0000
0000
0000
,  // measure 15
1000
0000
0000
0000
,  // measure 16
0010
0000
0000
0000
,  // measure 17
0100
0000
0000
0000
,  // measure 18
0001
0000
1000
0000
,  // measure 19
0001
0000
0010
0000
,  // measure 20
1000
0000
0010
0000
,  // measure 21
0001
0000
0100
0000
,  // measure 22
1000
0000
0100
0000
,  // measure 23
1001
0000
0000
0000
,  // measure 24
0110
0000
0000
0000
,  // measure 25
1001
0000
0000
0000
,  // measure 26
0110
0000
0000
0000
,  // measure 27
1001
0000
0000
0000
,  // measure 28
0110
0000
1001
0000
,  // measure 29
0010
0000
1000
0000
,  // measure 30
0100
0000
0010
0000
,  // measure 31
1001
0000
0000
0000
,  // measure 32
0000
0000
0000
0000
,  // measure 33
0000
0000
0000
0000
,  // measure 34
0001
0000
0000
0000
,  // measure 35
0010
0000
0000
0000
,  // measure 36
1000
0000
0000
0000
,  // measure 37
0010
0000
0000
0000
,  // measure 38
0100
0000
0000
0000
,  // measure 39
0010
0000
0000
0000
,  // measure 40
0001
0000
0000
0000
,  // measure 41
1000
0000
0000
0000
,  // measure 42
0010
0000
0000
0000
,  // measure 43
0000
0000
0000
0000
,  // measure 44
0100
0000
0001
0000
,  // measure 45
1000
0000
0000
0000
,  // measure 46
0000
0000
0000
0000
,  // measure 47
0000
0000
0000
0000
,  // measure 48
0000
0000
0000
0000
,  // measure 49
1001
0000
0000
0000
,  // measure 50
0110
0000
0010
0010
,  // measure 51
0010
0000
0100
0100
,  // measure 52
0100
0000
0000
0001
,  // measure 53
0000
1000
0000
0000
,  // measure 54
0010
0000
1000
1000
,  // measure 55
1000
0000
0001
0001
,  // measure 56
0001
0000
0000
0010
,  // measure 57
0000
0100
0000
1000
,  // measure 58
1000
0000
0000
0000
,  // measure 59
0001
0000
0000
0000
,  // measure 60
0100
0000
0010
0000
,  // measure 61
0100
0100
0100
0100
,  // measure 62
0100
0000
0000
0000
;
