#TITLE:AC版ディズニー ツムツムメドレー;
#SUBTITLE:;
#ARTIST:©Disney;
#TITLETRANSLIT:AC ban Disney TsumTsum medley;
#SUBTITLETRANSLIT:;
#ARTISTTRANSLIT:Disney;
#GENRE:;
#CREDIT:;
#BANNER:AC ban Disney TsumTsum medley.png;
#BACKGROUND:;
#LYRICSPATH:;
#CDTITLE:;
#MUSIC:AC ban Disney TsumTsum medley.mp3;
#OFFSET:-0.910000;
#SAMPLESTART:42.013889;
#SAMPLELENGTH:16.000000;
#SELECTABLE:YES;
#BPMS:0.000000=146.000000
;
#STOPS:
;
#BGCHANGES:;
#KEYSOUNDS:;
#ATTACKS:;

//---------------dance-single - ----------------
#NOTES:
     dance-single:
     :
     Hard:
     15:
     0.591221,0.763519,0.246794,0.446128,0.465112,436.000000,410.000000,26.000000,47.000000,0.000000,0.000000,0.591221,0.763519,0.246794,0.446128,0.465112,436.000000,410.000000,26.000000,47.000000,0.000000,0.000000:
// measure 0
0000
0000
0000
0000
,  // measure 1
0000
0000
0000
0000
,  // measure 2
0000
0000
0000
0000
,  // measure 3
0000
0000
0000
0000
,  // measure 4
1000
0100
0010
0000
0001
0010
0100
0000
,  // measure 5
1000
0000
0100
0000
0010
0000
0001
0100
0010
0000
0100
0000
0000
0000
0100
1000
,  // measure 6
0200
0320
0032
0023
,  // measure 7
0030
0000
0100
0000
1000
0100
0010
0000
0001
0000
0010
0000
0100
0000
1000
0000
,  // measure 8
1100
0011
0000
0000
2002
0000
3003
0000
,  // measure 9
0010
0000
0100
0000
1000
0000
0100
0010
0000
0010
0000
0010
0001
0000
0100
0000
,  // measure 10
2000
0000
0000
0002
0000
0000
0000
0000
3003
0000
0000
0000
0110
0000
0000
0000
,  // measure 11
0100
0000
0010
0000
0001
0000
0100
1000
0000
1000
0000
1000
0010
0000
0001
0000
,  // measure 12
0020
0100
1030
0011
,  // measure 13
0010
0000
0100
0000
0010
0000
0001
0100
0000
0100
0000
0100
1000
0000
0100
0000
,  // measure 14
0020
0000
0000
0200
0000
0000
0000
0000
0330
0000
0100
0000
1000
0000
0100
0000
,  // measure 15
0010
0000
0001
0000
0100
0000
0010
0001
0000
0001
0000
0001
0010
0000
0100
0000
,  // measure 16
2000
0000
0000
0002
0000
0000
0000
0000
3003
0000
0010
0000
0100
0000
0010
0000
,  // measure 17
1000
0000
0000
0000
0100
0010
0000
0001
0000
0000
0000
0010
0000
0000
0100
0000
,  // measure 18
1000
0000
0000
0100
0000
0000
0000
0000
0000
0000
1100
0000
0110
0000
0000
0000
,  // measure 19
0001
0000
0000
0000
0010
1000
0000
0010
0000
0000
0000
0100
0000
0000
0010
0000
,  // measure 20
0001
1010
0100
0011
,  // measure 21
0010
0000
0000
0000
0100
1000
0000
0100
0000
0000
0000
0100
0000
0000
0010
0000
,  // measure 22
1000
0000
0000
0001
0000
0000
0000
0000
0000
0000
0011
0000
0110
0000
0000
0000
,  // measure 23
0010
0000
0000
0000
0100
1000
0000
0100
0000
0000
0000
0010
0000
0000
0001
0000
,  // measure 24
0020
0000
0230
0000
,  // measure 25
2300
0000
3010
0100
0002
0000
0103
0010
,  // measure 26
0200
2300
3200
0320
,  // measure 27
0130
1000
0100
1000
0010
0000
0000
0000
0001
0100
0001
0100
0010
0000
0000
0000
,  // measure 28
1000
0010
1000
0010
0100
0001
0100
0001
2000
0000
0000
0000
3000
0000
0000
0000
,  // measure 29
1000
0000
0000
0010
0100
0000
0010
0000
0001
0000
0000
0100
0010
0000
0100
0000
,  // measure 30
1000
0000
0000
0100
0001
0000
0010
0000
0100
0000
1000
0100
1000
0000
0000
0000
,  // measure 31
0100
0000
0000
1000
0001
0000
1000
0000
0010
0000
0000
0001
1000
0000
0001
0000
,  // measure 32
0100
0000
0000
1000
0100
0000
0100
0000
0010
0000
0001
0010
0001
0000
0000
0000
,  // measure 33
0100
0000
0000
0010
1000
0000
0100
0000
0010
0000
0000
0100
0001
0000
0010
0000
,  // measure 34
0100
0000
0000
1000
0100
0000
0100
0000
0001
0000
0010
0100
0010
0000
0100
0000
,  // measure 35
1000
0000
0000
0100
0001
0000
0001
0000
0001
0000
0000
0010
1000
0000
1000
0000
,  // measure 36
1000
0000
0000
0100
0010
0000
0100
0000
0020
0000
1000
0000
1000
0000
1000
0000
,  // measure 37
0130
0000
0000
0000
0010
0000
0000
0001
0100
0000
1000
0000
0100
0000
0010
0000
,  // measure 38
0200
0000
0000
0000
0300
0000
0000
0100
1000
0000
0010
0000
0001
0000
0010
0000
,  // measure 39
0100
0000
0000
0000
1000
0000
0000
0100
0010
0000
0100
0000
0010
0000
0001
0000
,  // measure 40
0020
0000
0000
0000
0030
0000
0000
0010
1000
0000
0100
0000
0010
0000
0001
0000
,  // measure 41
1000
0000
0000
0000
0100
0000
0000
0010
0100
0000
1000
0000
0100
0000
0010
0000
,  // measure 42
0002
0000
0000
0000
0003
0000
0000
0001
0010
0000
0100
0000
0010
0000
1000
0000
,  // measure 43
0010
0000
0000
0000
0001
0000
0000
0100
0010
0000
0001
0000
0010
0000
0100
0000
,  // measure 44
0100
0000
2000
0000
0000
0000
0000
0000
3100
0010
0100
0000
0100
0000
0010
0000
,  // measure 45
0001
0000
0000
0000
0110
0000
0000
0100
0010
0000
0001
0000
0010
0000
0100
0000
,  // measure 46
0010
0000
0001
0000
0100
0000
0000
1000
0100
0000
0010
0001
0010
0000
0010
0000
,  // measure 47
1000
0000
0000
0000
1010
0000
0000
1000
0010
0000
0001
0000
0100
0000
1000
0000
,  // measure 48
0100
0000
0010
0000
0100
0000
0001
0000
0100
1000
0100
0000
0010
0000
0010
0000
,  // measure 49
0001
0000
0000
0000
0011
0000
0000
0001
0010
0000
0100
0000
0010
0000
1000
0000
,  // measure 50
0010
0000
0001
0000
0100
0000
0000
0001
0010
0000
0100
0010
0100
0000
0100
0000
,  // measure 51
1001
0000
0000
0000
0100
0000
0000
0010
0110
0000
0000
0000
0100
0000
0000
0000
,  // measure 52
2001
0000
0010
0000
3200
0000
0000
0300
,  // measure 53
0010
0001
0010
0001
0010
0100
0010
0100
0010
0000
0001
0000
1000
0000
0100
0000
,  // measure 54
1000
0100
1000
0100
1000
0010
1000
0010
1000
0000
0010
0000
0100
0000
0001
0000
,  // measure 55
0100
0010
0100
0010
1000
0010
1000
0010
1000
0000
0001
0000
0010
0000
1000
0000
,  // measure 56
0202
0303
2020
3030
0022
0033
2200
3300
,  // measure 57
0001
1000
0001
1000
0100
1000
0100
1000
0100
0000
0010
0000
0001
0000
0100
0000
,  // measure 58
0010
0001
0010
0001
0010
0100
0010
0001
0010
0000
0100
0000
1000
0000
0001
0000
,  // measure 59
1000
0100
1000
0100
1000
0100
0010
0001
0010
0000
0100
0000
1000
0000
0001
0000
,  // measure 60
2200
3300
0220
0330
0202
0303
2002
3003
,  // measure 61
0220
0000
0000
0000
0000
0000
0330
0000
1000
0001
0000
1000
0010
0000
0100
0000
;
