#TITLE:Whoomp! (There It Is);
#SUBTITLE:;
#ARTIST:Kidz Bop Kids;
#TITLETRANSLIT:;
#SUBTITLETRANSLIT:;
#ARTISTTRANSLIT:;
#GENRE:;
#CREDIT:;
#MUSIC:Whoomp (There It Is).ogg;
#BANNER:bn.png;
#BACKGROUND:bg.png;
#CDTITLE:;
#SAMPLESTART:32.223;
#SAMPLELENGTH:15.000;
#SELECTABLE:YES;
#OFFSET:1.137;
#BPMS:0.000=129.496;
#STOPS:;
#DISPLAYBPM:129.000;
#LASTBEATHINT:0.276258;
#BGCHANGES:;
#FGCHANGES:;

//--------------- dance-single - Ben Spiers ----------------
#NOTES:
     dance-single:
     Ben Spiers:
     Beginner:
     2:
     0.104584,0.161583,0,0,0,105,105,0,0,0,0,0.104584,0.161583,0,0,0,105,105,0,0,0,0:
0000
0000
0000
0000
,
0000
0000
0000
0000
,
0000
0000
0000
0000
,
0000
0000
0000
0000
,
0000
0000
0000
0000
,
0000
0000
0000
0000
,
0001
0000
0000
0000
,
1000
0000
0000
0000
,
0010
0000
0000
0000
,
0100
0000
0000
0000
,
0001
0000
0001
0000
,
0001
0000
0000
0000
,
1000
0000
1000
0000
,
1000
0000
0000
0000
,
0010
0000
0010
0000
,
0010
0000
0000
0000
,
0100
0000
0100
0000
,
0100
0000
0000
0000
,
0001
0001
0000
0000
,
0001
0000
0000
0000
,
1000
1000
0000
0000
,
1000
0000
0000
0000
,
0010
0010
0000
0000
,
0010
0000
0000
0000
,
0100
0100
0000
0000
,
0100
0000
0000
0000
,
0001
0000
0000
0000
,
1000
0000
1000
0000
,
1000
0000
0000
0000
,
0010
0000
0010
0000
,
0010
0000
0000
0000
,
0100
0000
0100
0000
,
0100
0000
0000
0000
,
0001
0000
0001
0000
,
0001
0000
0000
0000
,
1000
0000
0000
0000
,
0010
0000
0010
0000
,
0010
0010
0000
0000
,
1000
0000
0000
0000
,
0001
0000
0000
0000
,
0100
0000
0000
0000
,
0100
0100
0000
0000
,
0001
0000
0000
0000
,
1000
0000
0000
0000
,
0010
0000
0010
0000
,
0010
0000
0010
0010
,
0010
0000
0000
0000
,
1000
0000
0000
0000
,
0001
0000
0000
0000
,
0100
0000
0000
0000
,
0100
0100
0000
0000
,
0010
0010
0000
0000
,
1000
1000
0000
0000
,
0001
0001
0000
0000
,
1000
0000
0000
0100
,
0100
0000
0000
0010
,
0010
0000
0000
0001
,
0001
0000
0000
0000
,
1000
0000
0000
0000
,
0001
0000
0000
0000
,
0100
0000
0100
0000
,
0100
0000
0000
0000
,
0010
0000
0010
0000
,
0010
0000
0000
0000
,
1000
0000
1000
0000
,
1000
0000
0000
0000
,
0001
0000
0000
0000
,
1000
0000
0000
0000
,
0100
0100
0000
0000
,
0100
0000
0000
0000
,
0010
0010
0000
0000
,
0010
0000
0000
0000
,
0001
0000
0000
0000
,
1000
0000
0000
0000
,
0010
0010
0000
0000
,
0010
0010
0000
0000
,
0100
0100
0000
0000
,
0000
0100
0000
0000
;

//--------------- dance-single - Ben Spiers ----------------
#NOTES:
     dance-single:
     Ben Spiers:
     Easy:
     4:
     0.199208,0.243943,0.020917,0.132473,0,200,197,3,19,0,0,0.199208,0.243943,0.020917,0.132473,0,200,197,3,19,0,0:
0000
0000
0000
0000
,
0000
0000
0000
0000
,
0000
0000
0000
0000
,
0000
0000
0000
0000
,
0000
0000
0000
0000
,
0000
0000
0000
0000
,
0001
0000
1000
0010
,
0100
0000
0000
0000
,
0010
0000
1000
0001
,
0010
0000
0000
0000
,
0100
0100
0100
0000
,
1000
0010
0100
0000
,
0010
0010
0010
0000
,
0100
0001
1000
0000
,
0001
0010
0100
0100
,
1000
0010
0100
0100
,
0001
0000
1000
0000
,
0001
0010
0100
0000
,
1000
1000
0200
0300
,
0010
0010
0002
0003
,
1000
1000
0020
0030
,
0100
0100
0002
0003
,
1000
0001
0200
0300
,
0001
1000
0200
0300
,
1000
0001
0020
0030
,
0001
1000
0020
0030
,
1000
0100
0000
0010
,
0000
0001
1000
0010
,
0100
0001
0000
0010
,
0000
0100
1000
0010
,
0100
0010
0000
1000
,
0000
0100
0010
0001
,
1000
0001
0000
0100
,
0000
0010
0010
1000
,
2002
0000
0000
3003
,
2000
0000
0000
3000
,
0200
0000
0000
0300
,
0010
0010
0001
0000
,
2002
0000
0000
3003
,
0002
0000
0000
0003
,
0200
0000
0000
0300
,
0010
0010
0100
0000
,
0001
0010
0100
0000
,
1000
0010
0100
0000
,
0010
0010
0100
0100
,
0001
0001
1000
0001
,
0020
0000
0030
0000
,
0001
1000
0010
0000
,
1000
1000
0100
0000
,
0010
0010
0001
0000
,
1000
0010
0100
0000
,
0001
0010
0100
0000
,
1000
0001
0100
0000
,
0001
1000
0100
0000
,
1000
1000
0100
0100
,
0010
0000
0010
0000
,
0001
0001
0100
0100
,
0010
0000
0010
0000
,
1000
0001
1000
0000
,
0001
0100
0001
0000
,
1000
0100
1000
0000
,
0001
0010
0001
0000
,
1000
0010
0100
0100
,
0001
0010
0100
0000
,
0010
0010
0010
0000
,
0100
0100
0100
0000
,
2002
0000
0000
3003
,
0001
1000
0010
0100
,
0010
0000
0010
0000
,
0100
0100
0100
0000
,
0001
0010
0100
0000
,
1000
1000
0100
0000
,
1000
0010
0100
0000
,
0001
0001
0100
0000
,
0001
1000
0000
1000
,
0000
0001
0000
0001
,
0000
0010
0000
0010
,
0000
0100
0000
0100
;

//--------------- dance-single - Ben Spiers ----------------
#NOTES:
     dance-single:
     Ben Spiers:
     Medium:
     8:
     0.386464,0.406571,0.264947,0.257975,0,388,350,38,37,0,0,0.386464,0.406571,0.264947,0.257975,0,388,350,38,37,0,0:
0000
0000
0000
0000
,
0000
0000
0000
0000
,
0000
0000
0000
0000
,
0000
0000
0000
0000
,
0000
0000
0000
0000
,
0000
0000
0000
0000
,
1000
0100
1000
0100
0010
0001
0010
0001
,
0000
1000
0000
1000
,
0001
0100
0001
0100
0010
1000
0010
1000
,
0000
0001
0000
0001
,
2001
0000
3200
0000
0310
0001
0100
0000
,
0002
0000
0203
0000
0310
1000
0001
0000
,
1000
0100
1000
0000
0001
0100
0001
0000
,
1000
0010
0100
0000
0001
0010
0100
0000
,
1000
1000
0001
0000
0001
0001
1000
0000
,
0001
0100
0010
0000
1000
0100
0010
0000
,
0001
0000
1000
0000
0010
0100
0010
0000
,
1001
0000
1000
0100
0010
0001
0000
0000
,
1100
0000
0001
0100
0010
1000
0000
0000
,
0101
0000
1000
0100
0010
0001
0000
0000
,
1010
0000
0001
0010
0100
1000
0000
0000
,
0101
0000
1000
0010
0100
0001
0000
0000
,
1100
0000
0001
0001
0100
0010
0000
0000
,
1010
0000
1000
1000
0100
0010
0000
0000
,
0011
0000
0001
0001
1000
0010
0000
0000
,
0110
0000
0100
0100
0001
1000
0000
0000
,
2001
0000
3010
0100
0010
0000
0100
0001
,
0100
0000
0001
0010
0001
0000
0010
0000
,
2001
0000
3001
0100
0001
0000
0100
0010
,
0100
0000
0010
1000
0010
0000
1000
0000
,
2100
0000
3001
0010
0001
0000
0010
0100
,
1000
0000
0100
0010
0001
0000
1000
0000
,
0201
0000
0310
0100
0010
0000
0100
0010
,
1000
0000
0010
0100
0001
0000
1000
0000
,
0002
0100
0000
1000
,
0000
0010
0000
1003
,
2000
0100
0000
3001
,
1001
0000
1000
0100
0010
0001
0000
0000
,
2000
0010
0000
0001
,
0000
0100
0000
3001
,
0002
0010
0000
1003
,
1001
0000
0001
0010
0100
1000
0000
0000
,
0001
0100
0001
0100
0010
1000
0001
0000
,
1000
0000
0100
0000
0010
0001
1000
0000
,
1000
0100
1000
0100
0010
0001
1000
0000
,
0001
0100
0010
0000
1000
0001
0100
0000
,
2002
0000
3003
0000
0001
1000
0100
0000
,
1000
0000
0010
0000
0100
0001
1000
0000
,
0001
0000
0010
0000
0001
0100
0010
0000
,
1000
0010
0100
0000
0001
0010
0100
0000
,
1000
0000
0001
0100
0001
0100
0001
0100
,
0000
0000
0010
1000
0010
1000
0010
1000
,
0000
0000
0001
0010
0001
0010
0001
0010
,
0000
0000
0100
1000
0100
1000
0100
1000
,
0002
0000
0203
0000
0320
0000
1030
0001
,
1000
0001
2000
0000
3200
0000
0310
0001
,
0010
0001
2000
0000
3002
0000
0103
0010
,
0100
0010
2000
0000
3002
0000
0013
0100
,
1000
0000
0001
0000
1000
0010
0100
0000
,
0001
0101
0000
1100
,
0001
0000
1000
0000
0100
0010
0001
0000
,
0010
0011
0000
1001
,
1000
0001
0100
0000
0001
1000
0100
0000
,
0010
0001
0100
0000
0010
1000
0100
0000
,
1000
1000
0001
0001
,
1000
0010
0100
0001
0010
0100
1000
0000
,
2002
0000
0000
3003
,
1000
0001
0100
0000
,
0001
0100
0010
0000
1000
0010
0100
0000
,
0001
0010
0100
0000
1000
0100
0010
0000
,
0011
0110
2200
3300
,
1010
0110
0202
0303
,
1001
0110
2002
3003
,
1001
1100
0202
0303
,
1001
0000
1000
0100
0020
0000
0030
0000
,
1001
0000
0001
0100
0020
0000
0030
0000
,
1001
0000
1000
0100
0020
0000
0030
0000
,
1001
0000
0001
0100
0020
0000
0030
0000
;

//--------------- dance-single - eataninja ----------------
#NOTES:
     dance-single:
     eataninja:
     Hard:
     13:
     0.571727,0.650514,0.230085,0.460171,0.292836,574,541,33,66,0,0,0.571727,0.650514,0.230085,0.460171,0.292836,574,541,33,66,0,0:
0000
0000
0000
0000
,
0000
0000
0000
0000
,
0000
0000
0000
0000
,
0000
0000
0000
0000
,
0000
0000
0000
0000
,
0000
0000
0000
0000
,
1000
0100
1000
0100
0001
0100
1000
0000
,
0010
0000
1000
0001
0000
0001
1000
0000
,
0001
0100
0001
0100
1000
0100
0001
0000
,
0010
0000
0001
1000
0000
1000
0001
0000
,
0011
0000
1100
0000
1000
0010
0100
0000
,
0001
0000
1000
0000
0100
0000
0001
0000
0100
0000
0010
0001
0000
0000
1000
0000
,
0010
0000
0100
0000
0001
1000
0001
1000
0001
0000
0010
0100
0000
0000
1000
0000
,
0001
0000
0100
0001
0000
0000
1001
0000
1100
0000
0100
0010
0000
0000
0001
0000
,
1000
0010
1000
0010
0100
0000
0000
0000
0001
0010
0001
0010
0100
0000
0001
0000
,
0100
0000
1000
0001
1000
0000
0010
0100
0001
0000
1000
0100
0000
0000
0000
0000
,
0010
0000
0010
0000
0100
0000
1000
0001
1000
0001
0000
0100
0000
0010
0000
0000
,
1001
0000
0001
0010
0100
1000
0010
0010
,
1001
0000
0002
0023
2030
3010
0100
0000
,
1001
0000
0002
0023
2030
3010
0100
0000
,
1001
0000
2000
3020
0032
0013
0100
0000
,
1001
0000
2000
3020
0032
0013
0100
0000
,
1001
0000
0002
0023
2030
3001
0100
0000
,
1001
0000
0002
0023
2030
3001
0100
0000
,
1001
0000
2000
3020
0032
1003
0100
0000
,
1001
0000
2000
3020
0032
1003
0100
0000
,
1001
0000
1000
0100
0001
0100
1000
0100
,
0001
0100
1000
0100
0001
0100
1000
0000
,
1001
0000
0001
0100
1000
0100
0001
0100
,
1000
0100
0001
0100
1000
0100
0001
0000
,
1001
0000
1000
0100
0001
0100
1000
0010
,
0001
0010
1000
0100
0001
0100
1000
0000
,
1001
0000
0001
0100
1000
0100
0001
0010
,
1000
0010
0001
0100
1000
0100
0001
0000
,
1000
0010
1000
0010
0100
0001
0100
0001
,
0010
0001
0010
0001
1000
0100
1000
0100
,
0010
0001
0100
0010
1000
0001
0010
0100
,
1100
0000
0001
0100
2000
0000
3200
0000
,
0301
0100
0001
0100
0010
1000
0010
1000
,
0100
1000
0100
1000
0001
0010
0001
0010
,
0100
1000
0001
0100
0010
1000
0100
0010
,
0011
0000
1000
0010
0002
0000
0023
0000
,
0130
0000
0001
0000
1000
0100
1000
0000
0010
1000
0001
0000
0010
0000
0100
0000
,
1000
0001
1000
0000
0010
0000
0001
0000
0010
0000
0100
0000
0001
0000
0001
0000
,
1000
0100
0001
1000
0010
0001
1000
0010
,
0001
1000
0100
0010
1000
1000
0001
0001
,
0021
0000
0000
0000
0000
0000
0130
0000
1000
0001
0000
0001
0100
0000
0010
0100
,
0010
0000
1000
0001
1000
0000
0100
0010
0001
0000
0000
1000
0010
0000
0001
0000
,
0010
0100
0010
0100
0001
0000
1000
0000
0100
0010
0100
0010
0001
0000
1000
0000
,
0010
0000
0000
0000
0010
0100
0000
0010
1000
0000
0001
0010
0001
0000
0000
0000
,
1000
0000
1000
0000
0010
0100
0000
0010
0000
1000
0000
0001
0010
0000
0100
0000
,
1000
0000
1000
0000
0100
0010
0000
0100
0000
1000
0000
0001
0100
0000
0010
0000
,
0100
0000
0100
0000
0001
1000
0000
0100
0000
0001
0000
0100
0010
0000
0001
0000
,
0100
0000
0100
0000
0001
1000
0000
0010
0000
0001
0000
0010
0100
0000
0001
0000
,
1000
0000
1000
0000
0001
0100
0000
1000
0000
0100
0000
0010
1000
0000
0100
0000
,
0010
0000
0010
0000
0001
1000
0000
0100
0000
1000
0000
0010
0100
0000
0001
0000
,
1000
0000
1000
0000
0001
0010
0000
1000
0000
0010
0000
0100
1000
0000
0010
0000
,
0100
0000
0100
0000
0001
1000
0000
0010
0000
1000
0000
0001
0010
0000
0100
0000
,
1000
0001
1000
0000
0010
0000
0100
0010
1000
0000
0001
0000
0010
0000
0100
0000
,
1000
0000
0001
0000
0100
0010
0100
0000
0001
0000
0010
0100
1000
0000
0001
0100
,
0001
0000
1000
0000
1000
0000
0100
0010
0100
0000
0010
0000
0001
0000
0000
0000
,
1000
0000
0010
0100
0001
0000
0010
0000
0010
0000
0100
0000
0001
0000
0100
0000
,
1000
0000
1000
0000
0001
0000
0100
0010
0100
0001
0000
1000
0000
0000
0100
0010
,
0001
0000
1000
0010
1000
0010
0100
0000
1000
0000
0100
0000
0001
0000
0000
0000
,
1000
0001
1000
0001
0100
0000
0010
0000
1000
0100
0000
0001
0100
0000
0000
0000
,
1001
0000
1000
0010
0200
0000
0000
0310
1000
0000
0001
0000
0010
0000
0000
0000
,
0011
0000
0020
2030
3020
0031
0100
0000
,
0101
0000
0200
2300
3200
0301
0010
0000
,
0011
0000
0020
2030
3020
0031
0100
0000
,
0101
0000
0200
2300
3200
0301
0010
0000
,
0011
1000
0020
0032
0023
1030
0100
0000
,
1100
0001
0200
2300
3200
0301
0010
0000
,
0011
1000
0020
0032
0023
1030
0100
0000
,
1100
0001
0200
2300
3200
0301
0010
0000
,
0110
0000
2000
3002
2003
0000
3000
0000
,
0110
0000
0002
2003
3002
0000
0003
0000
,
0110
0000
2000
3002
2003
0000
3000
0000
,
0110
0000
0002
2003
3002
0000
0003
0000
;
