#TITLE:Supermodel (You Better Work);
#SUBTITLE:;
#ARTIST:RuPaul;
#TITLETRANSLIT:;
#SUBTITLETRANSLIT:;
#ARTISTTRANSLIT:;
#GENRE:;
#CREDIT:;
#MUSIC:Supermodel (You Better Work).ogg;
#BANNER:Supermodel (You Better Work).png;
#BACKGROUND:Supermodel (You Better Work)-bg.png;
#CDTITLE:;
#SAMPLESTART:31.732;
#SAMPLELENGTH:15.001;
#SELECTABLE:YES;
#OFFSET:0.587;
#BPMS:0.000=126.240;
#STOPS:133.750=0.951;
#DISPLAYBPM:126.000;
#BGCHANGES:;
#FGCHANGES:;

//--------------- dance-single - eataninja ----------------
#NOTES:
     dance-single:
     eataninja:
     Beginner:
     3:
     0.127932,0.152107,0.193152,0.24583,0,102,80,22,28,12,0,0.127932,0.152107,0.193152,0.24583,0,102,80,22,28,12,0:
0000
0000
0000
0000
,
0000
0000
0000
0000
,
0000
0000
0000
0000
,
0000
0000
0000
0000
,
0000
0000
0000
0000
,
0001
0000
0001
0000
,
0100
0000
0100
0000
,
0010
0000
0010
0000
,
1000
0000
0001
0000
,
2002
0000
3003
0000
,
0010
0010
0000
0000
,
0100
0000
0000
0000
,
1000
0000
0001
0000
,
2002
0000
3003
0000
,
0010
0010
0000
0000
,
0100
0000
0000
0000
,
0001
0000
1000
0000
,
2002
0000
3003
0000
,
0220
0000
0330
0000
,
2002
0000
3003
0000
,
0010
0000
0100
0000
,
2002
0000
3003
0000
,
0220
0000
0330
0000
,
2002
0000
3003
0000
,
0100
0000
0010
0000
,
1000
0000
0001
0000
,
0010
0000
0000
0000
,
0001
0000
1000
0000
,
0010
0010
0000
0000
,
0100
0000
0001
0000
,
1000
0000
0000
0000
,
0100
0000
0010
0000
,
1001
0000
0000
1001
,
0000
0000
0000
1000
,
0000
1000
0000
0001
,
0000
0001
0000
0100
,
0000
0100
0000
0010
,
0010
0000
0220
0000
,
0330
0000
2002
0000
,
3003
0000
0220
0000
,
0330
0000
1000
0000
,
0001
0000
0220
0000
,
0330
0000
2002
0000
,
3003
0000
0220
0000
,
0330
0000
0001
0000
,
1000
0000
0010
0010
,
0000
0000
0100
0100
,
0000
0000
0010
0010
,
0000
0000
1001
0000
,
0000
0000
0010
0010
,
0000
0000
0100
0100
,
0000
0000
0010
0010
,
0000
0000
1001
0000
,
0000
1001
0000
0000
,
0110
0000
1001
0000
,
0000
1001
0000
0000
,
0000
0000
0000
0000
,
MMMM
0000
0000
MMMM
0000
0000
MMMM
0000
;

//--------------- dance-single - eataninja ----------------
#NOTES:
     dance-single:
     eataninja:
     Easy:
     5:
     0.23705,0.304214,0.333626,0.122915,0,189,151,38,14,12,0,0.23705,0.304214,0.333626,0.122915,0,189,151,38,14,12,0:
0000
0000
0000
0000
,
0000
0000
0000
0000
,
0000
0000
0000
0000
,
0000
0000
0000
0000
,
0000
0000
0000
0000
,
0001
0001
0010
0000
,
0010
0010
0100
0000
,
0100
0100
1000
0000
,
1000
1000
0001
0001
,
2001
0000
3010
0000
,
0100
0100
0001
0000
,
0010
0100
1000
0000
,
0001
0100
1000
0100
,
0120
0000
1030
0000
,
0001
0001
0010
0000
,
0100
1000
0001
0001
,
1000
0010
0100
0001
,
0102
0000
1003
0000
,
2100
0000
3001
0000
,
0102
0000
1003
0000
,
0110
0000
1001
0000
,
0012
0000
1003
0000
,
2010
0000
3001
0000
,
0012
0000
1003
0000
,
0110
0000
1001
0000
,
0010
1000
0001
0001
,
0010
0100
1000
0000
,
0001
0100
1000
0100
,
0010
0000
1001
0000
,
0001
0010
0100
1000
,
0010
0100
0010
0000
,
0001
0010
1000
1000
,
1001
0000
1001
0000
0000
0110
0000
0110
,
0000
0000
0001
0001
,
1000
0000
1000
1000
,
0001
0000
0100
0100
,
0010
0000
0010
0010
,
0100
0000
0102
0100
,
1003
0000
2100
0100
,
3001
0000
0102
0100
,
1003
0000
0110
0000
,
1001
0000
0012
0010
,
1003
0000
2010
0010
,
3001
0000
0012
0010
,
1003
0000
0110
0000
,
1001
0000
0100
0100
,
0001
1000
0100
0100
,
1000
0001
0100
0100
,
0010
0100
1001
1001
,
0000
0000
0010
0010
,
1000
0001
0010
0010
,
0001
1000
0010
0010
,
0100
0001
1001
1001
,
0000
0110
0000
0110
0000
0000
0000
0000
,
1001
0000
0110
0110
,
0000
1001
0000
1001
0000
0000
0000
0000
,
0000
0000
0000
0000
,
MMMM
0000
0000
MMMM
0000
0000
MMMM
0000
;

//--------------- dance-single - eataninja ----------------
#NOTES:
     dance-single:
     eataninja:
     Medium:
     8:
     0.331118,0.380268,0.22827,0.201932,0,264,238,26,23,12,0,0.331118,0.380268,0.22827,0.201932,0,264,238,26,23,12,0:
0000
0000
0000
0000
,
0000
0000
0000
0000
,
0000
0000
0000
0000
,
0000
0000
0000
0000
,
0000
0000
0000
0000
,
0001
0001
0001
0100
,
0001
0001
0001
1000
,
0001
0001
0001
0010
,
0001
0001
1000
0100
,
1002
0000
0000
0000
0103
0010
1000
0000
,
1001
0000
0000
0000
0100
0010
0001
0000
,
1000
0010
0001
0010
,
0100
0010
0100
0000
0001
1000
0001
0000
,
1002
0000
0000
0000
0013
0100
1000
0000
,
1001
0000
0000
0000
0010
0100
0001
0000
,
0010
0000
0100
0000
1000
0000
0001
0100
,
0001
0000
1000
0100
0010
0000
0001
0000
,
0021
0000
0000
0000
0031
0100
1000
0000
,
1200
0000
0000
0301
1000
0100
0001
0000
,
0201
0000
0000
0000
0310
0000
0010
0001
,
0100
0000
0000
0010
1000
0000
0001
0000
,
0201
0000
0000
0000
0301
0100
1000
0000
,
1200
0000
0000
0310
1000
0100
0001
0000
,
0201
0000
0000
0000
0310
0000
0100
1000
,
0010
0000
0000
0100
0001
0000
1000
0000
,
1002
0000
0010
0000
1000
1000
1003
0000
,
1000
0100
0001
0100
0010
0001
1000
0000
,
1002
0000
0010
0000
0100
0100
0103
0000
,
0001
0100
1000
0000
0100
0010
1000
0000
,
1002
0000
0100
0000
1000
1000
1003
0000
,
1000
0100
0000
0010
0000
0001
0100
0000
,
1000
0000
0100
0010
1000
1000
0001
0000
,
0010
0010
0010
0000
0000
0010
0010
0010
,
0000
0000
0001
0001
,
0001
0010
0001
0001
,
0001
1000
0001
0001
,
0001
0100
0001
0001
,
1000
0100
0120
0100
,
0031
0100
1000
0000
1200
0000
0010
0310
,
1000
0100
0001
0000
0201
0000
0010
0000
,
1300
0000
0001
0010
0100
0000
0000
1000
,
0010
0100
0210
0010
,
0301
0100
1000
0000
1200
0000
0010
0310
,
1000
0100
0001
0000
0201
0000
0010
0000
,
1300
0000
0001
0100
0010
0000
0000
1000
,
0100
0010
0012
0100
,
1000
1000
1003
0000
2010
0000
0100
0000
,
0001
0001
3001
0000
0012
0000
1000
0000
,
0010
0000
1003
0100
0001
0100
1000
0000
,
0010
0010
0100
0000
0102
0000
0010
0000
,
1000
1000
1003
0000
2100
0000
0010
0000
,
0001
0001
3001
0000
0021
0000
1000
0000
,
0100
0000
0130
0000
1000
1000
1000
0000
,
0000
0001
0001
0001
0000
0000
0000
0100
,
0100
0100
0100
0000
0010
0010
0010
0000
,
0000
1000
0001
1001
0000
0000
0000
0000
,
0000
0000
0000
0000
,
MMMM
0000
0000
MMMM
0000
0000
MMMM
0000
;

//--------------- dance-single - eataninja ----------------
#NOTES:
     dance-single:
     eataninja:
     Hard:
     11:
     0.442744,0.456321,0.263389,0.254609,0.206321,353,323,30,29,12,0,0.442744,0.456321,0.263389,0.254609,0.206321,353,323,30,29,12,0:
0000
0000
0000
0000
,
0000
0000
0000
0000
,
0000
0000
0000
0000
,
0000
0000
0000
0000
,
0000
0000
0000
0000
,
0001
0000
0001
0000
1000
0000
0100
0010
,
0001
0000
0001
0000
1000
0000
0010
0100
,
0001
0101
1000
1100
,
0001
0000
0000
0000
0011
0000
0000
0010
0000
0010
0000
0100
1000
0000
0010
0000
,
1002
0000
0103
0000
1000
0100
0001
0000
,
0010
0000
0100
0000
2100
0000
0000
0000
3001
0100
0000
0010
0100
0000
0000
0000
,
0010
0000
0000
1000
0000
0000
0200
0000
0000
0000
0010
0000
0310
0000
0000
0000
,
0001
0100
0101
0000
1000
0001
0010
0000
,
1002
0000
0103
0000
1000
0100
0001
0010
,
0100
0000
0100
0000
1000
0000
0000
0000
0001
1000
0000
1000
0010
0000
0000
0000
,
0100
0000
0000
0001
0000
0000
2000
0000
0000
0000
0100
0000
3100
0000
0010
0000
,
0001
0000
1000
0000
0010
0000
0000
0100
0000
0100
0000
0001
1000
0000
0100
0000
,
1002
0000
0000
0000
0013
0000
0000
0000
0001
0000
0100
1000
0100
0000
0000
0000
,
2100
0000
0000
0000
3100
0000
0010
0000
1000
0000
0100
0001
0100
0000
0000
0000
,
0201
0000
0310
0000
0001
0000
1000
0010
,
1010
0000
0001
0010
0011
0000
0100
0000
,
1002
0000
0000
0000
0103
0000
0000
0000
0001
0000
0100
1000
0100
0000
0000
0000
,
2100
0000
0000
0000
3100
0000
0010
0000
1000
0000
0100
0001
0100
0000
0000
0000
,
0201
0000
0310
0000
0001
0000
1000
0010
,
1010
0000
0000
0000
0001
0000
0100
0010
0000
0010
0000
1000
0001
0000
0010
0000
,
0200
0000
0001
0000
0010
0010
0310
0100
,
1000
0001
0100
0010
1000
0100
0002
0000
,
0203
0000
0010
0000
1000
1000
1300
0001
,
0100
0010
1000
0001
0010
1000
0010
0001
,
0200
0000
1000
0000
0010
0010
0310
0100
,
0001
1000
0100
0010
0001
0100
0010
0000
,
0002
0000
0023
0000
1030
1000
0001
0001
,
0100
0100
0100
0000
0000
0100
0010
1001
,
0000
0000
0000
0000
0000
0000
0000
0000
1000
0000
0000
0000
0001
0000
0000
0001
,
0000
0000
0010
0100
0010
0000
0100
0000
1000
0000
0000
0000
0001
0000
0000
0001
,
0000
0000
0100
0010
0100
0000
0010
0000
1000
0000
0000
0000
1010
0000
0000
0001
,
0000
0000
0010
0001
0010
0000
0100
0000
1000
0000
0000
0000
1100
0000
0000
0001
,
0000
0001
0000
0100
0010
0000
0010
0000
1002
0000
0000
0000
0103
0000
0000
0000
,
1000
0000
0100
0010
1000
0000
0000
0000
2001
0000
0000
0000
3010
0000
1000
0000
,
0100
0000
0001
0100
0010
0000
0000
0000
0012
0000
0000
0000
1003
0000
0000
0000
,
0001
1000
0010
0100
0101
0000
1000
0100
,
1100
0010
1002
0103
,
1000
0000
0100
0010
1000
0000
0000
0000
2001
0000
0000
0000
3010
0000
1000
0000
,
0100
0000
0001
0100
0010
0000
0000
0000
0012
0000
0000
0000
1003
0000
0000
0000
,
0001
0000
1000
0000
0010
0000
0100
0000
0101
0000
0000
0000
1000
0000
0010
0100
,
0000
0100
0000
0001
1000
0000
0100
0000
0020
0000
0000
0000
0031
0000
1000
0010
,
0000
1000
0010
0000
0100
0000
0100
0000
0020
0000
0000
0000
1030
0000
0001
0010
,
0000
0001
0010
0000
0100
0000
0100
0000
0020
0000
0000
0000
0031
0000
1000
0010
,
0000
0100
0010
0000
1000
0000
0001
0000
0010
0000
0010
0000
1000
0000
0010
0000
,
0001
0000
1000
0000
0010
0000
0100
0000
0002
0000
0000
0000
1003
0000
0100
0010
,
0000
0100
1000
0000
0010
0000
0100
0000
0002
0000
0000
0000
1003
0000
0010
0100
,
0000
0010
1000
0000
0100
0000
0010
0000
0002
0000
0000
0000
1003
0000
0010
1000
,
0000
0001
0010
0000
0100
0000
1000
0000
0010
0000
0010
0000
0010
0000
0000
0000
,
0000
0100
0010
1001
0000
0000
0000
1000
,
1000
1000
1000
0000
0100
0100
0100
0000
,
0000
0010
0100
1001
0000
0000
0000
0000
,
0000
0000
0000
0000
,
MMMM
0000
0000
MMMM
0000
0000
MMMM
0000
;
