#TITLE:Kimchi Fingers;
#SUBTITLE:;
#ARTIST:Garlic Squad;
#TITLETRANSLIT:;
#SUBTITLETRANSLIT:;
#ARTISTTRANSLIT:;
#GENRE:;
#CREDIT:;
#MUSIC:Kimchi Fingers.ogg;
#BANNER:bn.png;
#BACKGROUND:bg.png;
#CDTITLE:;
#SAMPLESTART:37.227;
#SAMPLELENGTH:15.000;
#SELECTABLE:YES;
#OFFSET:-0.595;
#BPMS:0.000=190.000
,100.000=95.000
,108.000=190.000
;
#STOPS:;
#BGCHANGES:0.000=Kimchi Fingers.avi=1.000=0=0=0=StretchNoLoop====,
99999.000=-nosongbg-=1.000=0=0=0=StretchNoLoop====
;
#FGCHANGES:;

//--------------- dance-single - eataninja ----------------
#NOTES:
     dance-single:
     eataninja:
     Beginner:
     5:
     0,0,0,0,0:
0000
0000
0000
0000
,
0000
0000
0000
0000
,
0000
0000
0000
0000
,
0000
0000
0000
0000
,
0000
0000
0000
0000
,
0000
0000
0000
0000
,
0000
0000
0000
0000
,
0100
0100
0100
0100
,
0100
0000
0000
0000
,
0000
0001
0000
0001
,
0000
1000
0000
1000
,
0000
0100
0000
0100
,
0000
0010
0000
0010
,
0000
0001
0000
0001
,
0000
1000
1000
0000
,
1001
0000
0110
0000
,
0010
0010
0010
0000
,
0100
0000
0000
0000
,
0000
0000
0000
0000
,
0100
0000
0000
0000
,
0000
0000
0000
0000
,
0001
0000
0010
0000
,
0100
0000
1000
0000
,
1000
0000
0010
0000
,
0100
0000
0001
0000
,
2000
3000
1001
0000
,
0002
0003
1001
0000
,
1000
0000
0100
0000
,
0010
0010
0010
0000
,
0001
0000
1000
0000
,
0010
0010
0010
0000
,
1000
0000
0010
0000
,
0100
0100
0100
0000
,
1001
0000
1001
0000
,
0200
0000
0300
0000
,
0001
0000
1000
0000
,
1000
0100
1000
0000
,
0001
0000
0001
0000
,
0100
0000
0010
0000
,
0001
0000
0010
0000
,
1000
0001
1000
0000
,
0100
0000
0010
0000
,
0001
0001
1000
0000
,
0010
0000
0000
0010
,
0000
0000
0000
0000
,
0100
0000
0000
0100
,
0000
0000
0000
0000
,
0010
0000
0000
0010
,
0000
0000
0000
0000
,
0100
0000
0000
0100
,
0000
0000
0000
0000
,
0001
0000
1000
0000
,
0001
1000
0001
0000
,
0010
0000
0100
0000
,
0010
0100
0010
0000
,
0001
0000
1000
0000
,
0010
1000
0010
0000
,
1000
0000
0001
0000
,
0010
0001
0010
0000
,
0200
0000
0300
0000
,
1000
0000
0001
0000
,
1000
1000
0010
0000
,
1000
0000
0001
0000
,
1000
1000
0100
0000
,
0010
0000
0001
0000
,
1000
1000
1000
0000
,
1001
0000
0110
0000
,
0100
0100
0100
0000
,
0001
0000
1000
0000
,
0001
0001
0100
0000
,
0001
0000
1000
0000
,
0001
0001
0010
0000
,
0001
0000
1000
0000
,
0010
0010
0010
0000
,
0110
0000
1001
0000
,
1000
0001
1000
0000
,
0200
0000
0300
0000
,
0100
0000
0010
0000
,
0002
0000
0003
0000
,
0001
0000
1000
0000
,
0020
0000
0030
0000
,
0010
0000
0100
0000
,
0001
0000
0010
0000
,
0100
0100
0100
0000
;

//--------------- dance-single - eataninja ----------------
#NOTES:
     dance-single:
     eataninja:
     Easy:
     8:
     0,0,0,0,0:
0000
0000
0000
0000
,
0000
0000
0000
0000
,
0000
0000
0000
0000
,
0000
0000
0000
0000
,
0000
0000
0000
0000
,
0000
0000
0000
0000
,
0000
0000
0000
0000
,
1000
0100
0010
0001
,
0000
1000
1000
1010
,
0100
0100
0001
1000
,
0000
1100
0000
1100
,
0010
0010
0001
1000
,
0000
1010
0000
1010
,
0100
0100
0001
0010
,
0000
0011
0000
0011
,
0100
0100
1000
0001
,
0200
0000
0001
0301
,
0000
0000
0000
0000
,
0000
0000
0000
0000
,
1001
0000
0000
0000
,
0000
0000
0000
0000
,
1000
0000
0000
0100
0000
0000
1001
0000
,
0001
0000
0000
0100
0000
0000
1001
0000
,
1000
0000
0000
0010
0000
0000
1001
0000
,
0001
0000
0000
0010
0000
0000
1001
0000
,
2000
0000
0010
0000
0100
0100
3001
0000
,
0002
0000
0010
0000
0100
0100
1003
0000
,
1000
0100
0010
0010
,
0001
1000
0020
0230
,
0301
0100
0010
0010
,
1000
0001
0010
0200
,
1300
0001
0100
0100
,
0010
0100
0002
2003
,
3001
0010
0100
0100
,
1000
0001
1000
0010
,
0100
0100
0010
0000
,
0010
0001
0020
0000
,
0130
0100
0010
0010
,
1000
0001
0020
0000
,
1030
1000
0010
0010
,
0100
1000
0002
0000
,
0103
0100
1000
0100
,
0001
0010
0200
0000
,
1300
0000
0000
0001
0000
0000
1001
0000
,
0000
0000
0000
0000
,
0010
0000
0000
0100
0000
0000
0101
0000
,
0000
0000
0000
0000
,
0001
0000
0000
1000
0000
0000
1001
0000
,
0000
0000
0000
0000
,
0010
0000
0000
0100
0000
0000
1100
0000
,
0000
0000
0000
0000
,
1000
1000
0001
0001
,
0100
0100
0010
0010
,
1000
1000
0001
0001
,
0010
0010
0100
0100
,
1001
1000
1000
1000
,
0110
0010
0010
0010
,
1001
0000
0110
0000
,
1001
0000
0110
0010
,
2000
0000
0000
3000
,
0001
1000
0001
0001
,
0010
0100
2000
3002
,
1003
0001
1000
1000
,
0010
0100
0001
2000
,
3100
0001
0100
0100
,
1000
0001
1000
0010
,
0100
1000
0100
0100
,
0001
0010
0200
2300
,
3001
0100
0001
0001
,
1000
0010
0002
0023
,
1030
0001
1000
1000
,
0100
0010
0001
1000
,
0001
0100
0001
0001
,
1000
0010
0002
0013
,
0110
0000
1001
0000
,
0010
0100
1000
0001
,
0200
0000
0320
0000
,
1030
0001
1000
0000
,
0200
0000
0320
0000
,
0031
1000
0001
0000
,
1000
1000
0010
0010
,
0100
0100
0001
0001
,
0010
0100
0001
0100
,
1000
1001
0110
0000
;

//--------------- dance-single - eataninja ----------------
#NOTES:
     dance-single:
     eataninja:
     Medium:
     11:
     0,0,0,0,0:
0000
0000
0000
0000
,
0000
0000
0000
0000
,
0000
0000
0000
0000
,
0000
0000
0000
0000
,
0000
0000
0000
0000
,
0000
0000
0000
0000
,
0000
0000
0000
0000
,
1000
0010
1000
0000
0001
0010
0001
0000
,
1000
0010
0010
1001
,
0001
0001
0001
0000
0010
0000
0100
0000
,
0000
0110
0000
1001
,
1000
1000
1000
0000
0010
0000
1000
0000
,
0000
1001
0000
0110
,
0100
0100
0100
0000
0001
0000
1000
0000
,
0000
0110
0000
1001
,
1000
1000
1000
0000
0100
0000
0010
0000
,
0001
0000
1000
0000
0010
0100
0010
0100
,
0000
0000
0000
0000
,
0000
0000
0000
0000
0000
0000
0000
0100
,
0001
0000
0000
0000
,
0000
0000
0000
0000
0000
0000
0000
0001
,
1000
0000
0000
1000
0000
0100
0010
0000
,
0001
0000
0000
0001
0000
1000
0010
0000
,
1000
0000
0000
1000
0000
0010
0100
0000
,
0001
0000
0000
0001
0000
1000
0100
0000
,
0020
0000
1000
0000
0130
0100
1001
0000
,
0020
0000
0001
0000
0130
0100
1001
0000
,
1000
0010
1000
0000
0001
0100
0001
0000
,
1000
0100
0110
1001
,
0001
0100
0001
0000
1000
0010
1000
0000
,
0001
0010
1001
0101
,
1000
0001
1000
0000
0001
0010
0100
0000
,
1000
0001
0101
0101
,
1000
0001
1000
0000
0010
0100
0001
0000
,
1000
0100
0110
1100
,
0001
0001
1000
1000
,
0010
0100
0010
0100
0002
0000
0003
0000
,
1000
0010
1000
0010
,
0001
0010
0100
0000
0200
0000
0300
0000
,
0001
0000
0001
0010
0100
0000
0100
0000
,
1000
0001
1000
0001
0200
0000
0300
0000
,
0010
0000
0010
0000
0001
0010
1000
0000
,
0001
1000
0100
0000
0200
0000
0300
0000
,
1000
0001
0000
1000
0001
0000
1000
0001
,
0000
0000
0000
0000
,
0010
0100
0000
1000
0001
0000
0100
0010
,
0000
0000
0000
0000
,
1000
0001
0000
1000
0001
0000
1000
0001
,
0000
0000
0000
0000
,
0100
0010
0000
1000
0001
0000
0010
0100
,
0000
0000
0000
0000
,
1000
1000
0001
0001
,
0100
0010
1000
0000
1000
0010
0100
0000
,
0001
0001
1000
0100
,
0001
0100
1000
0000
0001
1000
0001
0000
,
1000
1000
1000
0000
0010
0000
0100
0000
,
1000
0100
0001
0000
1000
0000
1000
0000
,
0001
0010
0001
0000
1000
0100
1000
0000
,
0001
1000
0001
1000
0010
0100
0010
0000
,
0020
0000
0000
0030
,
0100
0010
0100
0000
0001
1000
0001
0000
,
0010
0100
1000
0000
1001
0000
1001
0000
,
0001
0010
0001
0000
1000
0100
0010
0000
,
0001
1000
0001
0000
0101
0000
0101
0000
,
1000
0001
0100
0000
0010
0100
0010
0000
,
1000
0001
0010
0000
0011
0000
0011
0000
,
1000
1000
0001
0001
,
0010
1000
0010
0000
0110
0000
1001
0000
,
1000
0010
0100
0000
0100
0001
1000
0000
,
0001
0010
0001
0010
0100
0000
0100
0000
,
0010
0001
1000
0000
1000
0001
1000
0000
,
0010
0100
0010
0100
0001
0000
0001
0000
,
1000
0100
1000
0000
1000
0001
0010
0000
,
0001
1000
0001
1000
0010
0000
0100
0000
,
0102
1003
2100
3001
,
0001
0010
0100
1000
0001
0000
1001
0000
,
1000
0010
0000
0010
0100
0000
0001
1000
,
0001
0010
1000
0010
,
0100
0010
0000
0010
0001
0000
1000
0001
,
1000
0010
0100
0100
,
1001
0000
0001
0100
0010
0100
0010
0000
,
1001
0000
1000
0100
0010
0100
0010
0000
,
0001
0001
0001
0000
1000
0010
0001
0000
,
0010
0100
0001
0000
0101
0000
0000
0000
;

//--------------- dance-single - eataninja ----------------
#NOTES:
     dance-single:
     eataninja:
     Hard:
     13:
     0,0,0,0,0:
0000
0000
0000
0000
,
0000
0000
0000
0000
,
0000
0000
0000
0000
,
0000
0000
0000
0000
,
0000
0000
0000
0000
,
0000
0000
0000
0000
,
0000
0000
0000
0000
,
1000
0010
1000
0010
0100
0001
0100
0001
,
0000
0010
0010
0010
0010
0000
0110
0000
,
1000
1000
0001
0010
2000
0000
3020
0000
,
0030
0110
1000
1001
,
0010
0010
0100
0010
0200
0000
0302
0000
,
0003
0000
1001
0000
1000
0100
1000
0000
,
0001
0001
0100
1000
0002
0000
0023
0000
,
0030
0100
0100
1001
,
1000
1000
0100
0010
0002
0000
0203
0000
,
0310
1000
0010
0000
0100
0001
0100
0001
,
0000
0000
0000
0000
,
0000
0000
0000
0000
0000
0000
0000
0001
,
1001
0000
0000
0000
,
0000
0000
0000
0000
0000
0000
0000
0000
0000
0000
0000
0000
0000
0000
0001
1000
,
0001
0000
0000
0010
0000
0100
1100
0000
,
1000
0000
0000
0010
0000
0100
0101
0001
,
1000
0000
0000
0001
0000
0100
0110
0000
,
0010
0000
0000
1000
0000
0001
1001
0010
,
0200
0000
0000
0000
1300
0000
0000
0000
0001
0001
1000
0010
0100
0000
1001
0000
,
0200
0000
0000
0000
0301
0000
0000
0000
1000
1000
0001
0010
0100
0000
1001
0000
,
1000
0001
1000
0001
1000
0010
1000
0010
,
0100
0001
0010
0100
2000
0000
3002
0000
,
1003
0010
1000
0010
0001
0010
0001
0010
,
0100
0001
1000
0001
0010
0000
0110
0000
,
0001
1000
0001
1000
0001
0010
0001
0010
,
0100
0100
0001
0100
2000
0000
3002
0000
,
1003
0010
1000
0010
0100
0001
0100
0001
,
0010
0100
0001
0100
1000
0000
1001
0000
,
1000
0000
0000
1000
0010
0000
0100
0000
0010
0000
0000
0000
0020
0000
0000
0000
,
1030
0100
0010
0001
0200
0000
0300
0000
,
1000
0100
1000
0100
0001
0100
0001
0100
,
0010
1000
0100
0000
0200
0000
0300
0000
,
0010
0000
0000
0010
0001
0000
0100
0000
0001
0000
0000
0000
0002
0000
0000
0000
,
1003
0010
0001
0010
2000
0000
3000
0000
,
1010
1000
0100
0000
0011
0001
0100
0000
,
1000
0100
0001
0000
0002
0000
0003
0000
,
1001
0000
0000
0101
0000
0000
0110
0000
,
0010
0010
1000
0000
0100
0010
0001
0000
,
0011
0000
0000
1001
0000
0000
1100
0000
,
1000
0001
0001
0000
1000
0001
0001
0000
,
0101
0000
0000
0110
0000
0000
1001
0000
,
1000
0000
0000
1000
0100
0000
0000
0100
0010
0000
0000
0010
0001
0000
0000
0000
,
0011
0000
0000
0110
0000
0000
1001
0000
,
1000
0000
1000
0010
0000
0000
0100
0010
0100
0002
0000
0000
,
1003
0100
1000
0100
0001
0100
0001
1000
,
0010
0001
0010
0001
1000
0010
0100
0000
,
0001
0100
0001
0100
1000
0100
1000
0001
,
0010
0100
0010
1000
0100
0010
0001
0000
,
1000
0100
1000
0100
0001
0100
0001
0100
,
0010
0001
0010
0001
1000
0010
1000
0010
,
0100
1000
0100
0001
0010
1000
0010
0001
,
1000
1000
0010
0010
0100
0100
0001
0000
,
0020
0000
0000
0030
,
0010
0100
0010
0100
1000
0001
1000
0010
,
0100
0100
0001
0010
0200
0000
2300
0000
,
3001
1000
0001
0001
1000
1000
0010
0100
,
1000
0100
0001
1000
0100
0000
0200
0000
,
0310
0001
0010
0001
0100
0100
0010
0100
,
0001
0001
1000
0100
0010
0000
0010
0000
,
0110
0100
1000
0000
1001
0001
0100
0000
,
0010
0100
0010
0100
0001
0001
1000
0000
,
0100
0001
0100
0010
0001
0001
1000
0010
,
0001
0010
1000
0001
1001
0000
0110
0000
,
0100
0010
0100
0010
1000
0000
1000
0001
,
0010
0010
0100
1000
1100
0000
0101
0000
,
1000
0001
1000
0010
0001
0001
0010
0100
,
0001
0010
0100
1000
1001
0000
1001
0000
,
0110
0100
0001
0000
1001
1000
0100
0000
,
0010
0001
0100
0010
1000
0000
2000
0000
,
3001
0010
0000
1000
0010
0000
0001
0010
,
0000
1000
0010
0000
0100
0100
0100
0000
,
1000
0010
0000
0001
0010
0000
1000
0010
,
0000
0001
0010
0000
0100
0100
0100
0000
,
0001
1000
0001
1000
0100
0001
0100
0001
,
1000
0001
1000
0001
0100
0010
0100
0010
,
0001
0001
1000
0010
0001
1000
0100
0001
,
1000
0100
0010
0000
0110
0000
0000
0000
;

//--------------- dance-single - eataninja ----------------
#NOTES:
     dance-single:
     eataninja:
     Challenge:
     15:
     0,0,0,0,0:
0000
0000
0000
0000
,
0000
0000
0000
0000
,
0000
0000
0000
0000
,
0000
0000
0000
0000
,
0000
0000
0000
0000
,
0000
0000
0000
0000
,
0000
0000
0000
0000
,
1000
0010
0100
0010
0001
0010
1000
0001
,
0000
0002
0010
0010
0013
0000
1001
0000
,
1000
1000
0010
0100
0101
0000
0011
0000
,
0010
0000
0100
0000
1000
0000
0000
0000
0010
0100
0010
0100
0002
0000
0000
0000
,
1003
1000
0010
0100
0110
0000
1001
0000
,
1000
0000
0010
0000
0100
0000
0001
0000
0010
0000
0100
0000
1000
0000
0001
1000
,
0001
0001
0100
0010
1010
0000
0101
0000
,
1000
0000
0001
0000
0010
0000
0000
0000
0010
0100
0010
0100
1000
0000
0000
0000
,
1001
1000
0100
0010
1001
0001
0100
0010
,
1000
0000
0010
0000
0001
0000
0010
0000
0100
0010
0100
0000
0001
0000
1000
0001
,
1000
0000
0000
0000
,
0000
0000
0000
0000
0000
0000
0000
1100
,
1001
0000
0000
0000
,
0000
0000
0000
0000
0000
0000
0000
0000
0000
0000
0000
0000
0000
0000
0001
0100
,
0010
0000
0100
0010
0000
0010
1010
0000
,
1000
0000
0100
0010
0000
0010
0011
1000
,
1000
0000
0010
0100
0000
0100
0101
0000
,
0001
0000
0000
0000
0010
0000
0100
0000
0000
0000
0100
0000
1100
0000
0001
1000
,
0002
0000
0000
0100
0103
0000
0101
0000
1000
1000
0001
0010
0110
0000
1001
0000
,
2000
0000
0000
0010
3010
0000
1010
0000
0001
0001
0010
0100
1000
0001
1000
0010
,
0100
0001
0100
0100
0010
0010
1000
0001
,
0010
1000
0001
0100
2000
0000
3200
0010
,
0310
0001
1000
0001
0100
1000
0100
0010
,
1000
0000
0100
0000
0001
0000
1000
0000
0010
0000
0000
0000
0010
0000
0100
0010
,
0100
1000
0001
0001
1000
0010
0001
0010
,
0100
0100
0001
0010
0200
0000
1300
0001
,
0101
0100
0010
1000
1001
0001
0010
0100
,
0001
1000
0010
0010
0001
0100
0010
0000
,
0010
0000
0100
0010
0100
0000
0001
0000
1000
0000
0000
0000
1002
0000
0000
0000
,
1003
0100
0001
0100
0020
0000
0000
0000
,
0031
0000
1000
0010
0100
0000
0001
0000
1000
0010
1000
0010
0100
0000
0001
0000
,
1000
0100
0001
0000
0200
0000
0000
0000
,
0310
0001
0010
0001
1000
0000
0010
0000
0100
0000
0000
0000
0210
0000
0000
0000
,
0301
0010
1000
0001
0200
0000
0000
0000
,
0310
0000
0001
0010
0001
0000
0100
0000
1000
0000
0100
0000
0010
0000
1000
0000
,
0001
0010
0100
0000
0200
0000
0300
0000
,
1001
0000
0000
1100
0000
0000
1001
0000
,
1000
0010
1000
0010
0100
0000
0001
0000
1000
0001
0010
0000
0100
0000
1000
0000
,
1001
0000
0000
0011
0000
0000
1001
0000
,
0001
1000
0010
0000
0010
0000
0100
0000
0001
1000
0100
0000
0100
0000
0010
0000
,
1001
0000
0000
1010
0000
0000
1001
0000
,
1000
0000
0001
0010
0001
0000
1000
0100
0010
0100
1000
0000
0010
0100
0001
0000
,
1001
0000
0000
0101
0000
0000
1001
0000
,
1000
0000
1000
0100
0000
0010
0001
1000
0001
0100
0000
0000
,
0001
0100
0001
0100
1000
0001
0010
1000
,
0100
0001
0100
0010
0001
1000
0010
0010
,
0100
0001
0010
1000
0010
0001
0100
1000
,
0001
1000
0100
0001
0010
0100
1000
0010
,
1001
0001
0010
0100
1000
0001
0100
0010
,
1001
0001
0100
0010
0100
0001
0010
0100
,
1001
0001
0100
0010
1001
1000
0010
0100
,
1001
0000
1000
0100
1000
0000
0001
0100
0010
0100
0010
0000
1000
0001
1000
0001
,
0020
0000
0000
0030
,
0010
0000
0001
0000
1000
0000
0010
1000
0010
0000
0100
0000
0001
0000
1000
0000
,
0100
0001
0100
0010
0001
1000
0010
0100
,
0100
0000
0001
0000
1000
0000
0100
0010
0001
0000
1000
0000
0010
0000
0100
0000
,
0001
0000
1000
0000
0100
0000
0001
0000
0100
0000
0010
0000
0001
0000
1000
0010
,
1000
0000
0001
0000
0100
0000
0010
0100
0001
0000
1000
0000
0001
0000
0001
0000
,
0010
1000
0010
0100
1000
0001
1000
0010
,
0110
0100
0001
1000
0110
0010
1000
0001
,
1000
0000
0100
0000
0001
0000
0100
0000
0010
0100
0010
0000
0001
0000
1000
0010
,
0100
0000
0001
0000
1000
0000
0100
0010
0100
0000
0010
0000
0001
0000
1000
0010
,
0100
0000
1000
0000
0100
0000
0001
1000
0001
0000
0010
0000
0100
0000
0100
0000
,
1000
0000
0001
0000
0100
0000
0010
0100
0001
0000
0010
0000
1000
0000
0010
0100
,
1000
0000
0001
0000
1000
0000
1000
0000
0010
0000
0001
0000
0010
0000
0100
0010
,
0100
0000
0001
0000
1000
0000
0100
0010
0001
0000
1000
0000
0001
0000
0100
0010
,
0100
1000
0100
0100
0001
1000
0001
0010
,
0110
0100
1000
0010
0110
0100
0001
0010
,
0100
0000
0001
0000
0100
0000
1000
0000
0001
1000
0001
0000
0010
0000
0100
1000
,
0002
0010
0000
2003
0100
0000
3002
0010
,
0000
2003
0100
0000
3001
0010
1000
0010
,
0002
0100
0000
2003
0010
0000
3002
0100
,
0000
2003
0010
3010
0100
0001
1000
0000
,
0001
0000
0001
0000
1000
0000
1000
0000
0100
0000
0100
0000
0010
0000
0100
0010
,
0100
0000
1000
0001
1000
0000
0010
0100
0010
0000
1000
0001
0010
0100
0010
0100
,
1000
2000
0010
3002
0100
1003
0010
0100
,
0001
0010
0100
0000
1001
0000
0000
0000
;
