#TITLE:Possession;
#SUBTITLE:;
#ARTIST:TAG Underground;
#TITLETRANSLIT:;
#SUBTITLETRANSLIT:;
#ARTISTTRANSLIT:;
#GENRE:;
#CREDIT:;
#MENUCOLOR:;
#METERTYPE:DDR X;
#BANNER:POSSESSION-banner.png;
#BACKGROUND:POSSESSION-bg.png;
#LYRICSPATH:;
#CDTITLE:;
#MUSIC:Possession.mp3;
#OFFSET:-0.364;
#SAMPLESTART:100.000;
#SAMPLELENGTH:12.000;
#SELECTABLE:YES;
#LISTSORT:;
#BPMS:0.000=370.000,128.000=185.000,159.000=370.000,287.000=185.000,316.000=370.000;
#STOPS:159.000=0.324
,315.000=0.973
;
#BGCHANGES:;
#ATTACKS:;

//---------------dance-single - ----------------
#NOTES:
     dance-single:
     :
     Hard:
     17:
     0.899,1.000,0.994,0.143,0.531:
0000
0000
0000
0000
,
0000
0000
0000
0000
,
0000
0000
0000
0000
,
0000
0000
0000
0000
,
0000
0000
0000
0000
,
0000
0000
0000
0000
,
0000
0000
0000
0000
,
0000
0000
0000
0000
,
0010
0001
1000
0010
,
0100
0010
1000
0100
,
0010
0001
0100
0010
,
0100
0001
1000
0100
,
1000
0010
0100
0001
,
0010
0100
1000
0001
,
1000
0100
0010
0100
,
1000
0010
0100
0010
,
1000
0001
0010
0100
,
1000
0100
1000
0100
,
0010
0100
1000
0010
,
0100
0001
0100
0001
,
0010
0100
1000
0100
,
0001
0100
1000
0100
,
0001
0100
0001
0100
,
0001
0100
1000
0010
,
1000
0010
0100
0001
,
0010
0100
1000
0010
,
0100
0001
0010
0100
,
1000
0010
0100
0001
,
0010
0001
0010
0001
,
1000
0010
1000
0010
,
0100
0001
0100
0001
,
1000
0100
1000
0100
,
0220
0000
0000
0000
,
0000
0000
0000
0000
0000
0000
0330
1000
,
0002
0000
0000
2000
0000
0000
0000
0000
,
0000
3003
0011
1100
,
1000
0000
1000
0000
0100
0000
0010
0100
0010
0100
0010
0000
0001
0000
0100
0010
,
0100
0000
0100
0000
0010
0000
1000
0100
1000
0100
1000
0000
0001
0000
1000
0100
,
1000
0001
0010
0101
0000
0010
1100
0000
,
0010
1001
0000
0100
0010
0100
0110
0000
,
1000
0000
0001
0000
0100
0010
0100
0000
,
0001
0000
1000
0100
1000
0000
0001
0100
,
0001
0000
0010
0000
0100
0010
0100
0000
,
1000
0000
0010
0000
0100
0000
0001
0010
,
0001
0000
1000
0000
0010
0100
0010
0000
,
0100
0000
0001
1000
0001
0000
0010
0100
,
0010
0000
0100
0000
1000
0010
1000
0000
,
0001
0000
0010
0000
0100
0000
0010
0001
,
0100
0000
0010
0000
0100
0001
0010
0000
,
0100
0000
0010
0001
0100
0000
0010
1000
,
0100
0000
0010
0000
0100
1000
0010
0000
,
1000
0000
0001
0000
0010
0000
0100
1000
,
0001
0000
0100
0000
0001
1000
0100
0000
,
0010
0000
0100
1000
0001
0000
0100
0001
,
1000
0000
0100
0000
1000
0010
0100
0000
,
0001
1000
0100
0011
,
0000
1100
0000
0000
0000
0101
0000
0000
0000
1010
0000
0000
,
0000
0101
0000
0000
0000
1100
0000
0000
0000
0011
0000
0000
,
0000
1001
0000
0000
0000
0101
0000
0000
0000
1010
0000
0000
,
0000
1001
0000
0000
0000
1100
0000
0000
0000
1010
0000
0000
,
0000
0101
0000
0000
0000
1100
0000
0000
0000
0011
0000
0000
,
0000
1100
0000
0000
0000
0101
0000
0000
0000
1010
0000
0000
,
0000
1001
0000
0000
0000
1100
0000
0000
0000
0011
0000
0000
,
0000
1001
0000
0000
0000
0101
0000
0000
0000
1010
0000
0000
,
0000
0011
0000
0000
0000
0101
0000
0000
0000
1100
0000
0000
,
0000
0101
0000
0000
0000
0011
0000
0000
0000
1010
0000
0000
,
0000
0101
0000
0000
0000
1100
0000
0000
0000
0011
0000
0000
,
0000
1100
0000
0000
0000
0101
0000
0000
0000
0011
0000
0000
,
0000
1010
0000
0000
0000
1100
0000
0000
0000
0101
0000
0000
,
0000
1100
0000
0000
0000
1010
0000
0000
0000
0011
0000
0000
,
0000
1100
0000
0000
0000
0101
0000
0000
0000
2002
0000
0000
,
0000
0000
3003
0002
,
1000
0000
1000
0023
,
0100
0000
0100
0032
,
0100
0000
0100
2003
,
0010
0000
0000
0000
0010
0000
3001
0010
,
0001
0010
0001
0100
0001
0100
0010
1000
,
0010
0000
1000
0000
0100
0000
1000
0000
0100
0000
1000
0000
0010
1000
0010
1000
,
0001
0100
0001
0100
0001
0010
0001
0010
0100
1000
0100
1000
0002
0000
0003
0000
,
0100
0010
0100
0000
1000
0000
0100
0010
,
0100
0000
1000
0000
0001
0100
0001
0000
,
1000
0100
1000
0000
0010
0000
0100
0010
,
0100
0001
0010
0100
,
1000
0010
1000
0000
0001
0000
0010
0100
,
0010
0000
0100
0000
1000
0001
1000
0000
,
0010
0100
0010
0000
0100
0000
0001
0010
,
0001
1000
0010
0100
,
0010
1000
0100
0000
0010
0000
0100
1000
,
0010
0000
0100
0000
0010
1000
0100
0000
,
0010
0001
0100
0000
0010
0000
0100
0001
,
0010
0001
1000
0010
,
0100
0001
1000
0000
0100
0000
1000
0001
,
0100
0000
0010
0000
0100
0001
1000
0000
,
0100
1000
0001
0000
0100
0000
0001
0010
,
0100
1000
0001
0100
,
0010
1000
0001
1000
0100
0000
0010
0001
,
0100
0000
0010
0000
1000
0100
1000
0000
,
0001
0010
0200
0000
1300
0000
0001
0100
,
0001
0000
1000
0100
1000
0000
0100
0000
,
0010
0001
1000
0001
0100
0000
0010
1000
,
0100
0000
0010
0000
0001
0100
0001
0000
,
1000
0010
0200
0000
0301
0000
1000
0100
,
1000
0000
0001
0100
0001
0000
0010
0000
,
0001
0100
0010
0100
0001
0000
1000
0010
,
0100
0000
0010
0000
1000
0100
0010
0000
,
0001
1000
0010
0000
0100
0000
0001
1000
,
0100
0000
0010
0100
0010
0000
0001
0000
,
1000
0010
0100
0010
1000
0000
0001
0010
,
0100
0000
0010
0000
0001
0100
0010
0000
,
1000
0001
0010
0000
0100
0000
1000
0001
,
0100
0010
1000
0100
0010
0001
0100
0000
,
1010
0000
0000
0000
0101
0000
0000
0000
1100
0000
0000
0000
,
0011
0000
0000
0000
1100
0000
0000
0000
0101
0000
0000
0000
,
1010
0000
0000
0000
1001
0000
0000
0000
1100
0000
0000
0000
,
0011
0000
0000
0000
1001
0000
0000
0000
0101
0000
0000
0000
,
0011
0000
0000
0000
1100
0000
0000
0000
0101
0000
0000
0000
,
1010
0000
0000
0000
0101
0000
0000
0000
1100
0000
0000
0000
,
0011
0000
0000
0000
1001
0000
0000
0000
0101
0000
0000
0000
,
1010
0000
0000
0000
1001
0000
0000
0000
1100
0000
0000
0000
,
0011
0000
0000
0000
1010
0000
0000
0000
1100
0000
0000
0000
,
0101
0000
0000
0000
1100
0000
0000
0000
1010
0000
0000
0000
,
0011
0000
0000
0000
1100
0000
0000
0000
0101
0000
0000
0000
,
1010
0000
0000
0000
0101
0000
0000
0000
1100
0000
0000
0000
,
1010
0000
0000
0000
0011
0000
0000
0000
0101
0000
0000
0000
,
1100
0000
0000
0000
0101
0000
0000
0000
0011
0000
0000
0000
,
1010
0000
0000
0000
0101
0000
0000
0000
1100
0000
0000
0000
,
0011
0000
0000
0000
1100
0000
0000
0000
0101
0000
0000
0000
,
0010
0000
0001
0000
0100
0000
0010
0000
0100
0000
0001
0000
,
0011
0000
0000
0000
1100
0000
0000
0000
0101
0000
0000
0000
,
0010
0000
1000
0000
0100
0000
0010
0000
0100
0000
1000
0000
,
1010
0000
0000
0000
0101
0000
0000
0000
1100
0000
0000
0000
,
0010
0000
0001
0000
0100
0000
0010
0000
0100
0000
0001
0000
,
0011
0000
0000
0000
1100
0000
0000
0000
0101
0000
0000
0000
,
0010
0000
1000
0000
0100
0000
0010
0000
0100
0000
1000
0000
,
1010
0000
0000
0000
0101
0000
0000
0000
1100
0000
0000
0000
,
1000
0000
0001
0000
0100
0000
0010
0000
0100
0000
0001
0000
,
1000
0000
0100
0000
0010
0000
0100
0000
1000
0000
0010
0000
,
1000
0000
0001
0000
0100
0000
0010
0000
0100
0000
0001
0000
,
1000
0000
0100
0000
0010
0000
0100
0000
1000
0000
0001
0000
,
0010
0000
0001
0000
0100
0000
0010
0000
0100
0000
0010
0000
,
1000
0000
0100
0000
0010
0000
0001
0000
0010
0000
0001
0000
,
1001
0000
0000
0000
1100
0000
0000
0000
0101
0000
0000
0000
,
0220
0000
0000
0330
,
2002
0000
0000
0000
,
0000
0000
0000
0000
,
0000
0000
0000
0000
,
0000
0000
0000
3003
;

//---------------dance-single - ----------------
#NOTES:
     dance-single:
     :
     Medium:
     14:
     0.744,0.989,0.876,0.211,0.388: // measure 1
0000
0000
0000
0000
,  // measure 2
0000
0000
0000
0000
,  // measure 3
0000
0000
0000
0000
,  // measure 4
0000
0000
0000
0000
,  // measure 5
0000
0000
0000
0000
,  // measure 6
0000
0000
0000
0000
,  // measure 7
0000
0000
0000
0000
,  // measure 8
0000
0000
0000
0000
,  // measure 9
0100
1000
0100
1000
,  // measure 10
0100
0010
0100
0010
,  // measure 11
0001
0010
0001
0010
,  // measure 12
0001
0100
0001
0100
,  // measure 13
0010
0100
0020
0030
,  // measure 14
0001
0100
0002
0003
,  // measure 15
1000
0001
2000
3000
,  // measure 16
0100
1000
0200
0300
,  // measure 17
0001
1000
0100
0010
,  // measure 18
0001
0010
0001
0000
,  // measure 19
0100
0010
0001
0100
,  // measure 20
0010
1000
0010
0000
,  // measure 21
0100
0010
0001
0100
,  // measure 22
0010
1000
0010
0000
,  // measure 23
1000
0010
1000
0001
,  // measure 24
0010
0001
1000
0000
,  // measure 25
0001
0100
0010
0000
,  // measure 26
1000
0100
0010
0000
,  // measure 27
0001
0100
0010
0000
,  // measure 28
1000
0100
0010
0000
,  // measure 29
0100
1000
0100
1000
,  // measure 30
0001
0100
0001
0100
,  // measure 31
0010
1000
0010
1000
,  // measure 32
0001
0010
0001
0000
,  // measure 33
0220
0000
0000
0000
,  // measure 34
0000
0000
0000
0000
0000
0000
0330
0001
,  // measure 35
2000
0000
0000
0002
0000
0000
0000
0000
,  // measure 36
0000
3003
0110
0110
,  // measure 37
0001
0001
0010
0100
0000
0100
1000
0000
,  // measure 38
0010
0010
0100
0001
0000
0001
1000
0001
,  // measure 39
0001
0000
1000
1100
0000
0001
0101
0000
,  // measure 40
1000
1001
0000
0010
0100
0010
0110
0000
,  // measure 41
0001
1000
0010
0100
,  // measure 42
0001
0010
0010
0001
,  // measure 43
1000
0000
0010
0000
0100
0010
0100
0000
,  // measure 44
0001
0100
0001
1000
,  // measure 45
0010
0100
0001
0100
,  // measure 46
0010
1000
1000
0100
,  // measure 47
0010
0000
0100
0000
0010
0001
0010
0000
,  // measure 48
0001
0100
0010
1000
,  // measure 49
0001
0010
0001
1000
,  // measure 50
0010
0100
0010
1000
,  // measure 51
0001
0000
0010
0000
0100
0010
0100
0000
,  // measure 52
0010
0001
1000
0100
,  // measure 53
1000
0001
0100
0001
,  // measure 54
1000
0010
1000
0100
,  // measure 55
1000
0000
0001
0000
0010
0100
0010
0000
,  // measure 56
0001
1000
0010
0100
,  // measure 57
0000
0001
0000
0000
0000
0101
0000
0000
0000
0010
0000
0000
,  // measure 58
0000
1000
0000
0000
0000
1010
0000
0000
0000
0001
0000
0000
,  // measure 59
0000
0010
0000
0000
0000
0011
0000
0000
0000
0100
0000
0000
,  // measure 60
0000
1000
0000
0000
0000
1100
0000
0000
0000
0010
0000
0000
,  // measure 61
0000
1000
0000
0000
0000
1010
0000
0000
0000
0001
0000
0000
,  // measure 62
0000
0010
0000
0000
0000
0011
0000
0000
0000
0100
0000
0000
,  // measure 63
0000
1000
0000
0000
0000
1100
0000
0000
0000
0001
0000
0000
,  // measure 64
0000
0100
0000
0000
0000
0101
0000
0000
0000
1100
0000
0000
,  // measure 65
0000
1100
0000
0000
0000
1100
0000
0000
0000
0011
0000
0000
,  // measure 66
0000
0011
0000
0000
0000
0011
0000
0000
0000
0101
0000
0000
,  // measure 67
0000
0101
0000
0000
0000
0101
0000
0000
0000
1010
0000
0000
,  // measure 68
0000
1010
0000
0000
0000
1010
0000
0000
0000
1100
0000
0000
,  // measure 69
0000
1100
0000
0000
0000
1100
0000
0000
0000
0101
0000
0000
,  // measure 70
0000
0101
0000
0000
0000
0101
0000
0000
0000
0110
0000
0000
,  // measure 71
0000
0110
0000
0000
0000
0110
0000
0000
0000
2002
0000
0000
,  // measure 72
0000
0000
3003
2000
,  // measure 73
0001
0000
0001
3200
,  // measure 74
0010
0000
0010
2300
,  // measure 75
0010
0000
0010
3002
,  // measure 76
0100
0000
0000
0000
0100
0000
1003
0100
,  // measure 77
1000
0000
1000
0010
1000
0000
0001
0010
,  // measure 78
0001
0000
0001
0100
0001
0000
1000
0100
,  // measure 79
0001
0100
1000
0010
0001
0010
2000
3000
,  // measure 80
0010
1000
0001
0010
,  // measure 81
0100
1000
0010
0010
,  // measure 82
1000
0000
0001
0000
0010
0000
0100
0010
,  // measure 83
0100
1000
0100
1000
,  // measure 84
0001
0010
0100
1000
,  // measure 85
0100
0010
0001
0001
,  // measure 86
0100
0000
0010
0000
0100
0000
0010
1000
,  // measure 87
0010
1000
0100
0010
,  // measure 88
0001
1000
0010
1000
,  // measure 89
0001
0010
0100
0010
,  // measure 90
0001
0000
1000
0000
0010
0000
0100
0010
,  // measure 91
0100
0010
1000
0001
,  // measure 92
0100
0001
1000
0100
,  // measure 93
1000
0001
0010
0001
,  // measure 94
0100
0000
0001
0000
1000
0000
0010
0100
,  // measure 95
0010
1000
0001
0010
,  // measure 96
0100
0010
0020
1030
,  // measure 97
0010
0020
0031
0010
,  // measure 98
0001
0000
1000
0000
0020
0000
0130
0010
,  // measure 99
0100
0010
1000
0100
,  // measure 100
1000
0010
0020
0031
,  // measure 101
0010
0020
1030
0010
,  // measure 102
1000
0000
0001
0000
0020
0000
0130
0010
,  // measure 103
0100
0010
0001
0100
,  // measure 104
0010
0100
0001
0100
,  // measure 105
1000
0000
0100
0000
0010
0000
1000
0100
,  // measure 106
1000
0100
0010
0100
,  // measure 107
0001
0000
0100
0000
0010
0000
0001
0100
,  // measure 108
0001
0000
0000
0000
0010
0000
1000
0100
,  // measure 109
1000
0000
0000
0000
0010
0000
0001
0010
,  // measure 110
0001
1000
0010
1000
,  // measure 111
0010
0100
0010
0000
,  // measure 112
0100
0000
0000
0000
1000
0000
0000
0000
1100
0000
0000
0000
,  // measure 113
0010
0000
0000
0000
0001
0000
0000
0000
0011
0000
0000
0000
,  // measure 114
1000
0000
0000
0000
0010
0000
0000
0000
1010
0000
0000
0000
,  // measure 115
0100
0000
0000
0000
0001
0000
0000
0000
0101
0000
0000
0000
,  // measure 116
0010
0000
0000
0000
0001
0000
0000
0000
0011
0000
0000
0000
,  // measure 117
1000
0000
0000
0000
0010
0000
0000
0000
1010
0000
0000
0000
,  // measure 118
0100
0000
0000
0000
0001
0000
0000
0000
0101
0000
0000
0000
,  // measure 119
1000
0000
0000
0000
0100
0000
0000
0000
1100
0000
0000
0000
,  // measure 120
0101
0000
0000
0000
0101
0000
0000
0000
0101
0000
0000
0000
,  // measure 121
1010
0000
0000
0000
1010
0000
0000
0000
1010
0000
0000
0000
,  // measure 122
1100
0000
0000
0000
1100
0000
0000
0000
1100
0000
0000
0000
,  // measure 123
0011
0000
0000
0000
0011
0000
0000
0000
0011
0000
0000
0000
,  // measure 124
0101
0000
0000
0000
0101
0000
0000
0000
0101
0000
0000
0000
,  // measure 125
1100
0000
0000
0000
1100
0000
0000
0000
1100
0000
0000
0000
,  // measure 126
0110
0000
0000
0000
0110
0000
0000
0000
0110
0000
0000
0000
,  // measure 127
1001
0000
0000
0000
1001
0000
0000
0000
1001
0000
0000
0000
,  // measure 128
0100
0000
0000
0000
0100
0000
0000
0000
0100
0000
0000
0000
,  // measure 129
1010
0000
0000
0000
0101
0000
0000
0000
1010
0000
0000
0000
,  // measure 130
0001
0000
0000
0000
0001
0000
0000
0000
0001
0000
0000
0000
,  // measure 131
1100
0000
0000
0000
0011
0000
0000
0000
1100
0000
0000
0000
,  // measure 132
0010
0000
0000
0000
0010
0000
0000
0000
0010
0000
0000
0000
,  // measure 133
0011
0000
0000
0000
1100
0000
0000
0000
0011
0000
0000
0000
,  // measure 134
0100
0000
0000
0000
0100
0000
0000
0000
0100
0000
0000
0000
,  // measure 135
0110
0000
0000
0000
1001
0000
0000
0000
0110
0000
0000
0000
,  // measure 136
1100
0000
0000
0000
0101
0000
0000
0000
1100
0000
0000
0000
,  // measure 137
0011
0000
0000
0000
1010
0000
0000
0000
0011
0000
0000
0000
,  // measure 138
0101
0000
0000
0000
0110
0000
0000
0000
0101
0000
0000
0000
,  // measure 139
1010
0000
0000
0000
0110
0000
0000
0000
1010
0000
0000
0000
,  // measure 140
1100
0000
0000
0000
0101
0000
0000
0000
0011
0000
0000
0000
,  // measure 141
0101
0000
0000
0000
1100
0000
0000
0000
1010
0000
0000
0000
,  // measure 142
1001
0000
0000
0000
0110
0000
0000
0000
1001
0000
0000
0000
,  // measure 143
0220
0000
0000
0330
,  // measure 144
2002
0000
0000
0000
,  // measure 145
0000
0000
0000
0000
,  // measure 146
0000
0000
0000
0000
,  // measure 147
0000
0000
0000
3003
;
