#TITLE:Chaos Effect;
#SUBTITLE:;
#ARTIST:D-construct;
#TITLETRANSLIT:;
#SUBTITLETRANSLIT:;
#ARTISTTRANSLIT:;
#CREDIT:;
#BANNER:;
#BACKGROUND:;
#LYRICSPATH:;
#CDTITLE:;
#MUSIC:Chaos Effect.mp3;
#OFFSET:-0.040;
#SAMPLESTART:30.572;
#SAMPLELENGTH:12.000;
#SELECTABLE:YES;
#BPMS:0.000=196.200,160.000=392.401,162.000=196.200,291.000=392.401,293.000=196.200;
#STOPS:160.000=4.280
,291.000=1.840
;
#BGCHANGES:;

//---------------dance-single - Excel----------------
#NOTES:
     dance-single:
     Excel:
     Hard:
     9:
     0.649,0.676,0.174,0.163,0.107:
0000
0000
0000
0000
,
0000
0000
0000
0000
,
0000
0000
0000
0000
,
0000
0000
0000
0000
,
1000
1000
1000
1000
,
1000
0000
1000
0000
1000
0000
1000
0001
,
0010
0010
0010
0010
,
0010
0010
0010
0010
,
0010
0001
0100
0000
0100
0010
1000
0000
,
1000
0001
1000
0002
1000
0000
1003
0000
,
0001
0010
0100
0000
0100
1000
0010
0000
,
0010
0100
0001
0200
0010
0000
0301
0000
,
0100
0010
1000
0000
1000
0001
0010
0000
,
0010
0001
0100
0020
1000
0000
0130
0000
,
0010
1000
0001
0000
0001
1000
0100
0000
,
0100
0100
0100
0100
0100
0000
1000
0000
,
0010
1000
0001
0000
0001
0100
0010
0000
,
0010
1000
0100
2000
0001
0000
3010
0000
,
1000
0010
0100
0000
0100
0010
1000
0000
,
1000
0100
0010
0200
0010
0000
0301
0000
,
0100
1000
0001
0000
0001
0010
0100
0000
,
0100
0010
0001
0200
0010
0000
0301
0000
,
0001
1000
0010
0010
1000
0001
0010
0010
,
0001
1000
0001
1000
0001
1000
0001
1000
,
0001
0000
0000
0100
0000
0000
0010
0000
0100
0000
0000
0010
0000
0000
1000
0000
,
0001
0000
0000
0100
0000
0000
0001
0000
0010
0000
0100
0000
0010
0000
0100
0000
,
0010
0000
0000
0100
0000
0000
1000
0000
0010
0000
0000
0100
0000
0000
0010
0000
,
1000
0000
0000
0001
0000
0000
0010
0000
0001
0000
0100
0000
0010
0000
1000
0000
,
0001
0000
0000
0100
0000
0000
0010
0000
0100
0000
0000
0010
0000
0000
1000
0000
,
0100
0000
0000
0010
0000
0000
0001
0000
1000
0000
0100
0000
0010
0000
0100
0000
,
1000
0000
0000
0001
0000
0000
1000
0000
0010
0000
0000
0100
0000
0000
0010
0000
,
1000
1000
1000
1000
1000
0000
0001
1000
,
0001
0100
0010
0000
0010
0100
0001
0000
,
0001
1000
0001
0010
0100
1000
0001
0100
,
0010
1000
0100
0000
0100
1000
0010
0000
,
0010
0100
0001
0100
0010
1000
0001
0010
,
0100
1000
0010
0000
0010
0100
0001
0000
,
0001
1000
0010
1000
0001
0010
0100
1000
,
0001
1000
0001
1000
0001
0001
0001
0001
,
1000
0100
1000
0100
1000
0100
1000
0100
,
2002
0000
0000
0000
0000
0000
3003
0000
0100
0010
0100
0010
0100
0000
0000
0000
,
1001
0010
1001
0010
,
1100
0100
1100
0001
,
0011
0100
0011
0001
,
0101
1000
0101
0010
,
1100
0001
0101
0010
,
1010
0100
0101
0010
,
0110
0001
0011
0100
,
1100
0010
0110
0002
,
1000
0100
0010
0010
,
0100
1000
0013
2000
,
0001
0010
0100
0010
,
0001
0100
3010
0020
,
0100
0001
0100
1000
,
0001
1000
0130
0200
,
0001
1000
0010
0001
,
1000
0000
0000
0000
0001
0000
0000
0000
0310
0000
0000
0000
0001
0000
0000
1000
,
0000
0000
0010
0000
0100
0000
0000
0000
0001
0000
1000
0000
0001
0000
0000
0010
,
0000
0000
0100
0000
1000
0000
0000
0000
0001
0000
1000
0000
0010
0000
0000
0100
,
0000
0001
0100
0000
0010
1000
0001
0010
,
0100
0000
1000
0000
0200
0000
0010
0000
0010
0000
0301
0000
0010
0000
0000
0001
,
0000
0000
0100
0000
0010
0000
0000
0000
1000
0000
0001
0000
1000
0000
0000
0010
,
0000
0000
0100
0000
0001
0000
0000
0000
1000
0000
0100
0000
1000
0000
0000
0001
,
0000
0100
0010
0000
0010
1000
0001
0010
,
0100
0010
0002
0100
0100
0013
0100
0010
,
1000
0001
1000
0000
1000
0001
0010
0001
,
0100
0010
1000
0000
1000
0100
1000
0010
,
0100
0010
1000
0000
0100
0010
0001
0100
,
1000
0100
0020
1000
1000
0130
1000
0010
,
0100
0001
0010
0000
0010
0100
1000
0100
,
0010
0001
0100
0000
0100
0010
0100
0010
,
1000
0001
0010
0000
0001
0010
0100
1000
,
0010
0100
0001
0010
0100
0010
0002
0000
,
0000
0000
0003
0000
1000
0001
1000
0001
1000
0000
0000
0000
0000
0000
0000
0000
;

//---------------dance-single - Excel----------------
#NOTES:
     dance-single:
     Excel:
     Challenge:
     11:
     0.884,0.976,0.980,0.327,0.424: // measure 1
0000
0000
0000
0000
,  // measure 2
0000
0000
0000
0000
,  // measure 3
0000
0000
0000
0000
,  // measure 4
0000
0000
0000
0000
,  // measure 5
1001
1001
1001
1001
,  // measure 6
1001
1001
1001
1001
,  // measure 7
0110
0110
0110
0110
,  // measure 8
0110
0110
0110
0110
,  // measure 9
0010
1000
0010
1000
0010
0000
0000
0000
1010
0000
0000
0000
1010
0000
0000
0000
,  // measure 10
1010
0000
0010
0000
0110
0000
0100
0000
0002
0000
0000
0000
1003
0000
1000
0100
,  // measure 11
1000
0000
1000
0100
1000
0000
0000
0000
1001
0000
0000
0000
0011
0000
0000
0000
,  // measure 12
0011
0010
0110
0100
2000
0100
0100
3100
,  // measure 13
1000
0100
0010
0001
1000
0000
0000
0000
1001
0000
0000
0000
0011
0000
0000
0000
,  // measure 14
0110
0000
0100
0000
1100
0000
1000
0000
0002
0000
0000
0000
0013
0000
0010
0100
,  // measure 15
0010
0000
0010
0100
0010
0000
0000
0000
1001
0000
0000
0000
0110
0000
0000
0000
,  // measure 16
0110
0010
0110
0100
0020
1000
1000
1030
,  // measure 17
1000
0100
1000
0100
1000
0000
0000
0000
1100
0000
0000
0000
0011
0000
0000
0000
,  // measure 18
0110
0000
0010
0000
0011
0000
0001
0000
0200
0000
0000
0000
0301
0000
0001
0100
,  // measure 19
0001
0000
0001
0100
0001
0000
0000
0000
1001
0000
0000
0000
1010
0000
0000
0000
,  // measure 20
1010
0010
0110
0100
0002
1000
1000
1003
,  // measure 21
0001
0010
0100
1000
0001
0000
0000
0000
1001
0000
0000
0000
1100
0000
0000
0000
,  // measure 22
1100
0000
0100
0000
0110
0000
0010
0000
0002
0000
0000
0000
0103
0000
0100
0010
,  // measure 23
0100
0000
0100
0010
0100
0000
0010
0000
0100
0000
0010
0000
0100
0000
0010
0000
,  // measure 24
0100
0001
0100
0001
0100
0001
0100
0001
0100
0010
0100
0010
0100
0010
0100
0010
,  // measure 25
0100
0000
0000
0010
0000
0000
0110
0000
0100
0000
0000
0010
0000
0000
0110
0000
,  // measure 26
0010
0000
0000
1000
0000
0000
1010
0000
1000
0000
0100
0000
0010
0000
0001
0000
,  // measure 27
1000
0000
0000
0100
0000
0000
0110
0000
0010
0000
0000
0001
0000
0000
0110
0000
,  // measure 28
0100
0000
0000
1000
0000
0000
1100
0000
1000
0000
0100
0000
0010
0000
0100
0000
,  // measure 29
1000
0000
0000
0100
0000
0000
1100
0000
0100
0000
0000
1000
0000
0000
1100
0000
,  // measure 30
1000
0000
0000
0001
0000
0000
0011
0000
0001
0000
0010
0000
0100
0000
1000
0000
,  // measure 31
0100
0000
0000
0010
0000
0000
0110
0000
0100
0000
0000
0010
0000
0000
0011
0000
,  // measure 32
0001
0000
0001
0000
0001
0000
0001
0000
0001
0000
0000
0000
1000
0001
1000
0001
,  // measure 33
1000
0100
1000
0100
2000
0000
0000
0000
3200
0000
0000
0000
0320
0000
0000
0000
,  // measure 34
0031
0100
0010
1000
0200
0000
0320
0000
,  // measure 35
0031
1000
0001
1000
0002
0000
0000
0000
2003
0000
0000
0000
3200
0000
0000
0000
,  // measure 36
0310
0001
0100
0010
2000
0100
3200
0010
,  // measure 37
0310
0001
0010
0001
0020
0000
0000
0000
0230
0000
0000
0000
2300
0000
0000
0000
,  // measure 38
3001
0000
0100
0000
0010
0000
1000
0000
0200
0000
0000
0000
2300
0000
3001
0100
,  // measure 39
0001
0000
0001
0100
0001
0000
1000
0000
0001
0000
0100
0000
0010
0000
1000
0000
,  // measure 40
0001
0100
0001
0100
0001
0100
0001
0100
0001
0100
0001
0100
0001
0100
0001
0100
,  // measure 41
0002
0000
0000
0000
0000
0000
0003
0000
0001
0100
0001
0100
0001
0000
0000
0000
,  // measure 42
0101
0110
1010
0110
,  // measure 43
0101
0000
0000
0000
0110
0000
0000
0000
0110
0000
0010
1000
0010
0000
1000
0010
,  // measure 44
1000
0110
0101
0110
,  // measure 45
1010
0000
0000
0000
1100
0000
0000
0000
1000
0100
0010
0100
1000
0000
0000
0000
,  // measure 46
1001
1100
0110
1100
,  // measure 47
0110
0000
0000
0000
0011
0000
0000
0000
0110
0000
0010
0001
0010
0000
0001
0010
,  // measure 48
0001
0110
1100
0110
,  // measure 49
0011
0110
1100
2100
,  // measure 50
0010
00M0
0001
000M
0010
00M0
0010
00M0
,  // measure 51
0001
000M
0001
000M
0010
30M0
0102
M000
,  // measure 52
1000
M000
0010
00M0
1000
M000
0010
00M0
,  // measure 53
0010
00M0
1000
M000
1000
M003
2100
000M
,  // measure 54
0001
000M
0001
000M
0001
000M
0010
00M0
,  // measure 55
0010
00M0
0010
00M0
0010
30M0
0102
M000
,  // measure 56
0010
00M0
1000
M000
2000
00M0
0020
0M00
,  // measure 57
0000
0000
0M00
0000
0000
0000
0M00
0000
3030
0000
MMM3
0000
0001
0000
0000
1001
,  // measure 58
0000
0000
0001
0000
0101
0000
0000
0000
0001
0000
0100
0000
0001
0000
0000
1001
,  // measure 59
0000
0000
0100
0000
1001
0000
0000
0000
0100
0000
0010
0000
1000
0000
0000
1001
,  // measure 60
0000
1000
1100
0000
1000
0100
1000
0100
,  // measure 61
0010
0000
0001
0000
0020
0000
0001
0000
0001
0000
0130
0000
0010
0000
0000
0110
,  // measure 62
0000
0000
0010
0000
0011
0000
0000
0000
0010
0000
0100
0000
0010
0000
0000
1010
,  // measure 63
0000
0000
0100
0000
0110
0000
0000
0000
0010
0000
0001
0000
0100
0000
0000
0101
,  // measure 64
0000
0100
0110
0000
0100
0001
0010
0100
,  // measure 65
1000
0100
0200
0010
0010
1300
0100
0010
,  // measure 66
0001
0010
0100
1000
0010
1000
0001
0010
,  // measure 67
1000
0000
0010
0000
0100
0000
1000
0000
0010
0000
0100
0001
0100
0000
0100
0001
,  // measure 68
0100
0100
0001
0010
0100
0010
0001
1000
,  // measure 69
0010
0000
0100
0000
0010
1000
0010
0000
1000
0010
1000
0000
0100
0000
1000
0000
,  // measure 70
0010
1000
0100
0010
0001
0010
0100
1000
,  // measure 71
0001
0000
0100
0000
0010
0000
0100
0000
0001
0000
0010
0100
0010
0000
0010
0100
,  // measure 72
0010
0000
0100
0000
0010
0000
0001
0000
0100
0000
0001
0000
0001
0100
0001
0100
,  // measure 73
0001
0100
0001
0100
0001
1000
0001
1000
0001
1000
0001
1000
0002
0000
0000
0000
,  // measure 74
0000
0000
0003
0000
0001
0100
0001
0100
0001
0000
0000
0000
0000
0000
0000
0000
;

//---------------dance-single - Excel----------------
#NOTES:
     dance-single:
     Excel:
     Easy:
     4:
     0.306,0.338,0.051,0.082,0.000:
0000
0000
0000
0000
,
0000
0000
0000
0000
,
0000
0000
0000
0000
,
0000
0000
0000
0000
,
1001
0000
1000
0000
,
0001
0000
1000
0000
,
1001
0000
0001
0000
,
1000
0000
0001
0000
,
1000
0000
0100
0000
,
1000
0000
0001
0000
,
1000
0000
0010
0000
,
0100
0100
0100
0000
,
0001
0000
1000
0000
,
0001
0000
0010
0000
,
0100
0000
0010
0000
,
0100
0100
0100
0000
,
1000
0000
0100
0000
,
0010
0000
0100
0000
,
1000
0000
0001
0000
,
1000
0010
0100
0000
,
0001
0000
0010
0000
,
0100
0000
1000
0000
,
0001
1000
0001
1000
,
0002
0000
0000
0000
,
1003
0100
1000
0100
,
1000
0100
1000
0000
,
0001
0100
0001
0100
,
0001
0100
0002
0000
,
1003
0010
1000
0010
,
1000
0010
1000
0000
,
0001
0010
0001
0010
,
0001
0001
0001
0000
,
1000
0100
0010
0001
,
0010
0100
1000
0000
,
0001
0100
0010
1000
,
0010
0010
0100
0000
,
0001
0100
0010
1000
,
0001
0010
0100
0000
,
1000
1000
0001
0001
,
2000
0000
0002
0003
,
3001
0000
0000
1000
,
0000
0100
0000
0010
,
0000
0100
0000
1000
,
0000
0001
0000
0100
,
0000
0010
0000
1000
,
0000
0001
0000
0010
,
0000
0100
0000
0010
,
0000
0001
0000
1000
,
0000
0001
0000
1001
,
1000
0001
1000
0001
,
1000
0001
0000
0001
,
1000
0001
1000
0001
,
1000
0001
0000
1001
,
0001
1000
0001
1000
,
0001
1000
0000
0001
,
1000
0001
1000
0002
,
0000
0000
0000
1003
,
0100
0010
0000
0001
,
0100
0010
0000
1000
,
0001
0100
0000
0001
,
0001
0001
0000
1000
,
0010
0100
0000
0001
,
0010
0100
0000
1000
,
0100
0010
0000
0100
,
0100
0100
0000
1000
,
1000
0001
0001
1000
,
1000
0001
0001
1000
,
1000
0010
0010
0100
,
0100
0002
0000
1003
,
0100
0010
0001
0010
,
0100
1000
0001
0100
,
0010
1000
0010
0200
,
0000
0020
0300
1030
,
0000
0000
1001
0000
;

//---------------dance-single - Excel----------------
#NOTES:
     dance-single:
     Excel:
     Beginner:
     2:
     0.136,0.225,0.051,0.000,0.000:
0000
0000
0000
0000
,
0000
0000
0000
0000
,
0000
0000
0000
0000
,
0000
0000
0000
0000
,
1001
0000
0000
0000
,
0000
0000
0000
0000
,
1001
0000
0000
0000
,
0000
0000
0000
0000
,
1000
0000
0000
0000
,
0100
0000
0000
0000
,
0010
0000
0000
0000
,
1000
0000
0000
0000
,
0010
0000
0000
0000
,
0100
0000
0000
0000
,
1000
0000
0000
0000
,
0001
0000
0000
0000
,
0100
0000
0000
0000
,
0010
0000
0000
0000
,
1000
0000
0000
0000
,
0001
0000
0000
0000
,
0010
0000
0000
0000
,
0100
0000
0000
0000
,
1000
0000
0000
0000
,
0100
0000
0000
0000
,
1000
0000
0000
0000
,
0010
0000
0000
0000
,
0100
0000
0000
0000
,
0010
0000
0000
0000
,
0010
0000
0000
0000
,
0010
0000
0000
0000
,
1000
0000
0000
0000
,
0001
0000
0000
0000
,
1000
0000
0000
0000
,
0100
0000
0000
0000
,
1000
0000
0000
0000
,
0001
0000
0000
0000
,
0100
0000
0000
0000
,
0010
0000
0000
0000
,
1000
0000
0000
0000
,
0001
0000
0000
0000
,
1001
0000
0000
1000
,
0000
0000
0000
0100
,
0000
0000
0000
1000
,
0000
0000
0000
0010
,
0000
0000
0000
0100
,
0000
0000
0000
0001
,
0000
0000
0000
1000
,
0000
0000
0000
0001
,
0000
0000
0000
0010
,
0000
0000
0000
0100
,
0000
0000
0000
1000
,
0000
0000
0000
0001
,
0000
0000
0000
0100
,
0000
0000
0000
0010
,
0000
0000
0000
1000
,
0000
0000
0000
1001
,
0000
0000
0000
1000
,
0000
0100
0000
1000
,
0000
0010
0000
0100
,
0000
0001
0000
1000
,
0000
0010
0000
0100
,
0000
0001
0000
0010
,
0000
0100
0000
1000
,
0000
1000
0000
1000
,
1000
1000
0000
0001
,
0000
0010
0000
0100
,
0000
1000
0000
0001
,
0000
1000
0000
0010
,
0000
0100
0000
0010
,
0000
1000
0000
0001
,
0000
0010
0000
0100
,
0000
1000
0000
0001
,
0001
1000
1000
0001
,
0000
0000
1001
0000
;

//---------------dance-single - Excel----------------
#NOTES:
     dance-single:
     Excel:
     Medium:
     7:
     0.522,0.563,0.194,0.174,0.000:
0000
0000
0000
0000
,
0000
0000
0000
0000
,
0000
0000
0000
0000
,
0000
0000
0000
0000
,
1001
1000
0001
1000
,
0001
1000
0001
1000
,
1001
0001
1000
0001
,
1000
0001
1000
0001
,
1000
0100
0010
0000
0001
0000
0010
0000
,
0100
1000
0010
1000
0100
0000
1000
0000
,
0010
0100
0001
0000
1000
0000
0001
0000
,
1000
0100
1000
0000
2002
0000
3003
0000
,
1000
0001
0100
0000
0010
0000
1000
0000
,
0001
0010
0100
0010
0001
0000
0100
0000
,
0010
1000
0001
0000
0010
0000
0100
0000
,
1000
0001
0100
0000
2002
0000
3003
0000
,
1000
0100
0010
0000
0100
0000
1000
0000
,
0001
0100
0010
0100
0001
0000
1000
0000
,
0010
0100
0001
0000
0010
0000
0100
0000
,
1000
0001
0100
0000
2002
0000
3003
0000
,
0001
0010
0100
0000
1000
0000
0100
0000
,
1000
0100
0010
0100
1000
0000
0001
0000
,
1000
0100
1000
0000
1000
0100
1000
0000
,
2200
3300
0022
0033
,
1000
0001
0010
0100
,
1000
0000
0100
0000
0010
0000
0001
0010
,
0100
1000
0100
0010
,
0001
0000
0010
0000
0100
0000
1000
0100
,
0010
0100
1000
0010
,
0100
0000
0001
0000
0100
0000
0001
0100
,
0010
1000
0010
0100
,
0001
1000
0001
1000
0001
0000
0000
0000
,
1000
0100
0010
0000
0001
0000
0010
0000
,
0100
1000
0001
0000
1000
0000
0010
0000
,
0100
0001
1000
0000
0010
0000
0100
0000
,
0001
1000
0010
0000
1000
0001
0100
0000
,
0001
0100
0010
0000
1000
0000
0010
0000
,
1000
0100
0010
0000
0001
0000
1000
0000
,
0001
1000
0001
1000
0001
1000
0001
1000
,
0002
0000
0000
0000
,
1003
0000
1001
1001
,
1000
0100
0010
0100
,
1000
0001
1000
1001
,
0001
0100
0010
0100
,
0001
1000
0001
1001
,
1000
0100
0010
0100
,
1000
0001
1000
1001
,
0001
0100
0010
0100
,
0001
1000
0001
1001
,
1000
0001
1000
0001
,
1000
0001
1000
1001
,
0001
1000
0001
1000
,
0001
1000
0001
1001
,
1000
0001
1000
0001
,
1000
0001
1000
1001
,
0001
1000
0001
2002
,
0000
0000
3000
1003
,
0100
0010
0001
0000
0010
0000
0100
0000
,
1000
0100
0010
0000
0001
0000
0010
0000
,
0100
1000
0100
0000
1000
0000
0001
1000
,
0001
1000
0002
0000
0000
0000
1003
0000
,
0100
0010
0001
0000
0010
0000
0100
0000
,
1000
0001
0100
0000
0010
0000
1000
0000
,
0001
1000
0010
0000
1000
0000
0001
1000
,
0001
1000
0002
0000
0000
0000
1003
0100
,
1000
0100
1000
0000
0001
0000
1000
0100
,
1000
0100
1000
0000
0001
0000
1000
0010
,
1000
0010
1000
0000
0001
0000
1000
0100
,
0010
0001
2000
0000
0000
0000
3001
0100
,
0001
0100
0001
0000
1000
0000
0001
0100
,
0001
0100
0001
0000
1000
0000
0001
1000
,
0001
0000
1000
0001
1000
0000
1000
0100
,
0010
0001
2000
0000
0000
0000
3000
0000
,
0000
1001
1001
0000
;
