#TITLE:Break;
#SUBTITLE:;
#ARTIST:Renard;
#TITLETRANSLIT:;
#SUBTITLETRANSLIT:;
#ARTISTTRANSLIT:;
#CREDIT:;
#BANNER:;
#BACKGROUND:;
#LYRICSPATH:;
#CDTITLE:;
#MUSIC:Break.mp3;
#OFFSET:0.070;
#SAMPLESTART:15.347;
#SAMPLELENGTH:16.240;
#SELECTABLE:YES;
#BPMS:0.000=260.001;
#STOPS:180.000=3.240
;
#BGCHANGES:;

//---------------dance-single - Excellion----------------
#NOTES:
     dance-single:
     Excellion:
     Challenge:
     10:
     0.906,1.000,1.000,0.146,0.000: // measure 1
0000
0000
0000
0000
,  // measure 2
0000
0000
0000
0000
,  // measure 3
0000
0000
0000
0000
,  // measure 4
0000
0000
0000
0000
,  // measure 5
0000
0000
0000
0000
,  // measure 6
0000
0000
0000
0000
,  // measure 7
0000
0000
0000
0000
,  // measure 8
0000
0000
0000
0000
,  // measure 9
0000
0000
0000
0000
,  // measure 10
1000
0100
1000
0100
0000
1000
0000
0010
,  // measure 11
0000
0100
0000
0001
0000
0010
0001
0010
,  // measure 12
0001
0100
0001
0100
0000
0001
0000
0010
,  // measure 13
0000
0100
0000
1000
0000
0010
1000
0100
,  // measure 14
1000
0010
1000
0010
0000
1000
0000
0100
,  // measure 15
0000
0010
0000
0001
0000
0010
0001
0100
,  // measure 16
0001
0010
0001
0010
0000
0001
0000
0100
,  // measure 17
0000
0010
1000
0010
1010
0000
0000
0000
,  // measure 18
1001
0000
1001
0000
1000
0001
0100
0001
,  // measure 19
0101
0000
0101
0000
0101
0000
0001
1000
,  // measure 20
1100
0000
1000
0100
1100
0000
1100
0000
,  // measure 21
1100
0000
1000
0100
0010
0000
0011
0000
,  // measure 22
1001
0000
1000
0000
0100
0000
1000
0100
,  // measure 23
0010
0001
1000
0000
1001
0000
0001
0100
,  // measure 24
0001
0000
0100
0010
0000
0000
1000
0010
,  // measure 25
1000
0100
1000
0001
2000
3001
2000
3100
,  // measure 26
1100
0000
1100
0000
1000
0100
0010
0001
,  // measure 27
1001
0000
1001
0000
1000
0001
0100
0010
,  // measure 28
1010
0000
1100
0000
0000
0001
0100
0010
,  // measure 29
0100
0010
1000
0000
1001
0000
1001
0000
,  // measure 30
0000
1000
0100
0000
1000
0100
1000
0100
,  // measure 31
1000
0000
0001
0000
1000
0100
1000
0000
,  // measure 32
1100
0000
1100
0000
0000
1000
0100
0000
,  // measure 33
1000
0100
0010
0000
1001
0000
0000
0000
,  // measure 34
1000
0100
1000
0200
0000
1000
0000
1000
,  // measure 35
0000
0010
0000
0310
0000
0010
0001
0010
,  // measure 36
0001
0100
0001
0200
0000
0001
0000
0001
,  // measure 37
0000
0010
0000
0310
0000
0010
1000
0100
,  // measure 38
1000
0010
1000
0020
0000
1000
0000
0100
,  // measure 39
0000
1000
0000
0130
0000
1000
0001
0100
,  // measure 40
0001
0010
0001
0020
0000
0001
0000
0100
,  // measure 41
0000
0001
0000
0130
0000
0001
1000
0100
,  // measure 42
1000
0010
1000
0010
0000
1010
0000
1100
,  // measure 43
0000
0110
0000
1001
0000
0100
0001
0100
,  // measure 44
0001
0010
0001
0010
0000
0011
0000
0101
,  // measure 45
0000
1010
0000
1100
0000
0100
1000
0010
,  // measure 46
1M1M
1111
1001
1001
,  // measure 47
1000
0100
0010
0001
1000
0000
1001
0000
,  // measure 48
0001
0100
0101
0101
,  // measure 49
0110
0110
1010
1010
,  // measure 50
1100
1100
1001
1001
,  // measure 51
1000
0100
0010
0001
1000
0000
1001
0000
,  // measure 52
0001
0100
0101
0101
,  // measure 53
0110
0110
1010
1010
,  // measure 54
2000
3100
2000
3100
1001
0000
1001
0000
,  // measure 55
0001
0100
0010
1000
0001
0000
1001
0000
,  // measure 56
1000
0100
1100
1100
,  // measure 57
0110
0110
0011
0011
,  // measure 58
0101
0101
1001
1001
,  // measure 59
0001
0100
0010
1000
0001
0000
1001
0000
,  // measure 60
1000
0100
1100
1100
,  // measure 61
0110
0110
2000
0200
,  // measure 62
0001
0000
3300
0000
1000
0100
0001
0100
,  // measure 63
0000
1000
0000
0010
0000
0001
0000
0010
,  // measure 64
0000
0010
1000
0010
1000
0100
0001
0100
,  // measure 65
0000
1000
0000
0100
0000
0001
0000
0100
,  // measure 66
0000
0100
1000
0100
1000
0010
0001
0010
,  // measure 67
0000
1000
0000
0010
0000
0001
0000
0010
,  // measure 68
0000
0010
1000
0100
1000
0010
0001
0010
,  // measure 69
0000
1000
0000
0100
0000
0010
0000
0010
,  // measure 70
0001
0100
0001
0010
0001
0100
1000
0100
,  // measure 71
0000
1100
0000
0110
0000
1001
0000
0101
,  // measure 72
0000
0100
0001
0100
0001
0010
1000
0010
,  // measure 73
0000
0011
0000
0110
0000
1100
0000
1010
,  // measure 74
0000
0010
1000
0100
1000
0100
0000
0100
,  // measure 75
0010
0000
0010
0001
0000
0001
1000
0001
,  // measure 76
0101
1001
1000
0100
,  // measure 77
0010
0000
0001
1000
0000
0000
0000
0000
,  // measure 78
0001
1000
0001
1000
1001
0000
1001
0000
,  // measure 79
0101
0101
0110
0110
,  // measure 80
1010
0000
1000
0001
1001
0000
1001
0000
,  // measure 81
1100
1100
0110
0110
,  // measure 82
0011
0000
0001
1000
1001
0000
1001
0000
,  // measure 83
0101
0101
0110
0110
,  // measure 84
1010
0000
1000
0001
1001
0000
1001
0000
,  // measure 85
1100
1100
0110
0110
,  // measure 86
0002
0013
0002
0013
0001
0010
0100
1000
,  // measure 87
0001
0100
0010
1000
0001
0010
0100
1000
,  // measure 88
0001
0100
0010
1000
0001
1000
0010
0100
,  // measure 89
0001
1000
0100
0010
0001
1000
0010
0100
,  // measure 90
0001
1000
0100
0010
0001
0010
0001
0010
,  // measure 91
0100
1000
0100
1000
0001
0100
0001
0100
,  // measure 92
0010
1000
0010
1000
0001
0010
0100
0010
,  // measure 93
0001
0100
0010
0100
0001
0010
0100
0010
,  // measure 94
0001
0100
0010
0100
0001
1000
0000
1000
,  // measure 95
0100
0010
0001
0000
0001
0100
0000
0100
,  // measure 96
0010
1000
0100
0000
0100
0010
0000
0010
,  // measure 97
0001
1000
0010
0000
0010
0100
0000
0100
,  // measure 98
0001
1000
0001
0000
2002
0000
3003
0000
;

//---------------dance-single - Excel----------------
#NOTES:
     dance-single:
     Excel:
     Hard:
     9:
     0.719,0.863,0.594,0.062,0.000:
0000
0000
0000
0000
,
0000
0000
0000
0000
,
0000
0000
0000
0000
,
0000
0000
0000
0000
,
0000
0000
0000
0000
,
0000
0000
0000
0000
,
0000
0000
0000
0000
,
0000
0000
0000
0000
,
0000
0000
0000
0000
,
1000
0100
1000
0100
0000
1000
0000
0100
,
0000
1000
0000
0100
0000
0100
1000
0100
,
1000
0010
1000
0010
0000
1000
0000
0010
,
0000
1000
0000
0010
0000
0010
1000
0010
,
1000
0001
1000
0001
0000
1000
0000
0001
,
0000
1000
0000
0001
0000
0100
0001
0100
,
0001
1000
0001
1000
0000
0001
0000
1000
,
0000
0010
1000
0010
1000
0000
0000
0000
,
1000
0100
0010
0001
,
0012
0010
0103
0001
,
1000
0010
0100
0001
,
0102
0100
0013
1000
,
1001
0000
1000
0000
0100
0000
1000
0001
,
1000
0001
1001
0000
1000
0000
0001
0000
,
0100
0010
1001
0001
,
0100
0000
0010
0000
1000
0100
1000
0100
,
1000
0100
0010
0001
,
1000
0001
1000
0000
0100
0010
0100
0000
,
1000
0010
0100
0001
,
1000
0001
1000
0000
0010
0100
0010
0000
,
1001
1000
0100
1000
,
1100
1000
0001
0100
,
0110
0010
1000
0001
,
1001
1001
1001
0000
,
1000
0100
1000
0100
0000
0000
0000
0001
,
0000
1000
1100
0000
,
0001
0100
0001
0100
0000
0000
0000
0001
,
0000
1000
1010
0000
,
1000
0100
0010
0001
0000
0000
0000
0001
,
0000
0100
0110
0000
,
1000
0001
0100
0010
0000
0000
0000
1000
,
0000
0000
1000
0000
0001
1000
0001
1000
,
0001
0100
0001
0100
0000
0000
0000
0001
,
0000
0100
0110
0000
,
1000
0100
1000
0100
0000
0000
0000
1000
,
0000
0001
1001
0000
,
2002
3003
1001
1001
,
1100
1100
1001
1001
,
0101
0101
0100
0010
,
1000
0010
0100
0010
,
1000
0100
1001
1001
,
0101
0101
1001
1001
,
1100
1100
0100
0010
,
0001
0010
0100
0010
,
0001
1000
0001
1000
1001
0000
1001
0000
,
0110
0110
1100
0110
,
0101
0110
0100
0010
,
0001
0010
0100
0010
,
0001
0010
1001
1001
,
0110
0110
1010
1001
,
1100
0110
0001
0010
,
0100
1000
1100
1010
,
1001
0000
0000
0000
1000
0100
1000
0100
,
0000
1000
0000
0100
0000
1000
0000
0100
,
0000
0100
1000
0100
1000
0010
1000
0010
,
0000
1000
0000
0010
0000
1000
0000
0010
,
0000
0010
1000
0010
1000
0001
1000
0001
,
0000
1000
0000
0001
0000
1000
0000
0001
,
0000
0100
0001
0100
0001
1000
0001
1000
,
0000
0001
0000
1000
0000
0010
0000
1000
,
0000
0010
1000
0010
1000
0100
1000
0100
,
0000
1000
0000
0001
0000
0010
0000
0100
,
0000
1000
0010
0100
0010
1000
0001
0010
,
0000
0100
0000
1000
0000
0001
0000
0100
,
0000
0001
1000
0001
1000
0001
0000
0001
,
1000
0000
1000
0001
0000
0001
1000
0001
,
1000
0001
1000
0001
,
1000
0000
0001
1000
0000
0000
0000
0000
,
0001
1000
0001
1000
0001
0000
0100
0000
,
0110
1000
0001
0010
,
0100
1000
0001
0100
,
0110
1000
0001
0010
,
0100
1000
0001
0100
,
0110
0100
0001
0100
,
0010
0100
0001
0010
,
0110
0010
0001
1000
,
0002
0013
0200
1300
0001
0010
0001
0010
,
0001
0100
0001
0100
0001
0010
0001
0010
,
0001
0100
0001
0100
0010
1000
0010
1000
,
0100
1000
0100
1000
0010
1000
0010
1000
,
0100
1000
0100
1000
0001
0010
0001
1000
,
0001
0100
0001
1000
0001
0010
0001
1000
,
0001
0100
0001
1000
0010
0100
0010
1000
,
0100
0010
0100
1000
0010
0100
0010
1000
,
0100
0010
0100
1000
0001
0000
0000
1000
,
0000
0001
0000
1000
,
0010
0000
0000
0000
1000
0000
0000
0100
,
0000
0010
0000
0001
,
1000
0000
0110
0000
;

//---------------dance-single - Excel----------------
#NOTES:
     dance-single:
     Excel:
     Medium:
     6:
     0.504,0.660,0.354,0.042,0.000:
0000
0000
0000
0000
,
0000
0000
0000
0000
,
0000
0000
0000
0000
,
0000
0000
0000
0000
,
0000
0000
0000
0000
,
0000
0000
0000
0000
,
0000
0000
0000
0000
,
0000
0000
0000
0000
,
0000
0000
0000
0000
,
1000
0100
1100
0000
,
0001
0100
0101
0000
,
1000
0010
1010
0000
,
0001
0010
0011
0000
,
1000
0100
0011
0000
,
0001
0100
1010
0000
,
1000
0010
0101
0000
,
1001
0000
1001
0000
,
1000
0100
0010
0100
,
1000
0100
0001
0100
,
1000
0010
0100
0001
,
0100
1000
0100
0001
,
0010
0100
1000
0100
,
0010
1000
0010
0001
,
0100
0010
1000
0010
,
0001
0000
0010
0000
0100
0001
0100
0001
,
1001
0001
0100
0010
,
1010
0010
0100
0000
,
0101
0100
0010
1000
,
1010
1000
0100
0000
,
1100
0100
0010
0001
,
0011
0010
0100
0000
,
1001
0001
0100
0010
,
1010
1010
1010
0000
,
1000
0000
0100
0000
0100
0000
0000
0001
,
0000
0100
0100
0000
,
1000
0000
0010
0000
0010
0000
0000
0001
,
0000
0010
0010
0000
,
1000
0000
0100
0000
0010
0000
0000
0001
,
0000
0100
0010
0000
,
1000
0000
0100
0000
0010
0000
0000
0001
,
0000
0100
0010
1010
,
1000
0000
0001
0000
0100
0000
0000
0001
,
0000
1000
0100
0000
,
1000
0000
0001
0000
0010
0000
0000
0001
,
0000
1000
0010
0000
,
2002
3003
1000
0100
,
0001
0100
1000
0100
,
0001
0100
1000
0010
,
0100
0001
1000
0100
,
0010
0001
1000
0010
,
0001
0010
1000
0010
,
0001
0010
1000
0100
,
0010
0001
1000
0001
,
1000
0001
1000
0001
0001
0000
0100
0000
,
1000
0100
0001
0100
,
1000
0100
0001
0010
,
0100
1000
0001
0010
,
0100
0010
0001
0010
,
1000
0010
0001
0010
,
1000
0010
0001
1000
,
0010
0100
0001
0001
,
1001
0000
0000
0000
1000
0000
0000
0100
,
0000
0000
0010
0000
0000
0001
0000
0000
,
1000
0000
0000
0000
0001
0000
0000
0100
,
0000
0000
0010
0000
0000
1000
0000
0000
,
0001
0000
0000
0000
1000
0000
0000
0010
,
0000
0000
0100
0000
0000
0001
0000
0000
,
1000
0000
0000
0000
0001
0000
0000
0010
,
0000
0000
0100
0000
0000
1000
0000
0000
,
0001
1000
0001
1000
1000
0000
0000
1100
,
0000
0000
0010
0000
0000
1100
0000
0000
,
1000
0000
0000
0000
0001
0000
0000
0101
,
0000
0000
0010
0000
0000
0101
0000
0000
,
0001
0000
2002
0000
,
0000
0000
0000
0000
,
0000
0000
0000
0000
,
0000
0000
0000
0000
,
0000
3003
1001
1000
,
0100
1000
0001
0100
,
0001
1000
1001
0001
,
0100
0001
1000
0100
,
1000
0001
1001
1000
,
0010
1000
0001
0010
,
0001
1000
1001
0001
,
0010
0001
1000
0010
,
1000
0001
1000
0100
,
0010
0100
0010
0000
0100
0000
1000
0000
,
0010
0100
0010
0000
0100
0000
0001
0000
,
0010
0100
0010
0000
0100
0000
1000
0000
,
0010
0100
0010
0000
0100
0000
0001
0000
,
1000
0001
1000
0000
0001
0000
1000
0000
,
0100
0010
0100
0000
1000
0000
0010
0000
,
0100
0010
0100
0000
0001
0000
1000
0000
,
0010
0100
0010
0000
1000
0000
0000
0000
,
0000
1100
0000
0000
,
1000
0000
0001
0000
,
0000
0101
0000
0000
,
0001
0000
1001
0000
;

//---------------dance-single - Excel----------------
#NOTES:
     dance-single:
     Excel:
     Beginner:
     3:
     0.195,0.305,0.062,0.000,0.000:
0000
0000
0000
0000
,
0000
0000
0000
0000
,
0000
0000
0000
0000
,
0000
0000
0000
0000
,
0000
0000
0000
0000
,
0000
0000
0000
0000
,
0000
0000
0000
0000
,
0000
0000
0000
0000
,
0000
0000
0000
0000
,
1000
0000
0000
0000
,
0100
0000
0000
0000
,
1000
0000
0000
0000
,
0010
0000
0000
0000
,
1000
0000
0000
0000
,
0100
0000
0000
0000
,
1000
0000
0000
0000
,
0001
0000
1001
0000
,
1000
0000
0100
0000
,
1000
0000
0100
0000
,
0010
0000
0100
0000
,
1000
0000
0100
0000
,
1000
0000
0010
0000
,
0100
0000
0001
0000
,
0100
0000
0001
0000
,
1000
0000
0100
0100
,
1000
0000
0100
0000
,
1000
0000
0010
0000
,
1000
0000
0001
0000
,
0010
0000
0100
0000
,
1000
0000
0001
0000
,
1000
0000
0100
0000
,
1000
0000
1000
0000
,
0100
1000
0100
0000
,
1000
0000
0000
0000
,
0100
0000
0000
0000
,
0010
0000
0000
0000
,
0001
0000
0000
0000
,
1000
0000
0000
0000
,
0001
0000
0000
0000
,
0010
0000
0000
0000
,
0100
0000
0000
0000
,
1000
0000
0000
0000
,
0001
0000
0000
0000
,
1000
0000
0000
0000
,
0010
0000
0000
0000
,
1001
0000
1000
0000
,
0000
0000
0100
0000
,
0000
0000
1000
0000
,
0000
0000
0001
0000
,
0001
0000
1000
0000
,
0000
0000
0100
0000
,
0000
0000
0010
0000
,
0000
0000
0001
1000
,
0001
1000
0001
0000
,
0000
0000
1000
0000
,
0000
0000
0010
0000
,
0000
0000
0100
0000
,
0010
0000
0100
0000
,
0000
0000
0001
0000
,
0000
0000
1000
0000
,
0000
0000
0100
0000
,
1001
0000
1000
0000
,
0000
0000
0100
0000
,
0000
0000
1000
0000
,
0000
0000
0001
0000
,
0000
0000
1000
0000
,
0000
0000
0010
0000
,
0000
0000
0100
0000
,
0000
0000
0001
0000
,
0000
0000
1000
0000
,
0000
0000
0100
0000
,
0000
0000
1000
0000
,
0000
0000
0001
0000
,
0000
0000
0110
0000
,
0000
0000
0000
0000
,
0000
0000
0000
0000
,
0000
0000
0000
0000
,
0000
0000
1000
0000
,
0100
0000
0010
0000
,
0100
0000
1000
0000
,
0100
0000
1000
0000
,
0001
0000
1000
0000
,
0100
0000
0010
0000
,
0100
0000
1000
0000
,
0001
0000
1000
0000
,
1000
0000
0001
0000
,
0100
0000
0010
0000
,
0100
0000
0001
0000
,
1000
0000
0001
0000
,
0100
0000
0001
0000
,
1000
0000
0001
0000
,
0010
0000
0100
0000
,
1000
0000
0001
0000
,
1000
0000
1001
0000
,
0000
0000
0000
0000
,
0000
0000
0000
0000
,
0000
0000
0000
0000
,
0000
0000
1001
0000
;

//---------------dance-single - Excel----------------
#NOTES:
     dance-single:
     Excel:
     Easy:
     6:
     0.439,0.508,0.229,0.042,0.000:
0000
0000
0000
0000
,
0000
0000
0000
0000
,
0000
0000
0000
0000
,
0000
0000
0000
0000
,
0000
0000
0000
0000
,
0000
0000
0000
0000
,
0000
0000
0000
0000
,
0000
0000
0000
0000
,
0000
0000
0000
0000
,
0001
0100
0001
0000
,
1000
0100
1000
0000
,
1000
0010
1000
0000
,
0001
0010
0001
0000
,
1000
0100
1000
0000
,
0001
0100
0001
0000
,
1000
0010
1000
0000
,
1000
0100
1001
0000
,
0001
0100
0010
0100
,
0001
0100
0001
0000
,
1000
0100
0010
0100
,
1000
0100
1000
0000
,
0001
0100
0010
0100
,
0010
0100
0001
0000
,
1000
0010
1000
0010
,
0100
0010
0100
0100
,
1001
0001
0100
0000
,
1010
0010
0100
0000
,
0101
0100
0010
0000
,
1010
1000
0100
0000
,
1100
1000
0001
0000
,
1001
1000
0010
0000
,
1001
0001
0100
0000
,
1000
1000
1000
0000
,
1000
0000
0000
0001
0000
0000
0000
0001
,
0000
0100
0100
0000
,
1000
0000
0000
0010
0000
0000
0000
0001
,
0000
0010
0010
0000
,
1000
0000
0000
0100
0000
0000
0000
0001
,
0000
0100
0010
0000
,
1000
0000
0000
0001
0000
0000
0000
0001
,
0000
0100
0010
1010
,
1000
0000
0000
0001
0000
0000
0000
0001
,
0000
1000
0100
0000
,
1000
0000
0000
0001
0000
0000
0000
0001
,
0000
1000
0010
0000
,
2002
3003
1000
0100
,
0010
0100
1000
0100
,
0010
0100
1000
0010
,
0100
0010
1000
0100
,
0010
0100
1000
0100
,
0010
0001
1000
0100
,
0010
0100
1000
0010
,
0100
0001
1000
0001
,
1000
1001
0001
0100
,
0010
0100
0001
0100
,
0010
0100
0001
0010
,
0100
0010
0001
0100
,
0010
0100
0001
0010
,
0100
1000
0001
0010
,
0100
1000
0001
1000
,
0010
0100
0001
0001
,
1001
0000
0000
0000
0001
0000
0000
0010
,
0000
0000
0100
0000
0000
1000
0000
0000
,
0001
0000
0000
0000
1000
0000
0000
0010
,
0000
0000
0100
0000
0000
0001
0000
0000
,
1000
0000
0000
0000
0001
0000
0000
0100
,
0000
0000
0010
0000
0000
1000
0000
0000
,
0001
0000
0000
0000
1000
0000
0000
0100
,
0000
0000
0010
0000
0000
0001
0000
0000
,
1000
0000
0000
0000
0001
0000
0000
0001
,
0000
0000
0100
0000
0000
0001
0000
0000
,
0001
0000
0000
0000
1000
0000
0000
1000
,
0000
0000
0100
0000
0000
1000
0000
0000
,
1000
0000
2002
0000
,
0000
0000
0000
0000
,
0000
0000
0000
0000
,
0000
0000
0000
0000
,
0000
3003
1001
1000
,
0100
1000
0001
0100
,
0001
0000
1001
0001
,
0100
0001
1000
0100
,
1000
0000
1001
1000
,
0010
1000
0001
0010
,
0001
0000
1001
0001
,
0010
0001
1000
0010
,
1000
0001
1000
0100
,
0110
0010
0100
1000
,
0010
0000
0001
0100
,
0110
0010
0100
0001
,
0010
0000
0100
1000
,
1001
1000
0001
1000
,
0100
0000
1000
0010
,
0110
0100
0001
1000
,
0010
0000
1000
0100
,
0000
0000
0001
0100
,
0000
0000
1000
0100
,
0000
0000
0001
0100
,
0000
0000
1001
0000
;
