#TITLE:Welcome To The Rave;
#SUBTITLE:;
#ARTIST:Aryue;
#TITLETRANSLIT:;
#SUBTITLETRANSLIT:;
#ARTISTTRANSLIT:;
#GENRE:Future Rave;
#CREDIT:darkanine;
#MUSIC:Welcome To The Rave.ogg;
#BANNER:Welcome To The Rave.png;
#BACKGROUND:Welcome To The Rave-bg.png;
#CDTITLE:EDMix1title.png;
#SAMPLESTART:78.750;
#SAMPLELENGTH:29.995;
#SELECTABLE:YES;
#OFFSET:0.000;
#BPMS:0.000=128.000;
#STOPS:;
#BGCHANGES:0.000=./../../RandomMovies/edmixcountdown1.mp4=0.540=0=0=0=StretchNoLoop=black.png=CrossFade.xml==,
39.000=./../../RandomMovies/edmixblack.png=0.000=0=0=0=StretchNoLoop====,
40.000=./../../RandomMovies/edmixcubes1.mp4=1.000=0=0=0=StretchNoLoop====,
72.000=./../../RandomMovies/edmixlaser1.mp4=1.000=0=0=0=StretchNoLoop====,
88.000=./../../RandomMovies/edmixlaser2.mp4=1.000=0=0=0=StretchNoLoop====,
104.000=./../../RandomMovies/edmixspeakers1.mp4=1.000=0=0=0=StretchNoLoop====,
120.000=./../../RandomMovies/edmixwaves1.mp4=1.000=0=0=0=StretchNoLoop====,
128.000=./../../RandomMovies/edmixdisc1.mp4=0.500=0=0=0=StretchNoLoop====,
136.000=./../../RandomMovies/edmixcircles1.mp4=1.000=0=0=0=StretchNoLoop====,
152.000=./../../RandomMovies/edmixmatrix1.mp4=1.000=0=0=0=StretchNoLoop====,
160.000=./../../RandomMovies/edmixdisc1.mp4=2.000=0=0=0=StretchNoLoop====,
164.000=./../../RandomMovies/edmixunderground1.mp4=8.000=0=0=0=StretchNoLoop====,
168.000=./../../RandomMovies/edmixspeakers2.mp4=1.000=0=0=0=StretchNoLoop====,
184.000=./../../RandomMovies/edmixlaser1.mp4=1.000=0=0=0=StretchNoLoop====,
196.000=./../../RandomMovies/edmixunderground1.mp4=2.000=0=0=0=StretchNoLoop====,
200.000=./../../RandomMovies/edmixspeakers3.mp4=1.000=0=0=0=StretchNoLoop====,
216.000=./../../RandomMovies/edmixcubes1rev.mp4=1.500=0=0=0=StretchNoLoop====,
232.000=Welcome To The Rave-bg.png=1.000=1=0=0=StretchNoLoop==CrossFade==,
99999.000=-nosongbg-=1.000=0=0=0=StretchNoLoop====
;
#FGCHANGES:;

//--------------- dance-single - ----------------
#NOTES:
     dance-single:
     :
     Beginner:
     3:
     0.157278,0.249432,0.240831,0.068809,0,128,100,28,8,0,0,0.157278,0.249432,0.240831,0.068809,0,128,100,28,8,0,0:
0000
0000
0000
0000
,
0000
0000
0000
0000
,
0000
0000
0000
0000
,
0000
0000
0000
0000
,
1001
0000
1001
0000
,
0110
0000
0110
0000
,
1001
0000
0110
0000
,
0200
0000
0000
0300
,
0100
0000
0000
0000
,
0000
0000
0000
0000
,
1000
0000
0100
0000
,
0010
0000
0010
0000
,
0001
0000
1000
0000
,
0010
0000
0010
0000
,
0001
0000
0010
0000
,
1000
0000
1000
0000
,
0001
0000
0010
0000
,
0100
0000
0100
0100
,
0100
0000
1000
0000
,
0010
0000
0010
0000
,
0100
0000
0001
0000
,
0010
0000
0010
0000
,
1001
0000
0010
0000
,
0110
0000
0001
0000
,
1001
0000
0010
0000
,
0200
0000
0000
0300
,
0110
0000
0001
0000
,
1001
0000
1000
0000
,
0110
0000
0010
0000
,
1001
0000
0001
0000
,
0110
0000
0001
0000
,
1001
0000
0100
0000
,
0110
0000
1000
0000
,
0002
0000
0000
0003
,
0001
0000
0000
0000
,
0100
0000
0000
0000
,
1000
0000
0000
0000
,
0100
0000
0000
0000
,
0002
0000
0000
0003
,
2000
0000
0000
3000
,
0020
0000
0200
0000
,
0330
0000
0000
1001
,
1000
0000
1100
0000
,
0001
0000
0101
0000
,
1000
0000
0110
0000
,
0001
0000
1001
0000
,
0010
0000
0110
0000
,
0100
0000
1001
0000
,
1000
0000
0110
0000
,
0020
0000
0000
0030
,
0001
0001
0001
0000
,
0010
0010
0010
0000
,
1000
1000
1000
0000
,
0100
0100
0100
0000
,
0001
0000
0011
0000
,
1000
0000
1010
0000
,
0010
0000
1001
0000
,
0100
0000
0000
0010
,
1001
0000
0000
0000
;

//--------------- dance-single - ----------------
#NOTES:
     dance-single:
     :
     Easy:
     7:
     0.280151,0.349205,0.240831,0.043006,0,228,200,28,5,0,0,0.280151,0.349205,0.240831,0.043006,0,228,200,28,5,0,0:
0000
0000
0000
0000
,
0000
0000
0000
0000
,
0000
0000
0000
0000
,
0000
0000
0000
0000
,
1000
1000
0001
1000
,
0001
0001
1000
0001
,
0010
0010
0100
0010
,
0200
0000
0300
0100
,
1001
0000
0000
0000
,
0000
0000
0000
0000
,
1000
0000
0001
0000
,
0100
0000
0100
0000
,
0010
0000
1000
0000
,
0100
0000
0100
0000
,
0010
0000
0001
0000
,
1000
0000
1000
0000
,
0010
0000
0100
0000
,
0002
0000
0003
1001
,
1000
1000
0100
0100
,
0010
0010
0001
1000
,
0010
0010
0100
0100
,
0001
0001
1000
0001
,
0010
0010
0100
0100
,
1000
1000
0001
1000
,
0010
0010
0100
0100
,
0010
0000
0000
0100
0000
0000
1001
0000
,
1000
1000
0010
0010
,
0100
0000
0100
0000
0100
0001
0100
0000
,
0001
0001
0010
0010
,
0100
0000
0100
0000
0100
1000
0100
0000
,
0010
0010
0100
0100
,
1000
0000
1000
0000
1000
0001
1000
0000
,
0010
0010
0100
0100
,
0001
0000
1000
0001
1000
0000
0001
0000
,
1000
1000
0010
0100
,
0001
0001
0010
1000
,
0001
0001
0100
1000
,
0010
0010
0100
0001
,
1000
1000
0100
0100
,
0010
0010
0001
0001
,
1000
0001
1000
0000
0001
1000
0001
0000
,
0200
0000
0000
0310
,
1001
1001
0100
0100
,
1001
1001
0010
0010
,
0110
0110
0001
0001
,
0110
0110
1000
1000
,
1010
1010
0100
0100
,
0011
0011
1000
1000
,
0110
0110
0001
0001
,
1000
0001
1000
0000
0200
0000
0310
0000
,
0011
1001
0010
0010
,
0101
1001
1000
1000
,
1001
1010
0100
0100
,
1001
1100
0001
0100
,
0001
0000
1010
0000
1000
0001
1000
0000
,
0001
0000
1100
0000
0001
1000
0001
0000
,
0010
0100
0010
0000
0001
0000
1000
0000
,
0010
0100
0010
0000
2000
0000
3100
0000
,
0101
0000
0000
0000
;

//--------------- dance-single - ----------------
#NOTES:
     dance-single:
     :
     Medium:
     10:
     0.403024,0.424035,0.240831,0.043006,0.240831,328,300,28,5,0,0,0.403024,0.424035,0.240831,0.043006,0.240831,328,300,28,5,0,0:
0000
0000
0000
0000
,
0000
0000
0000
0000
,
0000
0000
0000
0000
,
0000
0000
0000
0000
,
0001
0100
0000
0100
,
1000
0100
0000
0100
,
0001
1000
0000
1000
,
0200
0000
0310
0110
,
1001
0000
0000
0000
,
0000
0000
0000
0000
,
0001
0000
0000
0001
0000
0000
0000
0000
0100
0000
0001
0000
0100
0000
0000
0000
,
0010
0000
0000
0010
0000
0000
0000
0000
0010
0000
0100
0000
0010
0000
0000
0000
,
0100
0000
0000
0100
0000
0000
0000
0000
0001
0000
1000
0000
0001
0000
0000
0000
,
1000
0000
0000
1000
0000
0000
0000
0000
1000
0000
0100
0000
1000
0000
0000
0000
,
0010
0000
0000
0010
0000
0000
0000
0000
1000
0000
0001
0000
1000
0000
0000
0000
,
0100
0000
0000
0100
0000
0000
0000
0000
0100
0000
0010
0000
0100
0000
0000
0000
,
0010
0000
0000
0010
0000
0000
0000
0000
0100
0000
0010
0000
0100
0000
0000
0000
,
1000
0000
0000
0001
0000
0000
0100
0000
0000
0010
0000
0000
1001
0000
0000
0000
,
1000
0000
0000
1000
0000
1000
0000
0000
0100
0000
1000
0000
0100
0000
0010
0000
,
0001
0000
0000
1000
0000
1000
0000
0000
0001
0000
0100
0000
0010
0000
0100
0000
,
0001
0000
0000
0001
0000
0001
0000
0000
1000
0000
0001
0000
0010
0000
0100
0000
,
1000
0000
0000
0001
0000
0001
0000
0000
1000
0000
0001
0000
1000
0000
0001
0000
,
0010
0000
0000
0010
0000
0010
0000
0000
0100
0000
0010
0000
0100
0000
1000
0000
,
0010
0000
0000
0100
0000
0100
0000
0000
0001
0000
1000
0000
0001
0000
1000
0000
,
0010
0000
0000
0010
0000
0010
0000
0000
0100
0000
0010
0000
0100
0000
0001
0000
,
1000
0000
0000
1000
0000
0000
0001
0000
0000
0001
0000
0000
1001
0000
0000
0000
,
1010
0000
0000
0010
0000
1000
0000
1000
0001
0000
0000
0000
0001
0000
0000
0000
,
0011
0000
0000
0001
0000
0100
0000
0100
0010
0000
0000
0000
0010
0000
0000
0000
,
1001
0000
0000
1000
0000
0010
0000
0010
0100
0000
0000
0000
0100
0000
0000
0000
,
1010
0000
0000
1000
0000
0001
0000
0001
1000
0000
0000
0000
1000
0000
0000
0000
,
0011
0000
0000
0001
0000
1000
0000
1000
0010
0000
0000
0000
0010
0000
0000
0000
,
0110
0000
0000
0010
0000
0100
0000
0100
0001
0000
0000
0000
0001
0000
0000
0000
,
0011
0000
0000
0001
0000
1000
0000
1000
0100
0000
0000
0000
0100
0000
0000
0000
,
0020
0000
0000
1000
0000
0000
0100
0000
0000
0001
0000
0000
0130
0000
0000
0000
,
1000
1000
0001
0001
,
0010
0010
0100
0010
,
0001
0001
1000
1000
,
0010
0010
0100
0110
,
1000
0100
1000
0100
1000
0010
1000
0010
,
0100
0001
0100
0001
0010
0001
0010
0001
,
0010
0010
0100
0100
1000
0100
0010
0001
,
2000
0100
3001
0110
,
1000
0000
0001
0000
0010
0000
0000
0110
0000
0000
0100
0000
1000
0000
0000
0000
,
0001
0000
1000
0000
0010
0000
0000
0110
0000
0000
1000
0000
0100
0000
0000
0000
,
1000
0000
0010
0000
0100
0000
0000
0101
0000
0000
0001
0000
1000
0000
0000
0000
,
0001
0000
0010
0000
0100
0000
0000
1100
0000
0000
0010
0000
1001
0000
0000
0000
,
1000
0000
0010
0000
0100
0000
0000
1001
0000
0000
0100
0000
0010
0000
0000
0000
,
0001
0000
0010
0000
0100
0000
0000
1001
0000
0000
0010
0000
0100
0000
0000
0000
,
1000
0000
0001
0000
1000
0000
0000
0110
0000
0000
0010
0000
0100
0000
0000
0000
,
0002
0100
0100
0000
1003
0000
1001
0000
,
0001
0010
0100
0010
0001
1000
1001
0000
,
1000
0100
0010
0100
1000
0010
0000
1000
,
0001
0010
0100
1000
0010
0100
0110
0000
,
0001
1000
0100
0010
0001
0010
0000
0001
,
1000
0010
1000
0100
0010
0100
1100
0000
,
1000
0010
0100
0010
1000
0001
0000
0100
,
0001
0100
0010
0100
0001
1000
1001
0000
,
2000
0000
0000
0010
0000
0000
3001
0000
1000
0000
0000
0000
1001
0000
0000
0000
,
0110
0000
0000
0000
;

//--------------- dance-single - ----------------
#NOTES:
     dance-single:
     :
     Hard:
     13:
     0.525897,0.598638,0.240831,0.07741,0.442957,428,400,28,9,0,0,0.525897,0.598638,0.240831,0.07741,0.442957,428,400,28,9,0,0:
0000
0000
0000
0000
,
0000
0000
0000
0000
,
0000
0000
0000
0000
,
0000
0000
0000
0000
,
1000
1000
0001
1000
,
0001
0001
1000
0001
,
0010
0010
0100
0010
,
0200
0000
0000
0000
0310
0100
0110
0000
,
1001
0000
0000
0000
,
0000
0000
0000
0000
,
1000
0000
0000
0100
0000
0100
0000
1000
0100
0000
1000
0000
0100
0000
0010
0000
,
0001
0000
0000
0100
0000
0100
0000
0001
0100
0000
0010
0000
0100
0000
0001
0000
,
1000
0000
0000
0010
0000
0010
0000
1000
0010
0000
0100
0000
0010
0000
1000
0000
,
0001
0000
0000
0010
0000
0010
0000
0001
0010
0000
0100
0000
0010
0000
0001
0000
,
0100
0000
0000
0010
0000
0010
0000
0100
0010
0000
1000
0000
0010
0000
0100
0000
,
0001
0000
0000
1000
0000
1000
0000
0001
1000
0000
0010
0000
1000
0000
0100
0000
,
0010
0000
0000
0001
0000
0001
0000
0010
0001
0000
0010
0000
0001
0000
2000
0000
,
0100
0000
0000
0100
0000
0000
3100
0000
1000
0000
0001
0000
1001
0000
0000
0000
,
1100
0000
0000
1000
0010
0000
0000
0010
0100
0000
0100
0000
0010
0000
1000
0000
,
0100
0000
0000
0100
0010
0000
0000
0010
0001
0000
0001
0000
1000
0000
0100
0000
,
0110
0000
0000
0010
0001
0000
0000
0001
0100
0000
0100
0000
0010
0000
1000
0000
,
0001
0000
0000
0001
0010
0000
0000
0010
0001
0000
0001
0000
1000
0000
0001
0000
,
1001
0000
0000
1000
0010
0000
0000
0010
0001
0000
0001
0000
0010
0000
0100
0000
,
1000
0000
0000
1000
0100
0000
0000
0100
0001
0000
0001
0000
0100
0000
0010
0000
,
1010
0000
0000
1000
0100
0000
0000
0100
0001
0000
0001
0000
0100
0000
0010
0000
,
1000
0000
0000
1000
0000
0000
0010
0000
0000
0001
0000
0000
1001
0000
0000
0000
,
1010
0000
0000
0010
1000
0010
0000
1000
0100
0000
0010
0000
0001
0000
1000
0000
,
1001
0000
0000
1000
0001
1000
0000
0001
1000
0000
0001
0000
1000
0000
0100
0000
,
0110
0000
0000
0100
1000
0100
0000
1000
0001
0000
1000
0000
0010
0000
0100
0000
,
0110
0000
0000
0100
0010
0100
0000
0010
1000
0000
1000
0000
0001
0000
0010
0000
,
0011
0000
0000
0001
0010
0001
0000
1000
0001
0000
0100
0000
0010
0000
1000
0000
,
1100
0000
0000
1000
0100
1000
0000
0100
1000
0000
0001
0000
0100
0000
0010
0000
,
1010
0000
0000
0001
1000
0001
0000
1000
0100
0000
1000
0000
0010
0000
1000
0000
,
0002
0000
0000
0010
0000
0000
1000
0000
0000
0103
0000
0000
0001
0000
0000
0000
,
1000
0000
1000
0000
1000
0000
0100
0010
,
0001
0000
0001
0000
0001
0000
1000
0010
,
0100
0000
0100
0000
0100
0000
0001
0010
,
0100
0000
0100
0000
0100
0000
1000
0001
,
0100
0010
0100
0010
1000
0010
1000
0100
,
0010
0001
0010
0000
0001
0000
1000
0000
0100
0000
1000
0000
0001
0000
0100
0000
,
0001
0010
0001
0000
0010
0100
0010
0000
0100
1000
0100
0000
1000
0001
1000
0000
,
0002
0100
0013
1001
,
1000
0000
0100
1000
0002
0000
0000
0103
0000
0000
1000
0000
0010
0000
0100
0000
,
0001
0000
0100
0010
0100
0000
0100
0001
0000
0000
1000
0000
0001
0000
0010
0000
,
0100
0000
1000
0001
0200
0000
0000
0310
0000
0000
0001
0000
1000
0000
0100
0000
,
0010
0000
0100
0010
0001
0000
1000
0010
0000
0100
0001
0000
2000
0000
0000
0000
,
3001
0000
1000
0001
0010
0000
0000
1010
0000
0000
0001
0000
1000
0000
0100
0000
,
1000
0000
0001
0010
0100
0000
0100
1000
0000
1000
0010
0000
0000
0000
0100
0010
,
1000
0000
0001
1000
0010
0000
0000
0011
0000
0000
1000
0000
0100
0000
1000
0000
,
0001
0100
0001
0100
1000
0000
0100
0010
0000
0000
0001
0000
1100
0000
0000
0000
,
0011
0000
0001
0000
0010
0000
0001
1000
0000
0001
0010
0000
0100
0000
1000
0000
,
1010
0000
0010
0000
0100
0000
0001
1000
0000
0001
0010
0000
0100
0000
1000
0000
,
1001
0000
0001
0000
1000
0000
0100
1000
0000
0010
0100
0000
0001
0000
0100
0000
,
0101
0000
0001
0000
1000
0000
0010
0100
0000
0001
0010
0000
0200
0000
0300
0000
,
1010
0000
0010
0100
0001
0000
0010
0001
0000
1000
0001
0000
0001
0000
0010
0000
,
0011
0000
0010
0100
1000
0000
0010
1000
0000
0001
1000
0000
1000
0000
0010
0000
,
0110
0000
0010
1000
0001
0000
0010
1000
0000
0010
0001
0000
0001
0000
0000
0000
,
0210
0000
0000
0010
0000
0000
0010
0000
0001
0000
0000
0000
1300
0000
0000
0000
,
0101
0000
0000
0000
;

//--------------- dance-single - ----------------
#NOTES:
     dance-single:
     :
     Challenge:
     15:
     0.64877,0.748297,0.240831,0.068809,0.782701,528,500,28,8,4,0,0.64877,0.748297,0.240831,0.068809,0.782701,528,500,28,8,4,0:
0000
0000
0000
0000
,
0000
0000
0000
0000
,
0000
0000
0000
0000
,
0000
0000
0000
0000
,
1000
0000
0010
0000
1010
0000
0000
0000
0001
0000
0000
0010
0001
0000
0010
0000
,
0001
0000
0100
0000
0101
0000
0000
0000
1000
0000
0000
0100
1000
0000
0100
0000
,
1000
0000
0010
0000
0110
0000
0000
0000
0100
0000
0000
0010
1000
0000
0010
0000
,
0200
0010
0000
0000
0310
0100
0110
0000
,
1001
0000
0000
0000
,
0000
0000
0000
0000
,
1000
0000
0000
1000
0000
1000
0000
1000
0100
0000
1000
0000
0001
0000
0100
0000
,
0010
0000
0000
0010
0000
0010
0000
0010
0100
0000
0001
0000
1000
0000
0100
0000
,
0010
0000
0000
0010
0000
0010
0000
0010
0100
0000
1000
0000
0010
0000
0100
0000
,
0001
0000
0000
0001
0000
0001
0000
0001
1000
0000
0010
0000
0100
0000
0001
0000
,
0010
0000
0000
0010
0000
0010
0000
0010
0100
0000
1000
0000
0001
0000
0010
0000
,
0100
0000
0000
0100
0000
0100
0000
0100
1000
0000
0010
0000
1000
0000
0100
0000
,
0010
0000
0000
0010
0000
0010
0000
0010
0001
0000
1000
0000
0001
0000
0100
0000
,
1000
0000
0000
0100
0000
0000
0001
0000
1000
0000
0001
0000
1001
0000
0000
0000
,
1100
0000
0000
0100
1000
0100
0000
0100
1000
0000
1000
0000
0010
0000
0100
0000
,
0101
0000
0000
0100
0001
0100
0000
0100
0010
0000
0010
0000
1000
0000
0100
0000
,
0110
0000
0000
0100
0010
0100
0000
0100
1000
0000
1000
0000
0001
0000
0100
0000
,
0110
0000
0000
0100
0010
0100
0000
0100
0010
0000
0010
0000
1000
0000
0001
0000
,
0011
0000
0000
0100
1000
0100
0000
0100
0010
0000
0010
0000
0100
0000
1000
0000
,
1010
0000
0000
0100
0001
0100
0000
0100
0010
0000
0010
0000
1000
0000
0001
0000
,
1001
0000
0000
0100
0010
0100
0000
0100
0010
0000
0010
0000
0100
0000
0010
0000
,
0110
0000
0000
1010
0000
0000
0110
0000
0000
0011
0000
0000
1001
0000
0000
0000
,
1010
0000
0000
0100
0001
1000
0000
1000
0100
0000
0100
0000
0010
0000
0001
0000
,
0011
0000
0000
0100
1000
0001
0000
0001
1000
0000
1000
0000
0010
0000
0100
0000
,
0110
0000
0000
1000
0010
0100
0000
0100
0001
0000
0001
0000
1000
0000
0100
0000
,
1100
0000
0000
0001
0010
0100
0000
0100
1000
0000
1000
0000
0010
0000
0100
0000
,
0110
0000
0000
0001
1000
0100
0000
0100
0010
0000
0010
0000
0001
0000
1000
0000
,
1001
0000
0000
0100
1000
0001
0000
0001
0100
0000
0100
0000
0010
0000
0100
0000
,
0110
0000
0000
1000
0001
0010
0000
0010
0100
0000
0100
0000
0010
0000
0001
0000
,
2000
0000
0000
3020
0000
0000
0032
0000
0000
0203
0000
0000
1300
0000
0000
0000
,
1000
0001
1000
0000
0010
0100
1000
0100
,
0001
1000
0001
0000
1000
0100
0001
0100
,
0010
0100
0010
0000
1000
0010
0001
0100
,
0010
0000
0000
0000
0100
0000
0000
0000
0010
0000
0000
0000
0000
0000
0000
0000
1000
0000
0000
0000
0000
0000
0000
0000
0010
0000
0000
0000
0010
0000
0000
0100
,
0001
0010
0001
0010
1000
0010
0001
1000
,
0010
0000
0100
0000
0010
0000
0000
0000
1000
0000
0000
0000
0010
0000
0000
0000
0001
0000
0000
0000
0010
0000
0000
0000
1000
0000
0000
0000
0010
0000
0000
1000
,
0001
0100
0001
0100
0010
0100
0010
0100
0010
1000
0010
1000
0001
0010
0100
1000
,
0002
0000
0000
0103
,
1000
0010
1000
0010
0100
0000
0100
0001
0000
0001
0010
0000
0100
0010
0001
0010
,
0100
1000
0100
1000
0001
1000
0100
0010
0000
0010
0001
0000
0100
0000
0001
1000
,
0001
0010
0001
0010
0100
0000
0100
1000
0000
1000
0010
0000
0100
0010
1000
0001
,
0010
0100
0010
0100
1000
0001
0100
0010
0000
0010
1000
0000
1001
0000
0000
0000
,
0100
0001
0100
0001
1000
0000
1000
0010
0000
M010
0001
0000
0001
1000
0001
1000
,
0100
1000
0100
1000
0001
1000
0001
0010
0000
001M
1000
0000
0000
0000
0001
0100
,
0010
1000
0010
1000
0001
0000
0001
0100
0000
010M
1000
0000
1000
0001
1000
0001
,
0010
0100
0010
0000
0100
0000
0010
0000
0001
0000
1000
0000
0001
0000
0100
0000
0000
0000
0100
0000
0010
0000
0000
0000
1001
0000
0000
0000
0000
0000
0000
0000
,
0001
0010
0001
0100
0010
1000
0100
0010
0000
0010
0001
0000
0100
0010
1000
0001
,
1000
0010
1000
0010
0100
0001
0100
0010
0001
0010
1000
0000
0010
0100
0001
1000
,
0100
0010
0100
0010
0001
0100
0010
1000
0000
1000
0001
0000
1000
0001
0100
0001
,
1000
0010
0100
0010
1000
0100
0010
0100
0001
0100
1000
0000
0001
0000
1000
0001
,
1000
0100
0010
0100
1000
0001
0100
1000
0000
1000
0100
0000
0010
0100
0001
1000
,
0100
0010
0100
0010
0001
1000
0001
0010
1000
0010
0001
0000
0000
0000
0001
1000
,
0100
0010
0001
0010
0100
1000
0010
0100
0000
0100
0001
0000
1000
0100
0010
0100
,
1000
0001
1000
0000
0001
0000
1000
0000
0010
0000
0100
0000
0010
0000
0001
0000
0000
0000
00M1
0000
0100
0000
0000
0000
0220
0000
0000
0000
0000
0000
0330
0000
,
1000
0000
0000
0000
;
