#VERSION:0.83;
#TITLE:We Can Get High;
#SUBTITLE:(with GHOSTER Remix);
#ARTIST:Galantis & Yellow Claw;
#TITLETRANSLIT:;
#SUBTITLETRANSLIT:;
#ARTISTTRANSLIT:;
#GENRE:Brostep;
#CREDIT:darkanine;
#MUSIC:We Can Get High (with GHOSTER Remix).ogg;
#BANNER:We Can Get High (with GHOSTER Remix).png;
#BACKGROUND:We Can Get High (with GHOSTER Remix)-bg.png;
#CDTITLE:./../EDMix1title.png;
#SAMPLESTART:110.400;
#SAMPLELENGTH:25.600;
#SELECTABLE:YES;
#OFFSET:0.000;
#BPMS:0.000=75.000
,34.000=150.000
,81.000=75.000
,113.000=150.000
,205.000=75.000
,207.000=150.000
,208.500=75.000
,208.750=150.000
,209.250=75.000
,209.500=150.000
,210.000=75.000
,210.250=150.000
,210.750=75.000
,211.000=150.000
,211.500=75.000
,211.750=150.000
,212.250=75.000
,223.000=37.500
,223.500=75.000
,231.500=150.000
,232.000=75.000
,236.000=150.000
;
#STOPS:80.000=0.400
,223.500=0.400
,231.500=0.200
;
#SPEEDS:0.000=1.000=0.000=0;
#SCROLLS:0.000=1.000;
#TICKCOUNTS:0.000=4;
#TIMESIGNATURES:0.000=4=4;
#LABELS:0.000=Song Start;
#COMBOS:0.000=1;
#DISPLAYBPM:75.000:150.000;
#ORIGIN:;
#PREVIEWVID:;
#JACKET:We Can Get High (with GHOSTER Remix)-jacket.png;
#CDIMAGE:;
#DISCIMAGE:;
#BGCHANGES:0.000=We Can Get High (with GHOSTER Remix).mp4=1.000=0=0=0=StretchNoLoop====,
99999.000=-nosongbg-=1.000=0=0=0=StretchNoLoop====
;
#FGCHANGES:;

//--------------- dance-single - ----------------
#NOTEDATA:;
#STEPSTYPE:dance-single;
#DESCRIPTION:;
#DIFFICULTY:Beginner;
#METER:3;
#RADARVALUES:0.135076,0.26217,0.057305,0.050142,0,132,124,8,7,0,0,0,0,0,0.135076,0.26217,0.057305,0.050142,0,132,124,8,7,0,0,0,0,0;
#CHARTNAME:;
#CHARTSTYLE:;
#CREDIT:;
#NOTES:
0000
0000
0000
0000
,
0000
0000
0000
0000
,
0000
0000
0000
0000
,
0000
0000
0000
0000
,
0000
0000
0000
0100
,
0000
1000
0000
0010
,
0000
1000
0000
0001
,
0000
0010
0000
0001
,
0000
1000
0001
0000
,
0001
0000
0010
0000
,
0010
0000
0001
0000
,
0010
0000
0100
0000
,
0100
0000
1000
0000
,
1000
0000
0010
0000
,
0010
0000
1000
0000
,
0010
0000
0100
0000
,
0100
0000
0001
0001
,
0000
0000
1000
1000
,
0000
0000
0020
0000
,
0000
0000
0000
0000
,
0030
2001
0100
3000
,
1000
0200
0010
0300
,
0100
1002
0010
0003
,
0001
0020
0100
0030
,
0010
0000
1000
0000
,
1000
0000
0001
0000
,
0001
0000
0100
0000
,
0100
0000
0010
0000
,
0000
1000
0000
0100
,
0000
1000
0000
0001
,
0000
0010
0000
0001
,
0000
0100
0000
0000
,
0000
0001
0000
0100
,
0000
0010
0000
1000
,
0000
0100
0000
0010
,
0000
0002
0000
0000
,
0003
1000
0000
0000
,
1000
0000
0000
1000
,
0000
0010
0010
0010
,
0000
0100
0000
0000
,
0000
0001
0000
0000
,
0001
0000
0000
0001
,
0000
0010
0010
0010
,
0000
0100
0000
0000
,
0000
1000
1000
0000
,
0000
0001
0001
0000
,
0000
0100
0100
0000
,
0000
0010
0010
0000
,
0000
1000
1000
1000
,
0000
0001
0001
0001
,
0000
0010
0010
0010
,
0010
0000
0000
1001
,
0000
0000
0000
0000
,
0000
1000
1000
0100
,
0001
1001
0010
0100
,
0100
0000
1000
0000
0001
0000
0200
0300
,
1001
1000
0010
0001
,
1001
0001
0100
1000
,
1001
0010
0100
0100
,
1000
0000
0001
0000
,
0010
0010
0010
0000
,
1001
0000
0000
0000
;

//--------------- dance-single - ----------------
#NOTEDATA:;
#STEPSTYPE:dance-single;
#DESCRIPTION:;
#DIFFICULTY:Easy;
#METER:7;
#RADARVALUES:0.23536,0.415103,0.057305,0.057305,0.021489,230,222,8,8,0,0,0,0,0,0.23536,0.415103,0.057305,0.057305,0.021489,230,222,8,8,0,0,0,0,0;
#CHARTNAME:;
#CHARTSTYLE:;
#CREDIT:;
#NOTES:
0000
0000
0000
0000
,
0000
0000
0000
0000
,
0000
0000
0000
0000
,
0000
0000
0000
0000
,
0000
0000
0000
0001
,
0000
1000
0000
0010
,
0100
0000
0000
1000
,
0000
0001
0000
0020
,
0130
0000
1000
1000
,
0010
0100
0001
0001
,
0010
0100
1000
0100
,
0001
0010
1000
1000
,
0001
0001
0100
0100
,
0010
1000
0100
0100
,
0010
0001
1000
0010
,
0001
0100
1000
1000
,
0001
0000
0010
0010
,
0100
0000
0100
0000
1000
0001
1000
0000
,
0001
1000
0001
0000
0200
0000
0000
0000
,
0000
0000
0000
0000
,
0300
0000
0000
0000
0010
0000
0000
0000
0010
0000
0000
0100
0000
0000
0100
0000
,
0110
0000
0000
0000
2000
0000
0000
0000
3010
0000
0000
0001
0000
0000
0001
0000
,
0100
0000
0000
0000
0010
0000
0000
0000
0001
0000
0000
0001
0000
0000
0001
0000
,
1001
0000
0000
0000
1000
0000
0000
0000
0010
0000
0000
0100
0000
0100
0000
0000
,
1001
0000
1000
0000
,
0001
0000
0100
0000
,
0100
0000
0010
0000
,
1000
0000
0001
0000
,
0000
1000
1000
0100
,
0100
0001
0001
0100
,
0100
1000
0010
0001
,
0010
0100
0100
0001
,
0001
0000
0010
0001
0010
0000
0100
0000
,
0100
0000
1000
0010
1000
0000
0001
0000
,
0001
1000
0100
0001
,
0010
2000
0000
0000
,
3001
0010
0010
0010
,
0001
1000
1000
1000
,
1000
0001
0001
0100
,
0010
1000
2000
0000
,
3010
0001
0100
0001
,
0010
0100
1000
0100
,
1000
0001
0100
1000
,
0010
0000
0001
0000
0001
0000
1000
0001
,
1000
0010
0010
1000
,
0100
0010
0010
0001
,
0100
0010
0010
1000
,
0100
0010
0010
0001
,
1000
0000
0001
0100
0001
0000
1000
0100
,
1000
0000
0001
0100
0001
0000
1000
0100
,
1000
0002
0000
2000
,
0000
3003
0000
0000
,
0000
0000
0000
0000
,
0000
0000
1001
0000
1000
0100
1000
0001
,
0100
0100
0110
0000
0001
0010
1000
0010
,
0001
0001
2000
0000
3010
1000
0100
0000
,
1001
0001
0100
1000
0100
0001
0010
0010
,
0100
0000
1000
0000
0001
0000
0001
0000
1000
0001
1000
0000
0100
0000
0000
0000
,
1001
1000
0010
0001
0010
1000
0100
0100
,
0010
0001
0100
1000
,
0010
1000
0100
0001
,
1001
0000
0000
0000
;

//--------------- dance-single - ----------------
#NOTEDATA:;
#STEPSTYPE:dance-single;
#DESCRIPTION:;
#DIFFICULTY:Medium;
#METER:10;
#RADARVALUES:0.336667,0.633578,0.057305,0.136099,0.222057,329,321,8,19,0,0,0,0,0,0.336667,0.633578,0.057305,0.136099,0.222057,329,321,8,19,0,0,0,0,0;
#CHARTNAME:;
#CHARTSTYLE:;
#CREDIT:;
#NOTES:
0000
0000
0000
0000
,
0000
0000
0000
0000
,
0000
0000
0000
0000
,
0000
0000
0000
0000
,
0000
0000
0000
0000
0000
0000
0001
0001
0001
0100
0000
0000
,
1000
0000
1000
0000
1000
0000
0100
0000
0000
0000
0000
0000
0001
0000
0001
0000
0001
0000
1000
0000
0000
0010
0000
0000
,
0200
0000
0000
0301
0000
0000
0100
0100
0100
0001
0000
0000
,
0010
0000
0010
0000
0010
0000
0100
0000
0000
0000
0000
0000
1000
0000
1000
0000
1000
0000
0010
0000
0000
0100
0000
0000
,
0002
1003
0001
0001
,
1000
0020
0000
0100
0000
0100
0030
0100
,
0000
0001
1000
0100
0010
0000
0001
0000
,
0001
2000
0000
0100
0000
0100
3000
0100
,
0000
1000
0001
0000
1000
0000
1000
0000
,
1000
0020
0000
0100
0000
0100
0030
0100
,
0000
0100
0001
1000
0100
0000
0010
0000
,
0001
2000
0000
0100
0000
0100
3000
0100
,
0000
1000
0001
0000
1000
0000
1000
0000
,
0000
0010
0000
0100
0000
0001
0000
0001
,
0000
0001
1000
0000
0100
0000
0100
0000
,
0000
1000
0000
0002
0000
0000
0000
0000
,
0003
0000
0000
0000
0001
0010
0000
0010
0100
0000
2000
0001
0000
0000
3001
0000
,
0110
0000
0000
0000
0001
1000
0000
1000
0010
0000
0200
0001
0000
0000
0310
0000
,
1000
0000
0001
0001
1000
0001
0000
0001
0010
0000
0100
0020
0000
0000
0031
0000
,
1001
0000
0000
0000
1000
0001
0000
0001
0010
0000
0100
2000
0000
0000
0001
0000
,
3100
0000
0010
0000
,
0100
0000
0010
0000
,
0100
0000
1000
0000
,
0001
0000
1000
0000
,
0000
0001
0001
0000
1000
0000
0000
0000
1000
0000
0000
0000
0100
0000
0000
0000
,
0100
0001
0001
0100
,
1000
0010
0100
0001
,
0010
0100
0100
1000
,
1000
0000
0010
1000
0010
0000
0100
0000
,
0100
0000
0001
0010
0001
0000
1000
0000
,
1000
0001
0010
1000
,
0100
0000
0002
0000
0000
0000
0000
1000
,
1003
0000
0000
0000
0001
0000
0000
0001
0000
0000
0001
0000
0000
0001
0000
0000
,
0001
0000
0000
0000
0010
0000
0000
0010
0000
0000
0010
0000
0000
0010
0000
0000
,
0010
0000
0000
0000
0001
0000
0000
0001
0000
0000
0001
0000
0000
1000
0000
0000
,
0010
0000
0000
0000
0100
0000
0000
0100
0000
0000
0100
0000
0000
0100
0000
0000
,
0100
0000
0001
0000
1000
0100
1000
0000
,
0010
0000
0100
0001
0100
0000
0010
0000
,
0010
0000
0000
0000
1000
0000
0100
0000
0010
0000
0001
0000
0100
0000
0000
0010
,
0000
0000
2000
0000
0001
0000
0000
0001
0000
0000
0001
0000
0000
0000
0100
0000
,
3100
0000
1000
0000
1000
0000
1000
0010
,
1000
0100
1000
0001
1000
0001
1000
0001
,
1000
0000
0001
0000
0001
0000
0001
0100
,
0001
1000
0001
0100
0001
0100
0001
1000
,
0001
0000
1000
0010
0100
0000
0001
0010
,
0100
0000
1000
0001
0010
0000
0001
1000
,
0010
0000
1000
0001
1000
0001
0200
0000
,
0000
0300
0000
1001
,
0000
0000
0000
0000
,
0000
0000
0000
0000
1000
0000
0010
0100
0001
0001
1000
0000
0001
0001
1000
0000
,
0020
0000
0130
0000
0011
0000
1000
0001
0020
0000
0130
1000
0001
0100
0010
0000
,
1000
0001
1000
0100
0100
0000
1000
0010
0100
0001
1000
0100
0000
0000
0000
0000
,
1001
0000
1000
0010
0001
0010
1000
0000
0001
0010
1000
0010
0001
1000
1000
0001
,
0200
0000
0301
0010
0100
0000
0100
1000
0001
0100
0001
1000
0100
1000
0000
0000
,
1001
0000
0100
0010
1000
0000
0010
0100
1000
0100
0001
0100
0020
0000
0130
0000
,
2001
0001
0100
0100
,
0010
0000
3010
0000
1000
0001
0010
0000
,
0110
0000
0000
0000
;

//--------------- dance-single - ----------------
#NOTEDATA:;
#STEPSTYPE:dance-single;
#DESCRIPTION:;
#DIFFICULTY:Hard;
#METER:13;
#RADARVALUES:0.412391,0.742815,0.157589,0.085957,0.358156,403,381,22,12,0,0,5,0,0,0.412391,0.742815,0.157589,0.085957,0.358156,403,381,22,12,0,0,5,0,0;
#CHARTNAME:;
#CHARTSTYLE:;
#CREDIT:;
#NOTES:
0000
0000
0000
0000
,
0000
0000
0000
0000
,
0000
0000
0000
0000
,
0000
0000
0000
0000
,
0000
0000
0000
0000
0000
0000
1000
0100
0010
0001
0000
0000
,
0001
0000
0100
0000
0010
0000
1000
0000
0000
0000
0000
0000
1000
0000
0010
0000
0100
0000
0001
0000
0000
0010
0000
0000
,
0200
0000
0000
1300
0000
0000
0100
0010
0001
0100
0000
0000
,
0100
0000
0010
0000
1000
0000
0100
0000
0000
0000
0000
0000
0100
0000
1000
0000
0001
0000
0010
0000
0000
0001
0000
0000
,
0200
0000
0310
0000
1000
0000
1000
0100
,
1000
0000
0001
0000
0001
0100
0001
0000
,
0010
0000
0010
0000
0100
1000
0001
1000
,
0010
0000
0000
1000
0000
0000
0100
0000
1000
0000
0000
0000
1000
0000
0000
0000
,
0001
0000
0001
0000
0100
0000
0100
0010
,
0100
0000
0001
0000
0010
0100
0010
0000
,
0100
0000
0100
0000
1000
0100
0010
0001
,
1000
0000
0000
0010
0000
0000
0100
0000
0001
0000
0000
0000
0001
0000
0000
0000
,
1000
0100
1000
0000
0010
1000
0010
1000
,
0001
0100
0001
0100
0001
0001
0010
0010
,
0100
0100
1000
2000
0002
0000
0000
0000
,
0000
0000
0000
0000
,
3003
0000
0000
0000
1000
0010
0000
0010
1000
0100
0010
0001
0100
0010
0000
0010
,
1000
0001
0010
0100
1000
0000
1000
0100
0001
1000
0010
0001
0000
0001
0100
0000
,
0020
0000
0100
0130
0001
0010
0000
0010
0001
1000
0010
0001
0000
0001
0010
0100
,
0001
0000
1000
0000
0100
0000
0010
0100
0010
0000
0000
0000
0001
0000
1000
0000
0010
0000
0001
0000
1000
0000
0100
0000
0000
0000
0100
0000
0001
0000
1000
0000
,
0001
0000
1000
0000
,
0010
0000
0001
0000
,
0010
0000
1000
0000
,
0100
0000
0001
0000
,
0000
0100
0100
0000
1000
0000
0000
0000
1000
0000
0000
0000
0001
0000
0000
0000
,
0001
0100
0100
0010
,
0010
1000
1000
0001
,
0001
0010
0010
0100
,
0100
0000
1000
0100
1000
0000
1000
0001
,
1000
0000
0001
0010
0001
0000
0001
0100
,
0001
0000
1000
0010
0100
0001
0010
0100
,
2000
0000
0001
0000
0100
0000
3100
1000
,
1000
0000
0000
0000
0001
0000
0000
0001
0000
0000
0001
0000
0000
0001
0000
0000
,
0001
0000
0010
0000
0100
0000
0000
0100
0000
0000
0100
0000
0000
0100
0000
0000
,
0100
0000
0000
0000
1000
0000
0000
1000
0000
0000
1000
0000
0000
0001
0000
0000
,
1000
0000
0010
0000
0100
0000
0000
0100
0000
0000
0100
0000
0000
0010
0100
0000
,
0100
0000
0000
0000
0001
0000
0000
0100
0001
0000
0100
0000
0000
0001
0000
0000
,
1000
0000
0100
0000
0010
0000
0000
0010
0001
0000
0010
0000
0000
0100
0000
0000
,
1000
0000
0000
0000
0001
0000
0000
0001
0010
0000
0100
0000
0000
1000
0000
0000
,
0010
0000
0100
0000
0001
0000
0000
0001
0000
0000
1000
0000
0000
1000
0000
0000
,
1001
0000
0000
0000
1010
0000
0000
0010
1000
0000
0010
0000
1000
0000
0010
0000
,
0001
0000
0010
0000
0100
0000
0000
0001
0100
0000
0001
0000
0100
0000
0001
0000
,
0010
0000
0000
0000
0011
0000
0000
0010
0001
0000
0010
0000
0001
0000
0010
0000
,
1000
0000
0010
0000
0100
0000
0000
1000
0100
0000
1000
0000
0100
0000
1000
0000
,
0001
0000
1010
0010
1010
0000
0011
0010
,
0011
0000
1100
0100
1100
0000
0101
0100
,
0101
0000
0000
0000
1000
0000
1000
0000
0001
0000
0001
0000
1000
0010
1000
0010
,
1000
0010
1000
0010
0100
0000
0000
0000
0000
0000
0000
0000
0110
0000
0000
0000
,
0000
0000
0000
0000
,
0000
0000
0000
0000
1010
0000
0004
0000
0103
0100
0010
1000
0100
0100
0010
0001
,
0400
0000
0000
0000
1300
0000
0000
0000
1010
0000
0000
0000
0100
0000
0001
0000
0010
0000
0000
0000
0010
0001
0010
0000
0100
0000
0100
0000
1000
0000
0001
0000
,
0041
0000
0130
1000
2001
0000
3001
0100
1000
0001
0010
1000
0100
0000
0000
0000
,
0012
0000
4003
0000
3100
0001
0100
0000
0100
1000
0100
0010
0004
0000
0000
1003
,
1010
0000
0000
0000
0001
0000
1000
0000
0010
0000
0000
0000
1000
0000
0010
0000
0100
0001
0100
0010
1000
0000
0100
0000
1200
0000
0000
0000
0310
0000
0000
0000
,
1002
0000
1003
0100
0001
0100
1000
0010
0001
0010
0100
0010
1000
0001
0001
0100
,
0120
0000
0000
1000
0000
0000
0100
0000
0000
0001
0000
0000
0130
0000
0010
0000
,
0200
0000
0000
1000
0000
0000
0001
0000
0000
0310
0000
0000
0100
0000
0000
0000
,
1001
0000
0000
0000
;
