#TITLE:Wake Up Call;
#SUBTITLE:(Extended);
#ARTIST:Hardwell;
#TITLETRANSLIT:;
#SUBTITLETRANSLIT:;
#ARTISTTRANSLIT:;
#GENRE:Big Room Hardstyle;
#CREDIT:darkanine;
#MUSIC:Wake Up Call (Extended).ogg;
#BANNER:Wake Up Call (Extended).png;
#BACKGROUND:Wake Up Call (Extended)-bg.png;
#CDTITLE:;
#SAMPLESTART:46.154;
#SAMPLELENGTH:29.538;
#SELECTABLE:YES;
#OFFSET:-1.846;
#BPMS:0.000=130.000
,160.000=130.219
,164.000=130.656
,168.000=131.094
,172.000=131.531
,176.000=131.969
,180.000=132.406
,184.000=132.844
,188.000=133.281
,192.000=133.680
,193.000=134.039
,194.000=134.398
,195.000=134.758
,196.000=135.117
,197.000=135.476
,198.000=135.836
,199.000=136.195
,200.000=136.555
,201.000=136.914
,202.000=137.273
,203.000=137.633
,204.000=137.992
,205.000=138.351
,206.000=138.711
,207.000=139.070
,208.000=139.430
,209.000=139.789
,210.000=140.148
,211.000=140.508
,212.000=140.867
,213.000=141.226
,214.000=141.586
,215.000=141.945
,216.000=142.305
,217.000=142.664
,218.000=143.023
,219.000=143.383
,220.000=143.742
,221.000=144.101
,222.000=144.461
,223.000=144.820
,224.000=145.000
,296.000=145.167
,298.000=145.500
,300.000=145.833
,302.000=146.167
,304.000=146.500
,306.000=146.833
,308.000=147.167
,310.000=147.500
,312.000=147.833
,314.000=148.167
,316.000=148.500
,318.000=148.833
,320.000=149.167
,322.000=149.500
,324.000=149.833
,326.000=150.000
;
#STOPS:;
#BGCHANGES:0.000=./../../RandomMovies/edmixspace1.mp4=0.000=0=0=0=StretchNoLoop====,
32.000=./../../RandomMovies/edmixspeakers1.mp4=0.000=0=0=0=StretchNoLoop====,
64.000=./../../RandomMovies/edmixstars1.mp4=0.000=0=0=0=StretchNoLoop====,
80.000=./../../RandomMovies/edmixblackhole1rev.mp4=0.000=0=0=0=StretchNoLoop====,
88.000=./../../RandomMovies/edmixlightspeed1.mp4=0.000=0=0=0=StretchNoLoop====,
96.000=./../../RandomMovies/edmixspace6.mp4=1.100=0=0=0=StretchNoLoop====,
160.000=./../../RandomMovies/edmixstars2.mp4=0.000=0=0=0=StretchNoLoop====,
192.000=./../../RandomMovies/edmixspace1.mp4=1.400=0=0=0=StretchNoLoop====,
224.000=./../../RandomMovies/edmixstars2.mp4=0.000=0=0=0=StretchNoLoop====,
232.000=./../../RandomMovies/edmixspeakers1.mp4=1.500=0=0=0=StretchNoLoop====,
260.000=./../../RandomMovies/edmixlightspeed1.mp4=0.000=0=0=0=StretchNoLoop====,
264.000=./../../RandomMovies/edmixspace6.mp4=1.600=0=0=0=StretchNoLoop====,
296.000=./../../RandomMovies/edmixstars1.mp4=0.000=0=0=0=StretchNoLoop====,
312.000=./../../RandomMovies/edmixblackhole1rev.mp4=0.000=0=0=0=StretchNoLoop====,
320.000=./../../RandomMovies/edmixstars3.mp4=8.000=0=0=0=StretchNoLoop====,
328.000=./../../RandomMovies/edmixspace6.mp4=3.000=0=0=0=StretchNoLoop====,
356.000=./../../RandomMovies/Wake Up Call (Extended).png=1.000=0=0=0=StretchNoLoop====,
360.000=./../../RandomMovies/edmixspace6.mp4=3.000=0=0=0=StretchNoLoop====,
392.000=./../../RandomMovies/edmixblack.png=0.000=0=0=1=CrossFade====,
99999.000=-nosongbg-=1.000=0=0=0=StretchNoLoop====
;
#FGCHANGES:;

//--------------- dance-single - ----------------
#NOTES:
     dance-single:
     :
     Challenge:
     16:
     0,0,0,0,0:
0000
0000
0000
0000
,
0000
0000
0000
0000
,
0000
0000
0000
0000
,
0000
0000
0000
0000
,
0000
0000
0000
0000
,
0000
0000
0000
0000
,
0000
0000
0000
0000
,
0000
0000
0000
0000
,
2000
0000
0100
3000
00M0
0000
0002
0000
0100
0003
00M0
0000
2000
0000
0100
3000
,
00M0
0000
0002
0000
0100
0003
00M0
0000
1000
0001
0010
0000
0100
0000
1000
0000
,
0020
0000
0100
0030
000M
0000
0020
0000
0100
0030
M000
0000
0020
0000
0100
0030
,
000M
0000
0020
0000
0100
0030
M000
0000
0010
0100
0001
0000
0010
0000
0100
0000
,
2000
0000
0100
3000
0010
0000
0002
0000
0100
0003
0010
0000
2000
0000
0100
3000
,
0010
0000
0002
0000
0100
0003
0010
0000
1000
0001
0010
0000
0100
0000
1000
0000
,
0020
0000
0100
0030
0001
0000
0020
0000
0100
0030
1000
0000
0020
0000
0001
0030
,
0000
0000
0020
0000
1000
0030
0000
0000
0001
0000
1000
0000
1001
0000
0100
0000
,
1100
0101
0011
1001
,
1010
0110
0101
1001
,
1000
1100
0110
0011
,
0001
0001
0001
1000
,
0001
0010
0001
0010
0001
0010
0100
0010
,
0001
0010
0100
1000
0001
0100
0010
1000
,
0001
0010
0100
1000
0001
0100
0010
1000
0001
0010
0100
1000
0010
0100
0001
0010
,
0100
1000
0100
1000
0001
1000
0001
0100
0001
0100
0010
0100
0010
1000
0001
1000
0001
0010
0100
0000
0000
0000
0000
0000
,
1001
0000
0000
1000
0010
0000
0100
0000
1000
0000
0100
0000
0010
0000
0010
0000
,
0001
0000
0001
0010
0000
0010
1000
0000
1000
0010
0100
0001
1000
0100
0010
0100
,
1000
0000
0000
1000
0001
0000
0010
0000
0100
0000
0001
0000
0100
0000
0100
0000
,
0010
0000
0010
1000
0000
1000
0010
0000
0010
0001
1000
0010
0100
0100
0010
0010
,
1000
0000
0000
1000
0010
0000
0001
0000
0010
0000
0100
0000
0010
0000
0010
0000
,
1000
0000
1000
0100
0000
0100
0010
0000
1000
0010
0100
0010
0001
0010
0100
0010
,
1000
0000
0000
1000
0010
0000
0001
0000
1000
0000
0010
0000
0100
0000
0100
0000
,
0001
0000
0000
0000
0000
0000
1000
0000
0000
1000
0000
0000
0000
0000
0000
0001
0000
0000
0001
0000
0000
0000
0000
0000
0010
0000
0000
0000
0010
0000
0000
0000
0010
0000
0000
0000
0100
0000
0000
0000
0100
0000
0000
0000
0100
0000
0000
0000
,
1001
1010
0011
1010
,
1001
1000
0100
0110
0010
0001
0101
0100
0010
0110
0001
1000
,
1001
0011
1010
0011
,
1000
0010
0100
0110
0010
1000
1100
0100
0010
0012
0000
0000
,
1003
0101
1100
0101
,
1100
0100
0001
0101
0100
1000
1001
0001
0100
1100
0010
1000
,
1010
0101
0011
1100
,
0200
0000
0000
0000
0000
0000
0310
0000
0010
0110
0000
0000
,
1001
0000
0000
0000
,
0000
0000
0000
0000
0000
0000
0000
000M
,
M000
00M0
0000
0000
0000
0000
0M00
0000
0000
0000
0000
0000
000M
0000
0000
0000
,
0000
M000
0000
0000
0M00
0000
00M0
0000
,
0000
0000
0000
0000
,
0000
0000
0000
0000
0000
0000
0000
0001
,
1000
0010
0000
0000
0000
0000
0100
0000
0000
0000
0000
0000
0001
0000
0000
0000
,
0000
0000
0000
0000
,
1M00
01M0
0000
0M01
01M0
0000
1M00
01M0
,
0000
0000
0M01
0000
01M0
0000
0000
0000
1000
0100
0010
0000
0001
0000
1000
0000
,
001M
M100
0000
M010
010M
0000
001M
M100
,
0000
0000
M010
0000
010M
0000
0000
0000
0010
0100
0001
0000
0010
0000
0001
0000
,
1M00
01M0
0000
0M01
01M0
0000
1M00
01M0
,
0000
0000
0M01
0000
01M0
0000
0000
0000
1000
0100
0010
0000
0001
0000
1000
0000
,
001M
M100
0000
M010
010M
0000
001M
10M0
,
0000
0000
M010
0000
00M1
0000
0000
0000
0010
1000
0100
0000
0010
0000
0001
0000
,
0000
0000
0000
0000
,
0000
0000
0000
0000
,
1100
0110
0000
0101
0110
0000
1100
0110
,
0000
0000
0101
0000
0110
0000
0000
0000
1000
0100
0010
0000
0001
0000
1000
0000
,
0011
1100
0000
1010
0101
0000
0011
1100
,
0000
0000
1010
0000
0101
0000
0000
0000
0010
0100
0001
0000
0010
0000
0001
0000
,
1100
0110
0000
0101
0110
0000
1100
0110
,
0000
0000
0101
0000
0110
0000
0000
0000
1000
0100
0010
0000
0001
0000
1000
0000
,
0011
1100
0000
1010
0101
0000
0011
1010
,
0000
0000
1010
0000
0011
0000
0000
0000
0010
1000
0100
0000
0010
0000
0001
0000
,
1100
0100
0110
0010
0011
0000
0101
0100
,
0110
0000
0010
0000
1010
0000
0000
0000
1000
0010
0001
0000
0010
0000
1000
0000
,
0011
0001
1001
1000
1100
0000
1010
1000
,
1001
0000
0001
0000
0101
0000
0000
0000
1000
0100
0001
0000
0100
0000
0010
0000
,
1100
1000
1001
0001
0011
0000
0101
0001
,
1001
0000
1000
0000
1010
0000
0000
0000
1000
0010
0001
0000
0010
0000
0100
0000
,
1010
0000
0110
0000
0000
0000
0011
0000
0110
0000
0000
0000
1000
0001
1001
0000
,
0000
0000
0000
0000
0000
0100
1001
0100
,
1010
1001
0011
0110
,
1100
1000
1000
1000
,
1100
1010
1001
0101
,
0011
0001
0001
0001
,
0001
0010
0001
0100
0010
1000
0100
1000
,
0010
0100
0001
0010
0001
0100
0001
1000
,
0100
1000
0001
0100
0010
1000
0001
0010
0100
1000
0010
0100
0001
0010
0100
1000
,
0020
0000
0000
0130
,
1001
0000
1010
0001
0011
1000
1010
0000
,
1000
0000
0100
0010
0000
0100
0010
0000
1000
0000
0010
0000
0100
0000
1000
0000
,
1001
0000
0011
1000
1010
0001
0011
0000
,
0001
0000
0010
0100
0000
0010
0100
0000
0001
0000
1000
0000
0010
0000
0001
0000
,
1001
0000
0101
1000
1100
0001
0101
0000
,
0001
0000
1000
0010
0000
0010
0001
0000
0001
0000
0010
0000
1000
0000
0001
0000
,
1001
0000
1100
0001
0101
1000
1100
0000
,
1000
0000
0001
0010
0000
0010
1000
0000
0020
0000
0000
0000
0130
0000
0000
0000
,
1001
0000
1010
0100
0011
0100
1010
0000
,
1000
0000
0100
0010
0001
0100
0010
0000
1000
0001
0010
0001
0100
0001
1000
0001
,
1000
0000
0011
0100
1010
0100
0011
0000
,
0001
0000
0010
0100
1000
0010
0100
0000
0001
0100
1000
0100
0010
0100
0001
1000
,
0001
0000
0101
0010
1100
0010
0101
0000
,
0001
0000
1000
0010
0100
0010
0001
0000
1000
0100
0010
0100
0001
1000
0001
0010
,
0100
0000
1100
0010
0101
0010
1100
0001
,
0020
0000
0000
0000
0130
0010
0110
1000
,
0101
0000
0000
0000
;
