#TITLE:Stars Collide;
#SUBTITLE:(XiJaro & Pitch Remix);
#ARTIST:Somna & Jennifer Rene;
#TITLETRANSLIT:;
#SUBTITLETRANSLIT:;
#ARTISTTRANSLIT:;
#GENRE:Uplifting Trance;
#CREDIT:darkanine;
#MUSIC:Stars Collide (XiJaro & Pitch Remix).ogg;
#BANNER:Stars Collide (XiJaro & Pitch Remix).png;
#BACKGROUND:Stars Collide (XiJaro & Pitch Remix)-bg.png;
#CDTITLE:;
#SAMPLESTART:85.217;
#SAMPLELENGTH:27.826;
#SELECTABLE:YES;
#OFFSET:0.000;
#BPMS:0.000=138.000
,100.000=34.500
,108.000=138.000
;
#STOPS:;
#DISPLAYBPM:138.000;
#BGCHANGES:0.000=./../../RandomMovies/edmixstars1.mp4=0.000=0=0=0=StretchNoLoop====,
4.000=./../../RandomMovies/edmixdarksky1.mp4=0.000=0=0=0=StretchNoLoop====,
36.000=./../../RandomMovies/edmixwaves1.mp4=0.000=0=0=0=StretchNoLoop====,
68.000=./../../RandomMovies/edmixglitter2.mp4=0.000=0=0=0=StretchNoLoop====,
92.000=./../../RandomMovies/edmixblackhole2.mp4=0.000=0=0=0=StretchNoLoop====,
100.000=./../../RandomMovies/edmixmoon1.mp4=0.000=0=0=0=StretchNoLoop====,
108.000=./../../RandomMovies/edmixglitter3.mp4=0.600=0=0=0=StretchNoLoop====,
140.000=./../../RandomMovies/edmixglitter4.mp4=0.000=0=0=0=StretchNoLoop====,
156.000=./../../RandomMovies/edmixtunnel1.mp4=0.000=0=0=0=StretchNoLoop====,
164.000=./../../RandomMovies/edmixtunnel2.mp4=0.000=0=0=0=StretchNoLoop====,
172.000=./../../RandomMovies/edmixspace4.mp4=2.000=0=0=0=StretchNoLoop====,
228.000=./../../RandomMovies/edmixblackhole2.mp4=0.000=0=0=0=StretchNoLoop====,
236.000=./../../RandomMovies/edmixspace4.mp4=2.100=0=0=0=StretchNoLoop====,
268.000=./../../RandomMovies/edmixblack.png=0.000=0=0=0=StretchNoLoop====,
99999.000=-nosongbg-=1.000=0=0=0=StretchNoLoop====
;
#FGCHANGES:;

//--------------- dance-single - ----------------
#NOTES:
     dance-single:
     :
     Beginner:
     5:
     0,0,0,0,0:
0000
0000
0000
0000
,
0000
0000
0000
0000
,
0000
0000
0000
0000
,
0000
0000
0000
0000
,
0000
0000
0000
0000
,
0000
0000
0000
0000
,
0000
0000
0000
0000
,
0000
0000
0000
0000
,
0000
0000
0000
0000
,
0001
0000
1000
0000
,
0100
0000
0010
0000
,
0100
0000
1000
0000
,
0001
0000
0001
0000
,
0100
0000
0010
0000
,
1000
0000
0010
0000
,
0100
0000
0100
0000
,
0100
0000
0000
0000
,
0001
0001
0001
0000
,
0010
0010
0010
0000
,
0001
0001
0001
0000
,
0100
0100
0100
0000
,
0010
0010
0010
0000
,
1000
1000
1000
0000
,
0001
0001
0001
0000
,
2000
0000
0000
0000
,
3200
2300
3002
0203
,
0302
0023
0230
2300
,
3100
0100
0000
1000
,
0010
0010
0000
0100
,
0001
0001
0000
1000
,
0100
0100
0000
0100
,
1000
1000
0000
0001
,
0100
0100
0000
0010
,
1000
1000
0000
0001
,
1000
1000
0000
1000
,
0001
0001
0001
0000
,
1000
1000
1000
0000
,
0001
0001
0001
0000
,
1000
1000
1000
0000
,
0010
0010
0010
0010
,
0100
0100
0100
0100
,
0110
0000
1001
0000
,
0110
0000
0000
0000
,
1000
0001
1000
1000
,
0001
0100
0010
0010
,
0100
0001
1000
1000
,
0100
1000
0010
0010
,
1000
0001
0100
0100
,
0001
1000
0100
0100
,
1000
0100
0010
0010
,
0001
1000
1000
0000
,
0001
1000
0100
0100
,
1000
0001
0010
0010
,
0001
0100
0010
0010
,
1000
0010
0100
0100
,
0001
0001
1000
1000
,
0001
0001
0001
0000
,
0100
0100
0100
0100
,
0200
0000
0000
0310
,
1000
0100
1000
0001
,
0100
0001
0010
0010
,
0001
1000
0100
1000
,
0001
0100
0010
0010
,
0000
0010
1000
0010
,
0000
0100
0001
0010
,
0000
0100
0010
0100
,
0000
1000
0001
0100
,
1001
0000
0000
0000
;

//--------------- dance-single - ----------------
#NOTES:
     dance-single:
     :
     Easy:
     8:
     0,0,0,0,0:
0000
0000
0000
0000
,
0000
0000
0000
0000
,
0000
0000
0000
0000
,
0000
0000
0000
0000
,
0000
0000
0000
0000
,
0000
0000
0000
0000
,
0000
0000
0000
0000
,
0000
0000
0000
0000
,
0000
0000
0000
0000
,
1000
0100
0001
0100
,
0010
1000
0010
0001
,
0100
1000
0100
0010
,
0001
0010
1000
0001
,
1000
0100
0010
0001
,
0100
0010
1000
0001
,
1000
0100
0010
0001
,
0000
0000
0000
0000
,
0001
0100
0010
1000
,
0001
0001
0010
0100
,
1000
0010
0100
0001
,
1000
1000
0100
0010
,
0001
0010
0100
1000
,
0010
0010
1000
0001
,
1000
0000
0001
0000
1000
0001
1000
0001
,
2000
0000
0000
0000
,
3001
0010
1000
0100
,
1000
0010
0001
0100
,
0100
0000
0001
0000
0100
0001
0100
0000
,
0010
0000
1000
0000
0010
1000
0010
0000
,
1000
0000
0100
0000
1000
0100
1000
0000
,
0001
0000
0010
0000
0010
0001
0010
0000
,
0001
0000
1000
0000
0001
1000
0001
0000
,
0100
0000
0010
0000
0100
0010
0100
0000
,
0010
0000
1000
0000
0010
1000
0010
0000
,
0100
0000
0001
0000
1000
0001
1000
0000
,
0100
0000
0100
0000
0100
0000
0100
0010
,
0001
0000
0001
0000
0001
0000
0001
1000
,
0010
0000
0010
0000
0010
0000
0010
0100
,
0001
0000
0001
0000
0001
0000
0001
1000
,
0100
0000
0100
1000
0001
0000
0001
1000
,
0010
0000
0010
1000
0001
0000
0001
1000
,
0200
0000
0310
0000
,
1001
0000
0000
0000
,
1000
0001
1000
0000
0010
1000
0010
0000
,
0100
0001
0100
0000
0010
0100
0010
0000
,
1000
0001
1000
0000
0100
0010
0100
0000
,
1000
0100
1000
0000
0001
0010
0001
0000
,
1000
0001
1000
0000
0001
1000
0001
0000
,
0100
0010
0100
0000
0010
1000
0010
0000
,
1000
0001
1000
0000
0001
0100
0001
0000
,
0100
0010
0100
0000
0100
0000
0000
0000
,
0001
1000
0001
0000
1000
0100
1000
0000
,
0001
0100
0001
0000
0010
0100
0010
0000
,
0001
1000
0001
0000
0100
0010
0100
0000
,
0001
0100
0001
0000
1000
0010
1000
0000
,
0001
0001
1000
1000
,
0100
0000
0010
0000
0100
0010
0100
0010
,
0200
0000
0000
0000
,
2300
0000
0000
0000
3000
0000
1000
1000
,
1000
0000
0001
0000
0100
0010
0100
0000
,
0001
1000
0001
0000
1000
0010
0100
0000
,
0001
0100
0001
0000
0100
0010
1000
0000
,
0100
1000
0100
0000
0010
0001
1000
0000
,
0010
0000
1000
0000
0001
1000
0001
0000
,
0100
0000
0001
0000
0010
0100
0010
0000
,
0001
0000
0010
0000
0100
1000
0100
0000
,
1000
0000
1000
0000
0001
0000
0001
0001
,
0001
0000
0000
0000
;

//--------------- dance-single - ----------------
#NOTES:
     dance-single:
     :
     Medium:
     11:
     0,0,0,0,0:
0000
0000
0000
0000
,
0000
0000
0000
0000
,
0000
0000
0000
0000
,
0000
0000
0000
0000
,
0000
0000
0000
0000
,
0000
0000
0000
0000
,
0000
0000
0000
0000
,
0000
0000
0000
0000
,
0000
0000
0000
0000
,
0001
0100
0001
0000
1000
0100
1000
0000
,
0001
0010
0100
0000
1000
0010
0100
0000
,
0001
1000
0010
0000
1000
0100
0010
0000
,
0001
1000
0100
0000
0010
0001
0100
0000
,
0010
1000
0001
0000
0010
0100
1000
0000
,
0001
0100
0010
0000
1000
0001
0100
0000
,
0010
0010
0010
0020
,
0000
0000
0000
0030
,
1000
0010
0100
0010
1000
0001
1000
0000
,
0001
0010
0100
0010
0001
1000
0001
0000
,
0100
0010
0100
0001
1000
0010
1000
0000
,
0100
0010
0100
1000
0001
0010
0001
0000
,
1000
0010
0100
0001
1000
0010
1000
0000
,
0001
0010
0100
1000
0001
0000
0001
0000
,
0100
0010
0100
0010
1000
0001
1000
0001
,
0020
0000
0000
0030
,
0002
0023
0230
0320
,
2030
3020
0032
2003
,
3001
0000
1000
0000
0001
0000
0000
0010
0000
0000
0001
0000
1000
0000
0001
0000
,
0000
0000
1000
0000
0001
0000
0000
0010
0000
0000
0010
0000
0100
0000
1000
0000
,
0000
0000
0001
0000
1000
0000
0000
0010
0000
0000
0100
0000
0001
0000
1000
0000
,
0000
0000
0001
0000
1000
0000
0000
0010
0000
0000
0010
0000
0100
0000
0001
0000
,
0000
0000
0100
0000
0001
0000
0000
0010
0000
0000
0001
0000
1000
0000
0100
0000
,
0000
0000
1000
0000
0100
0000
0000
0010
0000
0000
0001
0000
0001
0000
1000
0000
,
0000
0000
0100
0000
1000
0000
0000
0010
0000
0000
0100
0000
0001
0000
1000
0000
,
0000
0000
0001
0000
1000
0000
0000
0010
0000
0000
0010
0000
0100
0000
0010
0000
,
0100
0000
0100
0001
0100
0000
0100
1000
,
0100
0000
0100
0010
0100
0000
0100
0001
,
0010
0000
0010
0001
0010
0000
0010
1000
,
0010
0000
0010
0100
0010
0000
0010
0001
,
0100
0001
0100
0001
0000
1000
0100
1000
,
0100
0010
0001
0010
0000
0001
0100
0001
,
0100
0000
0110
0000
,
2002
0000
0000
3003
,
0001
0000
0100
0000
0001
0000
0000
1000
0000
0000
0001
0000
0100
0000
0001
0000
,
1000
0000
0100
0000
1000
0000
0000
0010
0000
0000
0010
0000
0100
0000
0010
0000
,
1000
0000
0001
0000
1000
0000
0000
0010
0000
0000
1000
0000
0001
0000
1000
0000
,
0100
0000
0010
0000
0001
0000
0000
0010
0000
0000
0010
0000
0100
0000
1000
0000
,
0001
0000
1000
0000
0001
0000
0000
0010
0000
0000
0001
0000
1000
0000
0001
0000
,
0100
0000
0010
0000
0100
0000
0000
0010
0000
0000
1000
0000
0001
0000
1000
0000
,
0100
0000
1000
0000
0100
0000
0000
0010
0000
0000
0100
0000
1000
0000
0001
0000
,
0100
0000
0001
0000
0100
0000
0000
0010
0000
0000
0010
0000
0100
0000
0000
0000
,
0010
0000
1000
0000
0010
0000
0000
0100
0000
0000
0001
0000
0010
0000
0001
0000
,
1000
0000
0100
0000
1000
0000
0000
0010
0000
0000
0010
0000
0100
0000
0001
0000
,
0100
0000
0010
0000
0100
0000
0000
0001
0000
0000
0010
0000
0100
0000
0010
0000
,
0001
0000
1000
0000
0001
0000
0000
0010
0000
0000
0010
0000
0100
0000
1000
0000
,
0100
0000
0010
0000
0100
0000
0000
1000
0000
0000
1000
0000
0010
0000
0100
0000
,
0010
0000
1000
0000
0010
0000
0000
0001
0000
0000
0001
0000
0010
0000
0100
0000
,
0020
0000
0000
0000
,
0200
0000
0030
0000
0000
0000
0310
0010
,
1000
0000
0100
0000
1000
0000
0000
0010
0000
0000
0100
0000
0001
0000
1000
0000
,
0001
0000
1000
0000
0100
0000
0000
0010
0000
0000
0010
0000
0001
0000
0010
0000
,
0100
0000
1000
0000
0001
0000
0000
0100
0000
0000
0001
0000
1000
0000
0010
0000
,
1000
0000
0100
0000
0010
0000
0000
0001
0000
0000
0001
0000
0010
0000
0100
0000
,
0000
0000
1000
0000
0010
0000
0000
0100
0000
0000
0100
0000
0001
0000
1000
0000
,
0000
0000
0001
0000
0010
0000
0000
1000
0000
0000
1000
0000
0010
0000
0100
0000
,
0000
0000
1000
0000
0001
0000
0000
0010
0000
0000
0010
0000
0001
0000
1000
0000
,
0000
0000
0001
0000
1000
0000
0000
0100
0000
0000
1000
0000
0010
0000
0010
0000
,
0010
0000
0000
0000
;

//--------------- dance-single - ----------------
#NOTES:
     dance-single:
     :
     Hard:
     14:
     0,0,0,0,0:
0000
0000
0000
0000
,
0000
0000
0000
0000
,
0000
0000
0000
0000
,
0000
0000
0000
0000
,
0000
0000
0000
0000
,
0000
0000
0000
0000
,
0000
0000
0000
0000
,
0000
0000
0000
0000
,
0000
0000
0000
0000
,
0001
0100
0001
0001
1000
0010
0100
0100
,
0001
0010
0001
0001
1000
0100
0010
0100
,
1000
0010
1000
1000
0001
0010
0100
0100
,
1000
0000
0100
0000
1000
0000
1000
0000
0010
0000
0100
0000
0001
1000
0001
0000
,
0010
0001
0100
0100
0010
1000
0100
0100
,
0010
0001
1000
1000
0010
0100
0002
0000
,
0010
0100
0010
2003
,
0000
0000
0000
3000
,
1000
0000
0000
1000
0010
0000
0000
0100
0001
0000
0000
0001
0010
0000
0000
0010
,
1000
0000
0000
1000
0010
0000
0000
0100
1000
0000
0000
1000
0001
0000
0000
0100
,
0001
0000
0000
0001
0100
0000
0000
0010
1000
0000
0000
1000
0100
0000
0000
0100
,
0001
0000
0000
0001
0100
0000
0000
0010
0001
0000
0000
0001
1000
0000
0000
0010
,
1000
0000
0000
1000
0100
0000
0000
0010
0001
0000
0000
0001
0100
0000
0000
0100
,
1000
0000
0000
1000
0100
0000
0000
0010
1000
0000
0000
1000
0001
0000
0000
0001
,
0100
0010
0100
0010
1000
0001
1000
0001
,
0020
0000
0000
0030
,
0002
2003
3200
0302
,
2003
3020
0230
2300
,
3001
0000
0010
0000
0100
0000
0010
0001
0000
0010
0001
0000
0100
0010
1000
0000
,
0000
0000
0001
0000
1000
0000
0100
0010
0000
0100
0010
0000
0100
1000
0001
0000
,
0000
0000
0010
0000
0100
0000
1000
0010
0000
0100
0010
0000
1000
0010
0100
0000
,
0000
0000
0001
0000
1000
0000
0001
0010
0000
0001
0010
0000
0010
0100
1000
0000
,
0000
0000
1000
0000
0100
0000
1000
0010
0000
1000
0010
0000
1000
0100
0010
0000
,
0000
0000
0100
0000
0100
0000
1000
0001
0000
0100
0010
0000
0010
1000
0100
0000
,
0000
0000
1000
0000
0001
0000
0100
0010
0000
0100
0010
0000
1000
0001
0010
0000
,
0000
0000
0001
0000
0001
0000
1000
0010
0000
1000
0010
0000
0010
0100
0001
0000
,
1000
0000
0010
0000
0100
0000
0010
0000
1000
0000
0010
0000
0100
0001
0010
0000
,
0001
0000
0010
0000
0100
0000
0010
0000
0001
0000
0010
0000
0100
1000
0010
0000
,
0100
0000
0010
0000
1000
0000
0010
0000
0100
0000
0010
0000
1000
0001
0010
0000
,
0100
0000
0010
0000
0001
0000
0010
0000
0100
0000
0010
0000
0001
0000
1000
0001
,
0100
0001
0100
0000
0010
0000
0100
0010
1000
0010
1000
0000
0010
0000
1000
0001
,
0010
0001
0010
0000
0001
0000
0010
0001
0100
0001
0100
0000
0001
0000
0100
0010
,
1000
0000
0110
0000
,
2002
0000
0000
3003
,
1000
0000
0010
0000
0100
0000
0010
1000
0000
1000
0010
0000
0100
0010
1000
0000
,
0100
0000
0010
0000
0001
0000
0010
1000
0000
1000
0010
0000
0001
0010
0100
0000
,
1000
0000
0010
0000
0001
0000
0010
1000
0000
1000
0010
0000
1000
0001
0010
0000
,
0001
0000
1000
0000
0010
0000
0001
0010
0000
0010
1000
0000
0010
1000
0001
0000
,
0010
0000
0001
0000
0100
0000
0001
0010
0000
0010
0100
0000
0100
0010
0001
0000
,
1000
0000
0001
0000
0100
0000
1000
0100
0000
0100
0001
0000
0001
1000
0100
0000
,
1000
0000
0010
0000
0100
0000
0010
1000
0000
1000
0010
0000
0100
0010
1000
0000
,
0001
0000
0010
0000
1000
0000
0010
0001
0000
0001
1000
0000
0010
1000
0001
0000
,
0100
0000
0001
0000
0010
0000
0100
1000
0000
1000
0100
0000
0010
0001
1000
0000
,
0001
0000
0100
0000
0010
0000
0001
0010
0000
0010
1000
0000
0001
0010
1000
0000
,
0010
0000
0100
0000
1000
0000
0001
0100
0000
0100
0010
0000
1000
0100
0010
0000
,
0001
0000
1000
0000
0100
0000
0010
1000
0000
1000
0010
0000
0001
0100
0010
0000
,
1000
1000
0001
0001
0010
0010
0100
0100
,
1000
0010
0001
0010
1000
1000
0001
0001
,
1000
0100
1000
0100
0010
0000
0010
0000
0001
0100
0001
0100
0010
0000
0010
0000
,
1000
0010
0100
0001
0010
0100
1000
0001
2000
0000
0000
0000
0100
0000
3100
0000
,
1000
0001
0100
0000
0010
0000
1000
0001
0000
0100
0001
0000
0100
0010
1000
0000
,
0100
0010
0001
0000
0010
0000
0100
0001
0000
0100
1000
0000
0010
0100
0001
0000
,
1000
0010
0100
0000
1000
0000
0100
0010
0000
1000
0010
0000
0100
0001
0010
0000
,
0100
0010
0001
0000
0100
0000
0010
0001
0000
0010
1000
0000
0010
1000
0100
0000
,
0000
0000
1000
0000
0100
0000
0010
1000
0000
1000
0010
0000
0100
1000
0001
0000
,
0000
0000
0100
0000
1000
0000
0001
0010
0000
0010
1000
0000
0001
0010
1000
0000
,
0000
0000
0010
0000
0001
0000
0100
0010
0000
0010
1000
0000
0100
0010
0001
0000
,
0001
0000
1000
0000
1000
0000
0010
0100
0020
0000
0000
0000
0130
0000
0100
0000
,
1001
0000
0000
0000
;
