#TITLE:Stardust;
#SUBTITLE:;
#ARTIST:Lucas & Steve x Madison Mars;
#TITLETRANSLIT:;
#SUBTITLETRANSLIT:;
#ARTISTTRANSLIT:;
#GENRE:Future Bounce;
#CREDIT:darkanine;
#BANNER:Stardust.png;
#BACKGROUND:Stardust-bg.png;
#LYRICSPATH:;
#CDTITLE:./../EDMix1title.png;
#MUSIC:Stardust.ogg;
#OFFSET:0.000000;
#SAMPLESTART:30.476;
#SAMPLELENGTH:24.762;
#SELECTABLE:YES;
#BPMS:0.000000=125.999992
;
#STOPS:163.833328=0.476000
;
#BGCHANGES:0.000=./../../RandomMovies/edmixcircleglow1.mp4=0.000=0=0=0=StretchNoLoop====,
16.000=./../../RandomMovies/edmixsphere1.mp4=0.000=0=0=0=StretchNoLoop====,
32.000=./../../RandomMovies/edmixrgb1.mp4=0.000=0=0=0=StretchNoLoop====,
48.000=./../../RandomMovies/edmixsupernova1.mp4=0.000=0=0=0=StretchNoLoop====,
56.000=./../../RandomMovies/edmixlightspeed1.mp4=0.000=0=0=0=StretchNoLoop====,
60.000=./../../RandomMovies/edmixmosaic1.mp4=0.000=0=0=0=StretchNoLoop====,
63.000=./../../RandomMovies/edmixsupernova2.mp4=0.000=0=0=0=StretchNoLoop====,
72.000=./../../RandomMovies/edmixicosahedron1.mp4=0.000=0=0=0=StretchNoLoop====,
80.000=./../../RandomMovies/edmixmixer1.mp4=0.000=0=0=0=StretchNoLoop====,
96.000=./../../RandomMovies/edmixmosaic1.mp4=0.000=0=0=0=StretchNoLoop====,
100.000=./../../RandomMovies/edmixconfetti1.mp4=0.000=0=0=0=StretchNoLoop====,
116.000=./../../RandomMovies/edmixsphere1.mp4=0.000=0=0=0=StretchNoLoop====,
132.000=./../../RandomMovies/edmixconfetti2.mp4=0.000=0=0=0=StretchNoLoop====,
148.000=./../../RandomMovies/edmixsupernova1.mp4=0.000=0=0=0=StretchNoLoop====,
156.000=./../../RandomMovies/edmixlightspeed1.mp4=0.000=0=0=0=StretchNoLoop====,
160.000=./../../RandomMovies/edmixrgb1.mp4=0.000=0=0=0=StretchNoLoop====,
164.000=./../../RandomMovies/edmixfirework1.mp4=0.000=0=0=0=StretchNoLoop====,
165.000=./../../RandomMovies/edmixmixer1.mp4=0.000=0=0=0=StretchNoLoop====,
179.000=./../../RandomMovies/edmixicosahedron1.mp4=0.000=0=0=0=StretchNoLoop====,
191.000=./../../RandomMovies/edmixsupernova1.mp4=0.000=0=0=0=StretchNoLoop====,
195.000=./../../RandomMovies/edmixcircleglow1.mp4=0.000=0=0=0=StretchNoLoop====,
211.000=./../../RandomMovies/edmixsphere1.mp4=0.000=0=0=0=StretchNoLoop====,
223.000=./../../RandomMovies/edmixmosaic1.mp4=0.000=0=0=0=StretchNoLoop====,
227.000=edmixblack.png=0.000=0=0=0=StretchNoLoop====,
99999=-nosongbg-=1.000=0=0=0 // don't automatically add -songbackground-
;
#KEYSOUNDS:;
#ATTACKS:;

//---------------dance-single - ----------------
#NOTES:
     dance-single:
     :
     Beginner:
     2:
     0.132542,0.178127,0.009008,0.009008,0.000000,103.000000,102.000000,1.000000,1.000000,0.000000,0.000000,0.132542,0.178127,0.009008,0.009008,0.000000,103.000000,102.000000,1.000000,1.000000,0.000000,0.000000:
0000
0000
0000
0000
,
0000
0000
0000
0000
,
0000
0000
0000
0000
,
0000
0000
0000
0000
,
1000
0000
0000
0000
,
0001
0000
0000
0000
,
1000
0000
0000
0000
,
0010
0000
0000
0000
,
0001
0000
0001
0000
,
1000
0000
0100
0000
,
1000
0000
1000
0000
,
0010
0000
0100
0000
,
0001
0000
0100
0000
,
1000
0000
0100
0000
,
0001
0000
0010
0010
,
0010
0000
0000
0000
,
1000
0000
0100
0000
,
1000
1000
1000
0000
,
0001
0000
0100
0000
,
0010
0010
0010
0000
,
0000
1000
1000
0000
,
0001
0001
0001
0000
,
1000
0000
0010
0000
,
0200
0000
0300
0100
,
0000
0000
0000
0000
,
0001
0000
0000
0000
,
0100
0000
0000
0000
,
1000
0000
0000
0000
,
0010
0000
0000
0000
,
0001
0000
0001
0000
,
0010
0000
0000
0000
,
1000
0000
1000
0000
,
0100
0000
0000
0000
,
0001
0000
0010
0000
,
1000
0000
0100
0000
,
0001
0000
0100
0000
,
1000
0000
0100
0000
,
0001
0000
0010
0000
,
1000
0000
0010
0000
,
0001
0000
0100
0100
,
0100
0000
0000
0000
,
0000
0001
0000
1000
,
1000
1000
0000
0010
,
0010
0010
0000
0100
,
0100
0100
0000
0000
,
0001
0001
0000
0010
,
0010
0010
0000
0100
,
0100
0100
0000
1000
,
1000
1000
0000
0000
,
1000
0000
0001
0000
,
0100
0000
0100
0000
,
0001
0000
1000
0000
,
0100
0000
0100
0000
,
1000
0000
0100
0000
,
0010
0000
0010
0000
,
0001
0000
0100
0000
,
0010
0000
1001
0000
;

//---------------dance-single - ----------------
#NOTES:
     dance-single:
     :
     Easy:
     6:
     0.261224,0.332272,0.162139,0.126108,0.036031,203.000000,185.000000,18.000000,14.000000,0.000000,0.000000,0.261224,0.332272,0.162139,0.126108,0.036031,203.000000,185.000000,18.000000,14.000000,0.000000,0.000000:
// measure 0
0000
0000
0000
0000
,  // measure 1
0000
0000
0000
0000
,  // measure 2
0000
0000
0000
0000
,  // measure 3
0000
0000
0000
0000
,  // measure 4
1000
0000
0000
1000
0000
0000
0000
0000
,  // measure 5
0001
0000
0000
0001
0000
0000
0000
0000
,  // measure 6
0100
0000
0000
0100
0000
0000
0000
0000
,  // measure 7
0010
0000
0000
0010
0000
0000
0000
0000
,  // measure 8
1000
0100
1000
1000
,  // measure 9
0001
0100
0010
0000
,  // measure 10
0010
1000
0100
0100
,  // measure 11
0010
0001
1000
0000
,  // measure 12
1000
0000
0100
0010
0100
0000
1000
0010
,  // measure 13
1000
0000
0001
0010
0001
0000
0100
0010
,  // measure 14
0200
0010
0010
0010
,  // measure 15
0310
0000
0000
0000
,  // measure 16
1010
0010
1000
0001
,  // measure 17
0010
0010
0110
0000
,  // measure 18
0011
0010
0100
1000
,  // measure 19
0010
0100
0102
1003
,  // measure 20
0000
1001
0010
0010
,  // measure 21
0100
0100
0110
0000
,  // measure 22
1001
1000
0100
0010
,  // measure 23
1000
0010
0012
0103
,  // measure 24
0000
0000
0000
0000
,  // measure 25
2000
0000
0000
0100
0000
0000
0000
0000
3100
0000
0000
0000
0000
0000
0000
0000
,  // measure 26
0002
0000
0000
0010
0000
0000
0000
0000
1003
0000
0000
0000
0000
0000
0000
0000
,  // measure 27
0002
0000
0000
0100
0000
0000
0000
0000
0103
0000
0000
0000
0000
0000
0000
0000
,  // measure 28
2000
0000
0000
0010
0000
0000
0000
0000
3100
0000
0000
0000
0000
0000
0000
0000
,  // measure 29
0002
0000
0000
0010
0000
0000
0000
0000
0103
0000
0000
0000
0000
0000
0000
0000
,  // measure 30
2000
0000
0000
0010
0000
0000
0000
0000
3100
0000
0000
0000
0000
0000
0000
0000
,  // measure 31
0001
0000
0000
0020
0000
0000
0000
0000
0130
0000
0000
0000
0000
0000
0000
0000
,  // measure 32
1000
0000
0000
0020
0000
0000
0000
0000
0130
0000
0000
0000
0010
0000
0000
0000
,  // measure 33
1000
0010
0001
0010
,  // measure 34
0100
0001
0010
1000
,  // measure 35
1000
0100
0100
0001
,  // measure 36
0001
0010
0010
1000
,  // measure 37
1000
0000
0100
0010
1000
0000
0100
0010
,  // measure 38
0001
0000
0100
0010
1000
0000
0100
0010
,  // measure 39
0002
1000
1000
1000
,  // measure 40
1003
0000
0000
0000
,  // measure 41
1001
0100
0100
0010
,  // measure 42
0100
0100
0000
1001
,  // measure 43
0001
0100
0010
0001
,  // measure 44
0010
2010
3001
0000
,  // measure 45
0011
0010
0100
0010
,  // measure 46
0010
0001
0000
1010
,  // measure 47
0010
0100
0001
0010
,  // measure 48
1000
1100
0000
0100
,  // measure 49
0100
1000
0001
0100
,  // measure 50
0100
0010
0101
1000
,  // measure 51
1000
0010
0100
0001
,  // measure 52
0001
0010
1100
0100
,  // measure 53
0100
1000
0010
0100
,  // measure 54
0100
0001
1010
1000
,  // measure 55
1000
0100
0010
1000
,  // measure 56
1000
0010
0012
0003
;

//---------------dance-single - ----------------
#NOTES:
     dance-single:
     :
     Medium:
     9:
     0.380897,0.432595,0.153131,0.153131,0.144123,296.000000,279.000000,17.000000,17.000000,0.000000,0.000000,0.380897,0.432595,0.153131,0.153131,0.144123,296.000000,279.000000,17.000000,17.000000,0.000000,0.000000:
0000
0000
0000
0000
,
0000
0000
0000
0000
,
0000
0000
0000
0000
,
0000
0000
0000
0000
,
2000
0000
0000
3100
0000
0000
0000
0000
,
0002
0000
0000
0103
0000
0000
0000
0000
,
2000
0000
0000
3010
0000
0000
1000
0010
,
0200
0000
0000
0010
0000
0000
0301
0000
0000
0000
0000
0000
0000
0000
0000
0000
,
0001
0000
0000
0000
0000
0100
0000
0000
0000
0010
0000
0000
1000
0000
0000
0000
0000
0000
0001
0000
0000
1000
0000
0000
,
0100
0000
0000
0000
0000
1000
0000
0000
0000
0001
0000
0000
1000
0000
0000
0000
0000
0000
0000
0000
0000
0000
0000
0000
,
1000
0000
0000
0000
0000
0010
0000
0000
0000
0100
0000
0000
0001
0000
0000
0000
0000
0000
1000
0000
0000
0001
0000
0000
,
0010
0000
0000
0000
0000
0100
0000
0000
0000
1000
0000
0000
0001
0000
0000
0000
0000
0000
0000
0000
0000
0000
0000
0000
,
1000
0000
0000
0000
0000
1000
0010
0000
0000
0000
0000
0010
0001
0000
0000
0000
0000
0001
0010
0000
0000
0000
0000
0010
,
1000
0000
0000
0000
0000
1000
0100
0000
0000
0000
0000
0100
0001
0000
0000
0000
0000
0001
0100
0000
0000
0000
0000
0100
,
1000
1000
0001
0001
0010
0010
0100
0100
,
1000
1000
1000
0000
,
1010
0000
1000
0001
0100
0000
0010
1000
,
0100
0000
0001
0100
2000
0000
3001
0000
,
1001
0000
0001
0100
0010
0000
1000
0010
,
0001
0000
0010
1000
0200
0000
1300
0000
,
0000
0000
1001
0000
0100
0000
1000
0001
,
0100
0000
0010
1000
0002
0000
0103
0000
,
1100
0000
0010
0001
0100
0000
0001
0000
,
1000
0000
0000
0000
0000
0010
0100
0000
0000
0001
0000
0000
0020
0000
0000
0000
0000
0000
0130
0000
0000
0000
0000
0000
,
0000
0000
0000
0000
,
1000
0000
0000
0000
0000
1000
0000
0000
0000
0100
0000
0000
0010
0000
0000
0000
0000
0000
0001
0000
0000
0100
0000
0000
,
0010
0000
0000
0000
0000
0010
0000
0000
0000
1000
0000
0000
0001
0000
0000
0000
0000
0000
0000
0000
0000
0000
0000
0000
,
1000
0000
0000
0000
0000
1000
0000
0000
0000
0010
0000
0000
0100
0000
0000
0000
0000
0000
0001
0000
0000
0010
0000
0000
,
0100
0000
0000
0000
0000
0010
0000
0000
0000
0001
0000
0000
1000
0000
0000
0000
0000
0000
0000
0000
0000
0000
0000
0000
,
0001
0000
0000
0000
0000
0001
0000
0000
0000
0010
0000
0000
0100
0000
0000
0000
0000
0000
1000
0000
0000
0100
0000
0000
,
0010
0000
0000
0000
0000
0010
0000
0000
0000
0001
0000
0000
1000
0000
0000
0000
0000
0000
0000
0000
0000
0000
0000
0000
,
0001
0000
0000
0000
0000
0010
0000
0000
0000
0100
0000
0000
0100
0000
0000
0000
0000
0000
1000
0000
0000
0010
0000
0000
,
0100
0000
0000
0000
0000
0010
0000
0000
0000
1000
0000
0000
0200
0000
0000
0000
0000
0000
0310
0000
0000
0000
0000
0000
,
0001
0000
0000
0000
0000
0001
0000
0000
0000
1000
0000
0000
0010
0000
0000
0000
0000
0000
0010
0000
0000
1000
0000
0000
,
0100
0000
0000
0000
0000
0100
0000
0000
0000
0010
0000
0000
0001
0000
0000
0010
0000
0000
0100
0000
0000
0010
0000
0000
,
0001
1000
0010
1000
0001
0100
0010
0100
,
0001
0010
1000
0010
0001
0100
1000
0100
,
0001
0000
0000
0000
0000
0001
0100
0000
0000
0000
0000
0100
0010
0000
0000
0000
0000
0010
1000
0000
0000
0000
0000
1000
,
0100
0000
0000
0000
0000
0100
0010
0000
0000
0000
0000
0010
0001
0000
0000
0000
0000
0001
1000
0000
0000
0000
0000
1000
,
0010
0010
0100
0100
0010
0010
1000
1000
,
0001
0001
0001
0000
,
1000
0001
0100
0000
0010
1000
0100
0000
,
0100
1000
0002
0000
0103
0000
0110
0000
,
1000
0100
0010
0000
0001
0010
1000
0000
,
0010
0100
2000
0000
3001
0000
0000
0000
,
0001
1000
0100
0000
1000
0001
0010
0000
,
0010
0100
2000
0000
3001
0000
1000
0000
,
0010
0100
0001
0000
1000
0100
0010
0000
,
1000
0010
0002
0000
0103
0000
1001
0000
,
1000
0010
0001
0000
0110
0000
0101
0000
,
0001
0010
0200
0000
1300
0000
0011
0000
,
0001
1000
0010
0000
0110
0000
0101
0000
,
0001
1000
0200
0000
0310
0000
1001
0000
,
1000
0100
0001
0000
0110
0000
1100
0000
,
0001
1000
0020
0000
0130
0000
1010
0000
,
0010
1000
0100
0000
1100
0000
0101
0000
,
0100
0001
0020
0000
0130
0000
0000
0000
;

//---------------dance-single - ----------------
#NOTES:
     dance-single:
     :
     Hard:
     12:
     0.486416,0.690103,0.351301,0.180154,0.495424,378.000000,339.000000,39.000000,20.000000,0.000000,0.000000,0.486416,0.690103,0.351301,0.180154,0.495424,378.000000,339.000000,39.000000,20.000000,0.000000,0.000000:
0000
0000
0000
0000
,
0000
0000
0000
0000
,
0000
0000
0000
0000
,
0000
0000
0000
0000
,
2000
0000
0000
3001
0000
0000
0000
0000
,
0020
0000
0000
0130
0000
0000
0000
0000
,
0002
0000
0000
1003
0000
0000
0100
0001
,
0010
0000
0000
0100
0000
0000
1000
0000
0000
0000
0000
0000
0000
0000
0000
0000
,
2001
0000
0000
0000
0000
3010
0000
0000
0000
1000
0000
0000
0000
0000
0001
0000
0000
0001
0100
0000
0000
0010
0000
0000
,
0000
0000
1000
0000
0000
1000
0100
0000
0000
0010
0000
0000
0000
0000
0001
0000
0000
0001
1000
0000
0000
0001
0000
0000
,
0000
0000
0010
0000
0000
0010
0100
0000
0000
0010
0000
0000
0000
0000
0001
0000
0000
0001
0100
0000
0000
0010
0000
0000
,
0000
0000
1000
0000
0000
1000
0010
0000
0000
0100
0000
0000
0000
0000
0001
0000
0000
0001
1000
0000
0000
0010
0000
0000
,
1000
0000
0001
0000
0000
0010
0001
0000
1000
0000
0000
0010
1000
0000
0001
0000
0000
0010
0001
0000
1000
0000
0000
0010
,
1000
0000
0100
0000
0000
0010
0001
0000
0100
0000
0000
0010
1000
0000
0100
0000
0000
0010
0001
0000
0100
0000
0000
0010
,
1000
0000
0001
1000
0000
0100
0010
0000
0100
0010
0000
0004
4000
0000
0000
0000
0000
0000
0000
0000
0000
0000
0000
0000
,
3003
0000
0000
0001
,
0110
0000
0000
0000
0000
0000
0000
0000
0000
0000
1010
0000
0000
0000
0000
0000
0000
0000
0001
0000
0000
0000
0000
0000
1000
0000
0000
0100
0000
0000
0000
0000
0000
0000
0000
0000
1000
0000
0000
0000
0000
0000
0010
0000
0000
0000
0000
0000
,
0100
0000
0000
0000
0000
0110
0000
0000
0000
0010
0000
0000
1000
0000
0000
0001
0000
0000
1001
0000
0000
0000
0000
0000
,
0100
0000
0000
0000
0000
0000
0000
0000
0000
0000
0110
0000
0000
0000
0000
0000
0000
0000
1000
0000
0000
0000
0000
0000
0001
0000
0000
0100
0000
0000
0000
0000
0000
0000
0000
0000
0001
0000
0000
0000
0000
0000
1000
0000
0000
0000
0000
0000
,
0010
0000
0000
0000
0000
0000
0000
0000
0000
0010
0001
0000
0000
0000
0000
0000
0000
0000
1000
0000
0000
0000
0000
0000
1100
0000
0000
0000
0000
0000
0100
0000
0000
0000
0000
0000
0010
0000
0000
0000
0000
0000
0000
0000
0000
0000
0000
0000
,
0010
0000
0100
0000
1001
0000
1000
0000
0100
0010
0000
0000
0001
0000
0010
0000
,
0100
0000
0000
0000
0000
1100
0000
0000
0000
0001
0000
0000
0100
0000
0000
0000
0000
0000
1001
0000
0000
0000
0000
0000
,
0010
0000
0000
0000
0000
0000
0000
0000
0000
0000
0101
0000
0000
0000
0000
0000
0000
0000
0100
0000
0000
0000
0000
0000
0001
0000
0000
1000
0000
0000
0000
0000
0000
0000
0000
0000
1000
0000
0000
0000
0000
0000
0001
0000
0000
0000
0000
0000
,
0010
0000
0000
0000
0000
0000
0000
0000
0000
0010
1000
0000
0000
0000
0000
0000
0000
0000
0001
0000
0000
0000
0000
0000
0120
0000
0000
0000
0000
0000
0000
0000
0000
0000
0000
0000
0031
0000
0000
0000
0000
0000
0000
0000
0000
0000
0000
0000
,
0200
0000
0000
0300
,
0001
0000
0000
0000
0000
0000
0000
0000
0000
0000
0001
0000
0000
0000
0000
0000
0000
0000
0100
0000
0000
0000
0000
0000
0010
0000
0000
1000
0000
0000
0000
0000
0000
0000
0000
0000
0100
0000
0000
0000
0000
0000
0010
0000
0000
0000
0000
0000
,
0001
0000
0000
0000
0000
0001
0000
0000
0000
0010
0000
0000
0200
0000
0000
0000
0000
0000
0300
0000
0000
0000
0000
0000
,
1000
0000
0000
0000
0000
0000
0000
0000
0000
0000
1000
0000
0000
0000
0000
0000
0000
0000
0001
0000
0000
0000
0000
0000
0100
0000
0000
0010
0000
0000
0000
0000
0000
0000
0000
0000
1000
0000
0000
0000
0000
0000
0100
0000
0000
0000
0000
0000
,
0001
0000
0000
0000
0000
0100
0000
0000
0000
1000
0000
0000
0002
0000
0000
0000
0000
0000
1003
0000
0000
0000
0000
0000
,
0001
0000
0000
0000
0000
0000
0000
0000
0000
0000
0010
0000
0000
0000
0000
0000
0000
0000
0100
0000
0000
0000
0000
0000
1000
0000
0000
0001
0000
0000
0000
0000
0000
0000
0000
0000
1000
0000
0000
0000
0000
0000
0100
0000
0000
0000
0000
0000
,
0010
0000
0000
0000
0000
0010
0000
0000
0000
0001
0000
0000
0200
0000
0000
0000
0000
0000
0300
0000
0000
0000
0000
0000
,
0010
0000
0000
0000
0000
0000
0000
0000
0000
0000
0010
0000
0000
0000
0000
0000
0000
0000
1000
0000
0000
0000
0000
0000
0001
0000
0000
0100
0000
0000
0000
0000
0000
0000
0000
0000
0010
0000
0000
0000
0000
0000
0100
0000
0000
0000
0000
0000
,
0001
0000
0000
0000
0000
0010
0000
0000
0000
0100
0000
0000
0220
0000
0000
0000
0000
0000
0330
0000
0000
0000
0000
0000
,
0001
0000
0000
0000
0000
0100
0000
0000
0000
0010
0000
0000
1000
0000
0100
0000
0000
0100
0010
0000
0000
0001
0000
0000
,
0001
0000
0100
0000
0000
0100
0010
0000
0000
1000
0000
0000
1000
0000
0000
0001
0000
0000
0100
0000
0000
1000
0000
0000
,
0100
0001
0010
1000
0010
0100
0001
0100
,
1000
0010
0001
0010
1000
0001
0100
0001
,
1000
0000
0100
0000
0000
1000
0001
0000
0100
0000
0000
0001
1000
0000
0100
0000
0000
1000
0001
0000
0100
0000
0000
0001
,
1000
0000
0100
0000
0000
0010
0001
0000
0100
0000
0000
0010
1000
0000
0100
0000
0000
0010
0001
0000
0100
0000
0000
0010
,
1000
0000
0010
1000
0000
0010
0100
0000
0001
0100
0000
0040
0400
0000
0000
0000
0000
0000
0000
0000
0000
0000
0000
0000
,
0330
0000
0000
1000
,
1001
0000
0000
0000
0000
0000
0000
0000
0000
0000
0000
0000
0001
0000
0000
0100
0000
0000
0000
0000
0000
0000
0000
0000
0001
0000
0000
0000
0000
0000
0010
0000
0000
0000
0000
0000
0100
0000
0000
0000
0000
0000
0000
0000
0000
0000
1100
0000
,
0000
0000
0000
0001
0000
0000
0200
0000
0000
0000
0000
0000
0310
0000
0000
0000
0000
0000
1000
0000
0000
0000
0000
0110
,
0000
0000
0000
0000
0000
0000
0001
0000
0000
0000
0000
0000
1000
0000
0000
0010
0000
0000
0000
0000
0000
0000
0000
0000
0100
0000
0000
0000
0000
0000
0001
0000
0000
0000
0000
0000
0010
0000
0000
0000
0000
0000
0000
0000
0000
0010
1000
0000
,
0000
0001
0200
0000
0310
0000
0000
0100
,
0110
0000
0000
0000
0000
0000
0001
0000
0000
0000
0000
0000
1000
0000
0000
0010
0000
0000
0000
0000
0000
0000
0000
0000
0100
0000
0000
0000
0000
0000
0001
0000
0000
0000
0000
0000
0010
0000
0000
0000
0000
0000
0000
0000
0000
0000
1010
0000
,
0000
0000
0000
0001
0000
0000
2000
0000
0000
0000
0000
0000
3100
0000
0000
0000
0000
0000
0010
0000
0000
0000
0000
1001
,
0000
0000
0000
0000
0000
0000
1000
0000
0000
0000
0000
0000
0100
0000
0000
0010
0000
0000
0000
0000
0000
0000
0000
0000
0001
0000
0000
0000
0000
0000
1000
0000
0000
0000
0000
0000
1100
0000
0000
0000
0000
0000
0000
0000
0000
0010
0001
0000
,
0000
0000
0000
0100
0000
0000
1010
0000
0000
0100
0000
0000
0001
0000
0000
0000
0000
0000
1001
0000
0000
0000
0000
1010
,
0000
0000
0000
0100
0000
0000
0000
0000
0011
0000
0000
0000
0001
0000
0000
1000
0000
0000
1001
0000
0000
0000
0000
0101
,
0000
0000
0000
0100
0000
0000
0110
0000
0000
0020
0000
0000
1030
0000
0000
0000
0000
0000
1000
0000
0000
0000
0000
0101
,
0000
0000
0000
0010
0000
0000
0000
0000
1100
0000
0000
0000
1000
0000
0000
0001
0000
0000
0010
0000
0000
0000
0000
0110
,
0000
0000
0000
0100
0000
0000
1100
0000
0000
2000
0000
0000
3001
0000
0000
0000
0000
0000
0110
0000
0000
0000
0000
1001
,
0000
0000
0000
0010
0000
0000
0000
0000
1100
0000
0000
0000
0001
0000
0000
0010
0000
0000
0100
0000
0000
0000
0000
1010
,
0000
0000
0000
0001
0000
0000
0101
0000
0000
0200
0000
0000
0310
0000
0000
0000
0000
0000
1000
0000
0000
0000
0000
1010
,
0000
0000
0000
0001
0000
0000
0000
0000
0011
0000
0000
0000
1000
0000
0000
1000
0000
0000
0200
0000
0000
0000
0000
0010
,
0000
0310
0100
1000
2002
0000
3003
0000
;
