#TITLE:Skydance;
#SUBTITLE:;
#ARTIST:W&W x AXMO ft. Giin;
#TITLETRANSLIT:;
#SUBTITLETRANSLIT:;
#ARTISTTRANSLIT:;
#GENRE:Hard Dance;
#CREDIT:darkanine;
#MUSIC:Skydance.ogg;
#BANNER:Skydance.png;
#BACKGROUND:Skydance-bg.png;
#CDTITLE:./../EDMix1title.png;
#SAMPLESTART:27.200;
#SAMPLELENGTH:27.200;
#SELECTABLE:YES;
#OFFSET:0.000;
#BPMS:0.000=150.000;
#STOPS:;
#BGCHANGES:0.000=Skydance.mp4=1.000=0=0=0=StretchNoLoop====,
99999.000=-nosongbg-=1.000=0=0=0=StretchNoLoop====
;
#FGCHANGES:;

//--------------- dance-single - ----------------
#NOTES:
     dance-single:
     :
     Beginner:
     2:
     0.136896,0.236651,0.049997,0.033331,0,115,109,6,4,0,0,0.136896,0.236651,0.049997,0.033331,0,115,109,6,4,0,0:
0000
0000
0000
0000
,
0000
0000
0000
0000
,
0000
0000
0000
0000
,
0000
0000
0000
0000
,
0000
0000
0000
0000
,
0000
0000
1000
0000
,
0000
0000
1000
0000
,
0000
0000
0001
0000
,
0000
0000
0001
0000
,
1000
0000
1000
0000
,
0001
0000
0001
0000
,
1000
0000
0100
0000
,
0001
0000
0100
0000
,
1000
0000
1000
0000
,
0001
0000
0001
0000
,
0100
0000
0100
0000
,
0020
0000
0030
0000
,
1000
0000
1000
0000
,
0010
0000
0010
0010
,
0010
0000
0100
0000
,
0100
0000
0000
0000
,
0001
0000
0001
0000
,
0010
0000
0010
0010
,
0010
0000
0100
0000
,
2000
0000
3000
0000
,
0001
0000
0001
0000
,
1000
0000
0010
0000
,
0100
0000
0001
0000
,
1000
0000
0000
0000
,
0001
0000
0001
0000
,
0100
0000
0010
0000
,
1000
0000
0100
0000
,
0020
0000
0000
0000
,
0030
0000
0000
0000
,
0001
0000
0000
0000
,
0010
0000
0000
0000
,
0100
0000
0000
0000
,
1000
0000
0000
0000
,
0000
0001
0000
0001
,
0000
1000
0000
1000
,
0000
0010
0000
0010
,
0000
0100
0000
0100
,
0000
1000
0000
1000
,
0000
0100
0000
0100
,
0000
0001
0000
0001
,
0000
1000
0000
0000
,
1001
0000
0000
0000
,
0010
0000
0000
0000
,
0001
0000
0000
0000
,
0100
0000
0000
0000
,
1000
0000
0000
0000
,
0100
0000
0000
0000
,
0001
0000
0000
0000
,
1000
0000
0000
0000
,
0010
0000
0000
0000
,
1001
0000
1000
0000
,
1000
0000
1000
0000
,
0001
0000
0001
0000
,
0001
0000
0001
0000
,
0100
0000
0100
0000
,
1000
0000
1000
0000
,
0010
0000
0010
0000
,
0010
0000
0000
0000
,
1001
0000
1000
0000
,
0110
0000
0010
0010
,
0010
0000
0100
0000
,
0100
0000
0000
0000
,
1001
0000
0100
0000
,
0110
0000
0001
0001
,
0001
0000
1000
0000
,
0200
0000
0000
0300
,
0100
0000
0000
0000
;

//--------------- dance-single - ----------------
#NOTES:
     dance-single:
     :
     Easy:
     6:
     0.23927,0.326541,0.183321,0.041664,0,201,179,22,5,0,0,0.23927,0.326541,0.183321,0.041664,0,201,179,22,5,0,0:
0000
0000
0000
0000
,
0000
0000
0000
0000
,
0000
0000
0000
0000
,
0000
0000
0000
0000
,
0000
0000
0000
0000
,
0000
0000
1000
0000
,
0000
0000
0001
0000
,
0000
0000
1000
0000
,
0000
0000
0001
0000
,
1000
1000
1000
0000
,
0010
0010
0010
0000
,
0001
0001
1000
0000
,
0100
0100
0010
0000
,
0001
0100
0001
0010
,
0100
1000
0010
1000
,
0001
0001
1000
1000
,
0100
0000
0000
0000
,
1000
0010
1000
0100
,
0010
0010
0001
1000
,
0010
0100
0001
1000
,
0100
0100
0020
0030
,
0001
0100
1000
0100
,
0001
0010
1000
0010
,
0001
0001
1000
1000
,
0020
0000
0000
0030
,
1001
0001
1000
1000
,
0100
0010
0100
1000
,
0010
0100
0010
0010
,
1000
0001
0100
0000
,
0001
0010
0001
0001
,
1000
0010
0100
0001
,
0010
0100
0010
0010
,
0002
0000
0000
0003
,
0000
0000
0000
0000
,
1000
0000
1000
0000
,
0010
0000
0010
0000
,
0100
0000
0100
0000
,
0001
0000
0001
0000
,
1000
0010
1000
0000
,
0100
1000
0100
0000
,
0010
0001
0100
0100
,
0001
1000
0001
0000
,
0010
0001
0010
0000
,
0100
1000
0100
0000
,
1000
0010
0100
0100
,
0001
1000
0001
0001
,
1000
0000
0000
0000
,
1001
0000
0000
0000
,
1010
0000
0000
0000
,
0101
0000
0000
0000
,
0110
0000
0000
0000
,
1001
0000
0000
0000
,
0011
0000
0000
0000
,
1100
0000
0000
0000
,
0110
0000
0000
0000
,
1000
1000
0010
0010
,
0100
0100
0001
1000
,
0001
0001
0010
0010
,
0100
0100
1000
0001
,
1000
0010
1000
0010
,
0100
0001
0100
0001
,
0010
0001
0010
0001
,
2000
0000
0000
3000
,
1010
0000
1010
0000
,
0011
0000
1001
0001
,
1001
0000
1100
0000
,
0110
0000
0100
0000
,
1001
0000
0110
0000
,
0011
0000
1010
1000
,
1010
0000
0110
0000
,
0001
0001
1000
0100
,
0200
0300
0000
0000
;

//--------------- dance-single - ----------------
#NOTES:
     dance-single:
     :
     Medium:
     8:
     0.334502,0.473302,0.124992,0.174988,0,281,266,15,21,0,0,0.334502,0.473302,0.124992,0.174988,0,281,266,15,21,0,0:
0000
0000
0000
0000
,
0000
0000
0000
0000
,
0000
0000
0000
0000
,
0000
0000
0000
0000
,
0000
0000
0000
0000
,
0000
0000
0010
0000
,
0000
0000
0100
0000
,
0000
0000
0010
0000
,
0000
0000
0100
0000
,
1000
1000
0100
1000
,
0001
0000
0001
0000
0100
0000
0100
0010
,
1000
1000
0100
0010
,
0001
0000
0001
0000
0100
0000
0010
1000
,
0010
0000
0100
0001
0100
0000
0001
0010
,
0001
0000
1000
0100
1000
0000
0001
1000
,
0200
0000
0000
0000
,
0310
0010
0100
0000
,
1000
0100
1000
0000
0001
0100
0001
0000
,
0010
0001
0010
0000
0100
1000
0100
1000
,
0001
0000
1000
0000
0010
0100
0010
0000
,
1000
0100
1000
0000
0002
0000
0103
0000
,
1000
0010
1000
0000
0100
1000
0100
0000
,
0010
0001
0010
0000
0001
0100
0001
0100
,
0010
0000
1000
0000
0001
1000
0001
0000
,
0010
0010
0020
0130
,
1000
0000
1000
0100
1000
0000
1000
0010
,
0100
0000
0100
0001
0100
0000
0001
0010
,
0100
0000
0100
1000
0100
0000
1000
0001
,
1000
0010
0010
0100
,
1001
0000
0001
0010
0100
0000
0100
1000
,
0001
0000
0100
0010
0100
0000
0100
0001
,
1000
0100
0010
0010
,
0200
0000
0000
0300
,
0100
0000
0000
0000
,
1000
0100
0000
0000
0010
0001
0000
0000
,
1000
0010
0000
0000
0100
0000
0100
0000
,
0001
1000
0000
0000
1000
0100
0000
0000
,
0100
0010
0000
0000
0010
0000
0100
0000
,
2000
3100
0002
0103
,
2000
3001
0002
1003
,
0020
0130
2000
3001
,
0020
0130
0002
1003
,
0002
0013
2000
3010
,
0002
0103
2000
3100
,
0020
0130
2000
3001
,
0001
1000
0001
1000
0002
0000
0000
0000
,
0103
0000
0000
0000
,
1000
0100
0000
0000
0000
0000
0000
0000
,
0001
0100
0000
0000
0000
0000
0000
0000
,
1000
0010
0000
0000
0000
0000
0000
0000
,
0001
0010
0000
0000
0000
0000
0000
0000
,
1000
0001
0000
0000
0000
0000
0000
0000
,
0100
0010
0000
0000
0000
0000
0000
0000
,
0001
1000
0000
0000
0000
0000
0000
0000
,
0010
0100
0000
0000
0000
0000
0000
0000
,
1000
1000
0100
0010
,
0001
0000
0001
0000
0010
0000
0010
0001
,
1000
1000
0001
1000
,
0001
0000
0001
0000
1000
0000
0001
1000
,
0001
0000
0100
0001
0100
0000
0010
0100
,
0010
0000
1000
0010
1000
0000
0001
1000
,
0002
0010
0100
1003
,
0001
0001
0001
0000
,
1010
1010
0101
0101
,
0001
0010
0001
0000
1000
0100
1000
0000
,
1001
1001
0110
0110
,
1000
0001
1000
0000
0010
0100
0001
0000
,
1100
1100
1001
0100
,
0011
0011
0110
1000
,
0010
1000
0010
0000
0100
0001
0100
0000
,
0001
1000
0001
1000
0200
0000
0000
0000
,
0310
0000
0000
0000
;

//--------------- dance-single - ----------------
#NOTES:
     dance-single:
     :
     Hard:
     11:
     0.415448,0.535277,0.166656,0.049997,0.037497,349,329,20,6,0,0,0.415448,0.535277,0.166656,0.049997,0.037497,349,329,20,6,0,0:
0000
0000
0000
0000
,
0000
0000
0000
0000
,
0000
0000
0000
0000
,
0000
0000
0000
0000
,
0000
0000
0000
0000
,
0000
0000
1000
0000
,
0000
0000
0001
0000
,
0000
0000
0100
0000
,
0000
0000
0010
0000
,
1000
1000
0010
0010
,
0100
0000
0100
0000
0001
0000
1000
0100
,
0010
0010
0001
0100
,
0010
0000
0010
0000
1000
0000
0100
0010
,
0001
1000
0100
1000
0001
0100
0010
0100
,
0001
0010
0100
0010
0001
1000
0010
1000
,
0001
0001
1000
1000
0010
0100
0010
0100
,
0001
0001
0002
1003
,
1000
0010
0100
0000
0001
0010
0100
0000
,
0010
0100
1000
0000
0010
0100
0010
0100
,
0001
1000
0100
0000
1000
0001
0100
0000
,
0010
0000
1000
0000
0100
0000
0000
0000
0010
0000
0001
1000
0001
0000
0000
0000
,
1000
0100
0010
0000
0001
0100
0010
0000
,
0100
0010
1000
0000
0001
0010
0100
0010
,
0001
0100
0100
0000
0010
0100
0100
0000
,
0002
0000
0103
1001
,
0110
0000
1000
0010
0100
0010
1000
0001
,
0010
0000
0000
0100
0000
0000
1000
0100
1000
0000
0001
0000
0100
0000
0000
0000
,
1010
0000
0000
0001
0000
0000
0001
0000
0100
0000
0010
0000
0100
0000
0001
0000
,
1000
0000
0000
1000
0000
0000
0000
0000
0010
0000
0010
0000
0010
0000
0000
0000
,
1001
0000
1000
0010
0100
0000
0100
0001
,
1000
0000
0000
0100
0000
0000
0010
0100
0010
0000
0001
0000
1000
0000
0001
0000
,
0100
0000
0000
0010
0000
0000
0010
0000
0100
0000
0010
0000
0100
0000
0010
0000
,
2000
0000
0000
3010
,
0001
0000
0000
0000
,
1000
0100
0000
0100
1000
0001
0000
0001
,
1000
0010
0000
0010
1000
0100
1000
0000
,
0001
0100
0000
0100
0001
1000
0000
1000
,
0010
0100
0000
0100
0010
1000
0001
0000
,
1000
0000
1100
0000
0001
1000
0001
0000
,
0100
0000
1010
0000
0100
0100
0100
0000
,
0010
0000
0101
0000
1000
0001
0001
0000
,
0110
0000
0001
0010
0100
0100
0100
0000
,
0010
0000
0101
0000
1000
0100
1000
0000
,
0001
0000
1010
0000
0001
0100
0001
0000
,
1000
0000
1001
0000
0100
0100
0100
0000
,
1000
0001
1000
0001
0200
0000
0000
0000
,
0310
0000
0000
0000
,
0001
1000
0000
0000
0000
0000
0000
0000
,
0010
0100
0000
0000
0000
0000
0000
0000
,
1000
0001
0000
0000
0000
0000
0000
0000
,
0100
0010
0000
0000
0000
0000
0000
0000
,
1000
0100
0000
0000
0000
0000
0000
0000
,
0010
0001
0000
0000
0000
0000
0000
0000
,
0001
0100
0000
0000
0000
0000
0000
0000
,
0010
1000
0000
0000
0000
0000
0000
0000
,
1000
1000
0001
0001
,
0010
0000
0010
0000
0100
0000
0100
1000
,
0001
0000
0001
0000
0100
0010
0100
0000
,
1000
0000
1000
0000
0100
0010
0100
0000
,
0001
0100
0001
1000
0001
0010
0001
1000
,
0010
1000
0001
1000
0100
1000
0010
0100
,
0001
0001
0010
0010
0100
0100
1000
1000
,
0002
0000
0000
0103
,
1010
0000
1000
0010
1010
0000
0010
1000
,
1001
0000
1000
0001
1000
1000
0001
0000
,
1100
0000
1000
0100
1100
0000
0100
1000
,
1001
0000
0000
0000
0001
0000
0100
0000
0010
0000
0010
0100
0001
0000
0000
0000
,
1010
0000
1000
0001
0011
0000
0010
0100
,
0110
0000
0100
1000
0001
0001
1000
1000
,
0010
0100
0010
0000
0010
0100
0001
1000
,
0100
0010
0100
0010
0001
0001
0100
0010
,
2000
0000
0000
3000
0000
0000
0000
0000
;

//--------------- dance-single - ----------------
#NOTES:
     dance-single:
     :
     Challenge:
     11:
     0.4214,0.505539,0.049997,0.099993,0.058329,354,348,6,12,32,0,0.4214,0.505539,0.049997,0.099993,0.058329,354,348,6,12,32,0:
0000
0000
0000
0000
,
0000
0000
0000
0000
,
0000
0000
0000
0000
,
0000
0000
0000
0000
,
0000
0000
0000
0000
,
0000
0000
0001
0000
,
0000
0000
0100
0000
,
0000
0000
1000
0000
,
0000
0000
0100
0000
,
0001
0001
0001
0001
,
1000
0000
1000
0000
1000
0000
1000
0001
,
0010
0010
1000
0010
,
0100
0000
0100
0000
0001
0000
0100
1000
,
0001
0100
0001
0000
0100
1000
0100
0000
,
1000
0010
1000
0000
0010
0001
0010
0000
,
0001
1000
0001
1000
0001
0001
1000
1000
,
0100
0000
0000
0000
0100
0000
0100
1000
0100
0000
0010
0000
0110
0000
0000
0000
,
1000
0100
0000
0001
0100
1000
0000
1000
,
0010
0001
0000
0001
0010
1000
0010
0100
,
0001
0100
0000
1000
0100
0001
0000
1000
,
0100
0000
0001
0000
0000
0000
0001
0000
0100
0000
0010
0100
1000
0000
0000
0000
,
1000
0010
0000
0010
1000
0100
0000
0100
,
0001
0010
0000
0010
1000
0100
1000
0010
,
1000
0001
0000
0100
0010
0100
0000
0001
,
1000
0000
0001
0000
1000
0000
0001
0100
0010
0000
1000
0000
0100
0000
0000
0000
,
1010
0000
0001
0010
0100
0010
0001
1000
,
0010
0000
0000
0010
0100
0000
0000
0100
0001
0000
1000
0000
0010
0000
0100
0000
,
0001
0000
0000
0001
0010
0000
0100
0000
1000
0000
0100
0000
0001
0000
0100
0000
,
1000
0000
0000
1000
0001
0000
0100
0000
0010
0000
0100
0000
0010
0000
0000
0000
,
1001
0000
1000
0010
1000
0100
1000
0001
,
0010
0000
0000
0010
0100
0000
0000
0100
1000
0000
0001
0000
0010
0000
0001
0000
,
1000
0000
0000
1000
0010
0000
0001
0000
0010
0000
0100
0000
1000
0000
0100
0000
,
0020
0000
0000
0130
,
1001
0000
0000
0000
,
0001
0100
0000
0001
0100
1000
0000
0100
,
1000
0010
0000
1000
0010
0001
1000
0001
,
1000
0100
0000
1000
0100
0001
0000
0100
,
0001
0010
0000
0001
0010
1000
0001
0000
,
1000
0200
0010
0300
1000
0010
0100
0000
,
0001
0020
0100
0030
0001
1000
0001
0000
,
1000
0020
0100
0030
0001
0010
1000
0000
,
1000
0200
0001
0300
0010
0100
1000
0001
,
0000
0001
0100
0000
0010
1000
0001
0000
,
0010
0200
0010
0300
0001
0100
1000
0000
,
0001
1000
0001
0100
0010
2000
0010
3000
,
0001
0010
0100
1000
0200
0000
0000
0000
,
0310
0000
0000
0000
,
MMMM
0000
0000
1000
0010
1000
0000
0000
,
MMMM
0000
0000
0001
0010
0001
0010
0000
,
MMMM
0000
0000
1000
0100
1000
0000
0000
,
MMMM
0000
0000
0000
0000
0000
0001
0000
0100
0000
0010
0100
0010
0000
0000
0000
,
MMMM
0000
0000
0001
0010
0001
0000
0000
,
MMMM
0000
0000
1000
0010
1000
0010
0000
,
MMMM
0000
0000
0100
0010
0100
0000
0000
,
MMMM
0000
0000
0000
,
1001
1000
0001
0001
,
1000
0000
0100
0000
0100
0000
0100
0010
,
0001
0001
1000
1000
,
0010
0000
0100
0000
0100
0000
0100
0001
,
1000
0010
1000
0000
0010
0001
0010
0000
,
0001
0100
0001
0000
0100
1000
0100
0000
,
0020
0000
0000
0000
,
0031
0000
1000
0000
0001
0000
1000
0001
1000
0001
1000
0000
0001
0000
0000
0000
,
1000
0100
0100
0000
0001
0100
0100
0000
,
1000
0010
0010
0000
0100
0010
1000
0010
,
0100
0001
0001
0000
0010
0001
0001
0000
,
1000
0000
0100
0000
0100
0000
0000
0000
0010
0000
0010
0100
1000
0000
0000
0000
,
0001
0100
0100
0000
1000
0100
0100
0000
,
0010
1000
1000
0000
0001
0010
0100
0010
,
0001
1000
1000
0000
0001
0100
1000
0100
,
0020
0001
0100
1030
,
2002
0000
0000
3003
0000
0000
0000
0000
;
