#VERSION:0.83;
#TITLE:RAVER;
#SUBTITLE:;
#ARTIST:nanobii;
#TITLETRANSLIT:;
#SUBTITLETRANSLIT:;
#ARTISTTRANSLIT:;
#GENRE:Hands Up;
#ORIGIN:;
#TAGS:;
#CREDIT:k3n x darkanine;
#BANNER:RAVER.png;
#BACKGROUND:RAVER-bg.png;
#PREVIEWVID:;
#JACKET:RAVER-jacket.png;
#CDIMAGE:;
#DISCIMAGE:;
#LYRICSPATH:;
#CDTITLE:;
#MUSIC:RAVER.ogg;
#OFFSET:0.000000;
#SAMPLESTART:85.833000;
#SAMPLELENGTH:26.667000;
#SELECTABLE:YES;
#BPMS:0.000000=144.000000
;
#STOPS:;
#DELAYS:;
#WARPS:;
#TIMESIGNATURES:0.000000=4=4
;
#TICKCOUNTS:0.000000=4
;
#COMBOS:0.000000=1
;
#SPEEDS:0.000000=1.000000=0.000000=0
;
#SCROLLS:0.000000=1.000000
;
#LABELS:0.000000=Song Start
;
#BGCHANGES:0.000=RAVER.mp4=1.000=0=0=0=StretchNoLoop====,
99999.000=-nosongbg-=1.000=0=0=0=StretchNoLoop====
;
#KEYSOUNDS:;
#ATTACKS:
;

//---------------dance-single - ----------------
#NOTEDATA:;
#CHARTNAME:;
#CHARTHASH:2147483647;
#STEPSTYPE:dance-single;
#BANNER:;
#DESCRIPTION:;
#CHARTSTYLE:;
#DIFFICULTY:Beginner;
#METER:3;
#METERF:0.000000;
#LASTSECONDHINT:113.124992;
#RADARVALUES:0.108669,0.172104,0.025356,0.016904,0.000000,90.000000,87.000000,3.000000,2.000000,0.000000,0.000000,0.000000,0.000000,0.000000,0.108669,0.172104,0.025356,0.016904,0.000000,90.000000,87.000000,3.000000,2.000000,0.000000,0.000000,0.000000,0.000000,0.000000;
#CREDIT:;
#NOTES:
// measure 0
0000
0000
0000
0000
,  // measure 1
0000
0000
0000
0000
,  // measure 2
0000
0000
0000
0000
,  // measure 3
0000
0000
0000
0000
,  // measure 4
0000
0000
0000
0000
,  // measure 5
1000
0000
0000
0000
,  // measure 6
0001
0000
0000
0000
,  // measure 7
1000
0000
0000
0000
,  // measure 8
0001
0000
0000
0000
,  // measure 9
1001
0000
0000
0000
,  // measure 10
0100
0000
0000
0000
,  // measure 11
1001
0000
0000
0000
,  // measure 12
0010
0000
0000
0000
,  // measure 13
0000
1000
0000
1000
,  // measure 14
0000
0001
0000
0001
,  // measure 15
0000
1000
0000
1000
,  // measure 16
0000
0000
0000
0000
,  // measure 17
0010
0000
0100
0000
,  // measure 18
0001
0000
0100
0000
,  // measure 19
0010
0000
0100
0000
,  // measure 20
0001
0000
1000
0000
,  // measure 21
0100
0000
1000
0000
,  // measure 22
0001
0000
1000
0000
,  // measure 23
0100
0000
1000
0000
,  // measure 24
0001
0000
0000
0000
,  // measure 25
0100
0000
0000
0000
,  // measure 26
0000
0000
0000
0000
,  // measure 27
0000
0000
0000
0000
,  // measure 28
0000
0000
0000
0000
,  // measure 29
0100
0000
0000
0000
,  // measure 30
0010
0000
0000
0000
,  // measure 31
0001
0000
0000
0000
,  // measure 32
0010
0000
0000
0000
,  // measure 33
0100
0000
0000
0000
,  // measure 34
1000
0000
0000
0000
,  // measure 35
0000
0001
0000
0001
,  // measure 36
0000
1000
0000
1000
,  // measure 37
0000
0100
0000
0100
,  // measure 38
0000
0010
0000
0010
,  // measure 39
0000
0001
0000
0100
,  // measure 40
0000
0100
0000
0000
,  // measure 41
0001
0000
1000
0000
,  // measure 42
0001
0001
0001
0000
,  // measure 43
1000
0000
0000
0000
,  // measure 44
0000
0000
0000
0000
,  // measure 45
0000
0000
0000
0000
,  // measure 46
0000
0000
0000
0000
,  // measure 47
0000
0000
0000
0000
,  // measure 48
0001
0000
0000
0000
,  // measure 49
0100
0000
0000
0000
,  // measure 50
0010
0000
1000
0000
,  // measure 51
0001
0000
0000
0000
,  // measure 52
1001
0000
0001
0000
,  // measure 53
1000
0000
1000
0000
,  // measure 54
0100
0000
0100
0000
,  // measure 55
0100
0000
0000
0000
,  // measure 56
1000
0000
0010
0000
,  // measure 57
0100
0000
0100
0000
,  // measure 58
0001
0000
1000
0000
,  // measure 59
0002
0000
0003
0000
,  // measure 60
1000
0000
0100
0000
,  // measure 61
1000
0000
0001
0000
,  // measure 62
1000
0000
0100
0000
,  // measure 63
1000
0000
0001
0000
,  // measure 64
0100
0000
0010
0000
,  // measure 65
0100
0000
0001
0000
,  // measure 66
0100
0000
0001
0000
,  // measure 67
2000
0000
0000
0000
0000
0000
0000
3000
;

//---------------dance-single - ----------------
#NOTEDATA:;
#CHARTNAME:;
#CHARTHASH:2076970318;
#STEPSTYPE:dance-single;
#BANNER:;
#DESCRIPTION:;
#CHARTSTYLE:;
#DIFFICULTY:Easy;
#METER:7;
#METERF:0.000000;
#LASTSECONDHINT:113.333328;
#RADARVALUES:0.292198,0.431053,0.101424,0.025356,0.000000,242.000000,230.000000,12.000000,3.000000,0.000000,0.000000,0.000000,0.000000,0.000000,0.292198,0.431053,0.101424,0.025356,0.000000,242.000000,230.000000,12.000000,3.000000,0.000000,0.000000,0.000000,0.000000,0.000000;
#CREDIT:;
#NOTES:
0000
0000
0000
0000
,
0000
0000
0000
0000
,
0000
0000
0000
0000
,
0000
0000
0000
0000
,
0000
0000
0000
0000
,
0001
0000
1000
0100
0000
0100
0010
0000
,
0100
0000
1000
0010
0000
0010
0100
0000
,
0001
0000
0010
0100
0000
0100
1000
0000
,
0001
0000
0100
0010
0100
0010
0000
0000
,
0110
1000
0100
0001
,
0100
0100
0010
0010
,
0001
0010
1000
0010
,
0001
0100
1000
1000
,
0000
0110
0010
1000
,
0001
0001
1000
1000
,
0100
0010
0100
0010
,
0001
0000
0000
0000
,
0101
0000
0001
1000
0001
0000
0010
0000
,
0100
0010
0001
1000
,
0010
0000
0100
0010
0100
0000
0001
0000
,
1000
0000
0100
1000
0001
0000
0100
0001
,
1000
0000
0100
0010
0100
0000
1000
0000
,
0001
0100
0001
0010
,
0100
0000
1000
0100
1000
0000
0001
0000
,
0100
0000
0010
0100
0001
0000
1000
0000
,
1001
0000
0000
0000
,
0000
0000
0000
0000
,
1000
0000
0100
0000
,
0010
0000
0001
0000
,
0100
0000
0010
0000
,
1000
0000
0001
0000
,
1000
0000
0010
0000
,
0100
0000
0001
0000
,
0010
0000
0100
0000
,
1000
0000
0001
0000
,
0001
0000
1000
0100
0000
0100
0010
0000
,
0001
0000
0100
0010
0000
0010
1000
0000
,
0001
0000
0010
0100
0000
0100
1000
0000
,
0001
0000
0100
0010
0000
0010
1000
0000
,
0001
0001
1000
1000
,
0010
0100
0010
0000
1000
0000
1000
0000
,
0001
0000
1000
0000
,
0001
0001
1000
1000
,
0001
0000
0000
0000
,
0001
0000
0000
0000
,
0010
0000
0000
0000
,
0100
0000
0000
0000
,
1000
0000
0000
0000
,
1001
0100
0010
0100
,
1001
0010
0100
0010
,
1001
0110
1001
0110
,
1001
0000
0000
0000
,
1001
1000
0010
1000
,
0001
0000
0100
0001
0100
0000
0010
0000
,
1000
0000
0001
0000
0100
0001
1000
0002
,
0000
0000
0103
0000
0001
0000
0010
0100
,
1000
0010
1000
0001
,
1000
0000
0010
1000
0010
0000
0100
0000
,
0001
0000
0010
0000
0100
0010
0001
0000
,
2000
0000
0000
0000
3010
0000
1000
0001
,
0100
0000
0010
0000
1000
0010
1000
0000
,
0100
0000
0010
0000
0100
1000
0100
0000
,
1000
0000
1000
0000
0010
0100
0010
0000
,
0001
0000
0001
0000
0010
0100
0010
0000
,
1000
1000
0001
0001
,
0010
0010
0100
0100
,
1000
0001
0100
0100
,
1000
0100
0001
0020
,
0030
0000
0000
0000
;

//---------------dance-single - ----------------
#NOTEDATA:;
#CHARTNAME:;
#CHARTHASH:2147483647;
#STEPSTYPE:dance-single;
#BANNER:;
#DESCRIPTION:;
#CHARTSTYLE:;
#DIFFICULTY:Medium;
#METER:12;
#METERF:0.000000;
#LASTSECONDHINT:113.124992;
#RADARVALUES:0.504706,0.544996,0.405697,0.380341,0.228204,418.000000,370.000000,48.000000,45.000000,0.000000,0.000000,0.000000,0.000000,0.000000,0.504706,0.544996,0.405697,0.380341,0.228204,418.000000,370.000000,48.000000,45.000000,0.000000,0.000000,0.000000,0.000000,0.000000;
#CREDIT:;
#NOTES:
0000
0000
0000
0000
,
0000
0000
0000
0000
,
0000
0000
0000
0000
,
0000
0000
0000
0000
,
0000
0000
0000
0000
,
0202
0303
2200
3300
0202
0303
2200
3300
,
1000
0000
0001
0010
0022
0033
2020
3030
,
1000
0000
0000
0000
0001
0000
0100
0000
0000
0000
0100
0000
0010
0100
0000
0000
,
0001
0000
1000
0000
0001
0000
1000
0000
0100
0000
0010
0100
0000
0100
0000
0000
,
1001
0001
0010
0100
1000
1000
0001
0100
,
0010
0010
1000
0100
0010
0010
1000
0010
,
0001
0001
1000
0010
0100
0100
1000
0100
,
0001
0000
0001
0000
1000
0000
0001
0000
2000
0000
0000
0000
0001
0000
0000
3001
,
0000
0000
0000
0000
1010
0000
0010
0000
1010
0000
0000
0000
0101
0000
0000
0100
,
0001
0000
0000
0000
1001
0000
0000
0000
1000
0000
0000
0000
1000
0001
0000
0001
,
0100
0000
0001
0000
0100
0000
0000
0010
1000
0000
0100
0000
1000
0000
0000
0001
,
1000
0000
0000
0000
,
1002
0000
0000
0000
0103
0000
0001
0000
1000
0000
0000
0100
0000
0000
0010
0000
,
0100
0010
0000
0000
0001
0000
1000
0010
1000
0000
0001
0000
0100
0010
0100
0000
,
0001
0000
0000
0000
0010
0000
0100
0000
1000
0000
0000
0001
0000
0000
0100
0000
,
0010
0100
0000
0100
1000
0000
0100
0000
0001
0000
0000
1000
0010
0000
1000
0000
,
0001
0000
0000
0000
0100
0000
0010
0000
0100
0000
0000
0001
0010
0000
0001
0000
,
1000
0000
0001
0000
0100
0000
0010
0100
0001
0000
0001
0000
0100
0001
0100
0000
,
0010
0000
0000
1000
0001
0000
0100
0000
0001
0000
0000
0010
0100
0000
1000
0000
,
0010
0010
0100
0100
0002
0003
2000
3000
,
1001
0000
0000
0000
,
0000
0000
0000
0000
,
2020
3030
0022
0033
2020
3030
0022
0033
,
0001
0010
1000
0100
0002
0000
2003
0000
,
3000
0001
0100
0010
0002
0000
1003
0002
,
0000
0003
0000
0000
,
2200
3300
0202
0303
2200
3300
0202
0303
,
0001
0100
1000
0010
0220
0330
2002
3003
,
0001
0000
0100
0000
0001
0010
0100
1000
,
1100
0000
0000
0000
0001
0000
1001
0000
0000
0000
1000
0000
0100
0010
0000
0000
,
0001
0000
0000
0000
1000
0000
0100
0000
0000
0000
0100
0000
1000
0100
0000
0000
,
1000
0000
0000
0000
0001
0000
0100
0000
0000
0000
0100
0000
0001
0100
0000
0000
,
0010
0000
0000
0000
1000
0000
0100
0000
0000
0000
0100
0000
1000
0010
0000
0000
,
0100
0000
0000
0000
0001
0000
0010
0000
0000
0000
0010
0000
0001
1000
0000
0000
,
1000
0000
0000
0000
0001
0000
0100
0000
0001
0000
1000
0000
0010
1000
0000
0000
,
0100
0000
0010
0000
0001
0000
1000
0000
0010
0000
0100
0000
0001
0100
0000
0000
,
0101
0000
0001
1000
1100
0000
0100
0010
,
0110
0000
0000
0100
1000
0000
0000
1000
0001
0000
0000
0001
0100
0000
0100
0000
,
0100
0000
0000
0000
,
0001
0000
0000
0000
1000
0000
0000
0010
0000
0000
0001
0000
0000
0010
0000
0000
,
1000
0000
0001
0000
1000
0001
0000
0010
0000
0000
1000
0000
0000
0010
0000
0000
,
0001
0000
1000
0000
0001
0100
0000
0100
0010
0000
0010
1000
0000
1000
0001
0000
,
1000
0001
0200
0000
0000
0000
0300
0000
,
1001
0000
0000
0000
1000
0000
0000
0000
0100
0000
0000
0000
1000
0000
0000
1000
,
0001
0000
0000
0000
0100
0000
0000
0000
0001
0000
0000
0000
0010
0000
0000
0010
,
0100
0000
0000
0100
1000
0000
0000
1000
0001
0000
0000
0001
0100
0000
0000
0100
,
0020
0000
0000
0030
,
1010
0011
1010
0011
,
1001
0001
1001
0000
1100
0000
0101
0000
,
1000
0100
0001
0100
1000
0010
0100
0001
,
1000
1000
0001
0000
,
0011
1010
0011
1010
,
1001
1000
1001
0000
0110
0010
0110
0000
,
0001
0000
0000
0001
0010
0000
0000
0010
1000
0000
0000
1000
0100
0000
0000
0100
,
0001
0000
1000
0000
0001
1000
0001
1000
,
1010
0100
0001
0100
0001
1000
0100
0010
,
0001
0100
1000
0100
0001
0000
0010
0000
,
0100
0010
0001
1000
0010
0100
0001
0020
,
0100
0000
0000
0000
0001
0000
0000
0000
0130
0000
0000
0000
1000
0000
0001
1000
,
0001
0000
0000
0000
0101
0000
0000
0001
1000
0000
0000
0000
1100
0000
0000
1000
,
0010
0100
1000
0100
0002
0000
2003
0000
,
3100
0010
0000
0010
0000
0001
0000
0001
,
0010
1000
0001
0100
0010
0001
1000
0001
;

//---------------dance-single - ----------------
#NOTEDATA:;
#CHARTNAME:;
#CHARTHASH:1073844673;
#STEPSTYPE:dance-single;
#BANNER:;
#DESCRIPTION:;
#CHARTSTYLE:;
#DIFFICULTY:Hard;
#METER:15;
#METERF:0.000000;
#LASTSECONDHINT:113.124992;
#RADARVALUES:0.661672,0.717101,0.101424,0.185944,0.574737,548.000000,536.000000,12.000000,22.000000,0.000000,0.000000,0.000000,0.000000,0.000000,0.661672,0.717101,0.101424,0.185944,0.574737,548.000000,536.000000,12.000000,22.000000,0.000000,0.000000,0.000000,0.000000,0.000000;
#CREDIT:;
#NOTES:
0000
0000
0000
0000
,
0000
0000
0000
0000
,
0000
0000
0000
0000
,
0000
0000
0000
0000
,
0000
0000
0000
0000
,
1100
0000
0000
0000
1000
0000
0001
0000
0100
0000
1000
0000
0100
0010
0000
0000
,
0010
0000
0000
0000
0100
0000
0001
0000
1000
0000
0001
0000
0010
0100
0000
0000
,
1000
0010
0100
0001
0010
0100
1000
0002
,
0000
0000
0100
0000
0103
0000
0001
0000
0001
0000
0010
0100
0000
1000
0000
1000
,
0100
0000
0010
0001
1000
0000
0001
0000
0001
0000
0100
0010
1000
0000
0010
0000
,
0010
0000
0100
0001
1000
0000
0100
0000
0100
0000
0010
0100
1000
0000
0001
0000
,
0001
0000
0010
0100
1000
0000
0010
0000
0010
0000
0001
0010
1000
0000
0001
0000
,
0001
0000
1000
0010
0100
0000
0001
0000
0001
0000
0100
0010
1000
0001
0000
0001
,
0000
0000
0000
0000
1001
0000
0001
0000
0101
0000
0100
0001
0000
0000
1000
0001
,
0100
0000
0000
0001
1000
0000
0100
0000
0010
0000
0100
0000
1000
0010
0000
0010
,
0100
0000
0001
0000
0011
0000
0010
0000
1001
0000
1000
0001
0000
0100
0000
0010
,
0100
0000
0010
1000
0001
0000
0001
0000
1000
0000
0010
0000
0001
0000
0010
0000
,
1000
0000
0000
0000
1001
0000
0001
0000
0100
0000
0010
0100
0000
0100
0001
0000
,
1000
0100
0000
0100
0010
0000
0001
0010
0000
0010
0100
0000
1000
0001
0100
0001
,
1000
0000
0100
0010
0001
0000
1000
0000
0001
0000
0010
0001
0000
0000
0010
0000
,
0010
0100
0000
0100
1000
0000
0001
0000
1000
0100
0000
0100
0010
0000
0100
0010
,
0001
0000
0100
0000
1000
0000
0100
0000
0001
0000
0010
0100
0000
0100
1000
0000
,
0100
0010
0000
0010
0001
0000
1000
0001
0100
0000
0010
0000
0100
0010
1000
0001
,
0010
0000
0100
0010
0001
0000
1000
0000
0001
0000
0100
0001
0000
0001
1000
0000
,
0100
0000
0001
0000
0100
0000
1000
0000
0001
0010
0001
0000
1000
0010
1000
0000
,
1001
0000
0000
0000
,
0000
0000
0000
0000
0010
0100
0001
1000
,
0200
0320
0230
0320
,
0031
0100
0010
1000
0020
0000
0230
0000
,
0300
0001
0100
1000
0001
0010
0100
0002
,
2000
0000
3003
1000
0010
0100
0001
0100
,
0020
2030
3020
2030
,
3001
0100
0001
1000
0020
0000
2030
0000
,
3100
0010
0001
0010
1000
0001
0100
2000
,
0001
0000
3000
0000
1000
0000
1000
0000
0000
0000
0001
0000
1000
0001
0000
0000
,
1000
0000
0010
1000
0001
0000
0100
0000
0001
0000
0010
0000
0010
0100
0000
0100
,
0001
0000
0100
0000
1000
0000
0100
0010
0001
0000
0001
0000
1000
0100
0000
0100
,
0010
0000
0001
0000
1000
0000
0001
1000
0010
0000
0100
0000
0001
0100
0000
0100
,
1000
0000
0100
0000
0001
0000
0010
0001
1000
0000
0001
0000
0010
0100
0000
0100
,
1000
0000
0001
0000
0100
0000
0100
0010
1000
0000
0001
0000
0100
0010
0000
0010
,
1000
0000
0001
0000
0100
0000
0001
0100
0001
0000
1000
0000
0100
0010
0000
0010
,
0001
0000
0000
0000
0010
0000
0000
0010
0100
0000
0000
0000
0100
0000
0000
0100
,
1000
0000
0000
1000
0010
0000
0000
0010
1000
0000
0000
1000
0100
1000
0001
1000
,
0100
0000
0000
0000
,
1000
0100
0000
0000
0001
0100
0000
0010
0100
0000
1000
0100
0000
0010
0100
0000
,
0010
0000
0001
0000
1000
0010
0000
0100
0010
0000
0001
0010
0000
0100
0010
0000
,
1000
0000
0001
0000
1000
0100
0000
0010
0100
0000
0001
0100
0000
0010
0100
0000
,
1000
0000
0001
0000
1000
0100
0000
0010
0200
0000
0000
0000
0002
0000
0303
0100
,
1000
0000
0000
0000
0100
0000
0000
0000
0100
0000
0000
0000
0010
0000
0000
0001
,
0100
0000
0100
0000
0010
0000
0010
0000
0100
0000
0000
0000
0010
0000
0000
0010
,
1000
0000
0100
1000
0001
0000
0100
0001
1000
0000
0001
0000
0011
0000
0000
0010
,
0200
0000
0000
0000
0000
0000
0000
0000
0000
0000
0000
0000
0300
0000
0000
1000
,
0001
0100
0101
0000
0100
0010
0110
0000
,
0001
0100
1000
0100
0002
0100
2003
0100
,
3001
0000
1000
0000
0001
0000
0100
0001
1000
0000
0100
0010
0001
0000
0100
0001
,
1000
0000
0001
0100
0001
0000
1000
0100
1000
0000
0010
0001
0000
0010
1000
0001
,
1000
0000
0010
0000
1010
0000
0000
0000
0001
0000
0010
0000
0011
0000
0001
1000
,
0001
0000
0010
0000
1000
0000
0010
0000
0002
0000
0100
0000
1003
0000
1000
0001
,
0100
0000
1000
0100
0010
0000
1000
0001
0010
0000
0100
0010
0001
0000
0001
0000
,
1000
0000
0001
0000
1000
0000
0001
0000
1000
0001
1000
0001
1000
0001
1000
0001
,
0010
0000
0001
0010
0100
0000
1000
0000
0010
0000
1000
0010
0100
0000
0001
0000
,
1000
0010
0001
0000
0001
0010
1000
0000
0001
0000
1000
0010
0100
0000
0010
0000
,
0100
0000
0001
0100
1000
0000
1000
0100
0010
0000
1000
0000
0100
0000
0001
0000
,
0100
0000
0010
0000
0100
0000
1000
0000
0001
0010
0100
0000
0010
0100
1000
0001
,
1000
0000
0010
0000
1000
0000
0100
0010
0100
0000
0000
0100
1000
0000
0100
0010
,
0001
0000
1000
0000
0001
0000
0100
0001
1000
0000
0000
1000
0001
0000
0010
0100
,
1000
0000
0010
0100
0001
0000
1000
0100
0001
0000
0100
0010
0001
0000
0100
0010
,
1000
0010
1000
0100
0010
1000
0010
0001
;
