#TITLE:Particles;
#SUBTITLE:;
#ARTIST:Panda Eyes;
#TITLETRANSLIT:;
#SUBTITLETRANSLIT:;
#ARTISTTRANSLIT:;
#GENRE:Glitch-Hop;
#CREDIT:darkanine;
#MUSIC:Particles.ogg;
#BANNER:Particles.png;
#BACKGROUND:Particles-bg.png;
#CDTITLE:./../EDMix1title.png;
#SAMPLESTART:17.944;
#SAMPLELENGTH:26.916;
#SELECTABLE:YES;
#OFFSET:0.000;
#BPMS:0.000=107.000
,191.000=106.000
,199.000=104.745
,200.000=102.245
,201.000=99.745
,202.000=97.245
,203.000=96.000
,207.000=95.185
,208.000=93.560
,209.000=91.935
,210.000=90.310
,211.000=88.685
,212.000=87.060
,213.000=85.435
,214.000=83.810
,215.000=82.812
,216.000=82.437
,217.000=82.062
,218.000=81.687
,219.000=81.312
,220.000=80.937
,221.000=80.562
,222.000=80.187
,223.000=80.000
;
#STOPS:127.000=0.561;
#BGCHANGES:0.000=Particles.mp4=1.000=0=0=0=StretchNoLoop====,
99999.000=-nosongbg-=1.000=0=0=0=StretchNoLoop====
;
#FGCHANGES:;
#DISPLAYBPM:107.000;

//--------------- dance-single - ----------------
#NOTES:
     dance-single:
     :
     Beginner:
     1:
     0.083453,0.105689,0,0.061492,0,76,76,0,8,0,0,0.083453,0.105689,0,0.061492,0,76,76,0,8,0,0:
0000
0000
0000
0000
,
0000
0000
0000
0000
,
0000
0000
0000
0000
,
0000
0000
0000
0000
,
0000
0000
0000
0000
,
0000
0000
0000
0000
,
0000
0000
0000
0000
,
0000
0000
0000
0000
,
1000
0000
0001
0000
,
0200
0000
0300
0000
,
0001
0000
1000
0000
,
0200
0000
0300
0000
,
1000
0000
0001
0000
,
0200
0000
0300
0000
,
0010
0000
1000
0000
,
0002
0000
0003
0000
,
0000
1000
0000
1000
,
0000
0001
0000
0001
,
0000
1000
0000
1000
,
0000
0001
0000
0000
,
0000
0010
0000
0010
,
0000
0100
0000
0100
,
0000
0010
0000
0010
,
0000
0010
0000
0100
,
0000
0000
1000
1000
,
1000
0000
0000
0000
,
0000
0000
0001
0001
,
0001
0000
0000
0000
,
0010
0000
0010
0010
,
0010
0000
0000
0000
,
0100
0000
0100
0000
,
0100
0100
0100
0000
,
0000
0000
0000
0001
,
0000
0001
0000
0010
,
0000
0100
0000
1000
,
0000
1000
0000
0010
,
0000
0100
0000
0001
,
0000
0001
0000
0010
,
0000
0010
0000
0100
,
0000
0000
0000
2000
,
0000
3000
0000
0002
,
0000
0003
0000
2000
,
0000
3000
0000
0002
,
0000
0003
0000
0000
,
1000
0000
1000
0000
,
0010
0000
0010
0000
,
0001
0000
0001
0000
,
0100
0000
0100
0000
,
1000
0000
0000
0000
,
0100
0000
0000
0000
,
1000
0000
0000
0000
,
0001
0000
0000
0000
,
1000
0000
0000
0000
,
0010
0000
0000
0000
,
0100
0000
0100
0000
,
0001
0000
0000
0000
;

//--------------- dance-single - ----------------
#NOTES:
     dance-single:
     :
     Easy:
     4:
     0.152631,0.191969,0,0.076865,0,139,139,0,10,0,0,0.152631,0.191969,0,0.076865,0,139,139,0,10,0,0:
0000
0000
0000
0000
,
0000
0000
0000
0000
,
0000
0000
0000
0000
,
0000
0000
0000
0000
,
0000
0000
0000
0000
,
0000
0000
0000
0000
,
0000
0000
0000
0000
,
0000
0000
0000
0000
,
1000
0010
1000
1000
,
0200
0000
0310
0000
,
0001
0010
0001
0001
,
2000
0000
3010
0000
,
0001
0010
0001
0001
,
0200
0000
0310
0000
,
1000
0010
1000
0001
,
2000
0000
3100
0000
,
1000
0001
0010
0010
,
0001
1000
0100
0010
,
0001
1000
0010
0010
,
1000
0001
0000
0000
,
0001
1000
0010
0010
,
1000
0001
0010
0010
,
0001
0010
0100
0100
,
1000
0010
0100
0100
,
0000
0000
0010
1000
,
0100
0000
0000
0000
,
0100
0000
0010
0001
,
0100
0000
0000
0000
,
0010
0000
0010
1000
,
0100
0000
0000
0000
,
0100
0000
0100
0000
,
0100
0100
0100
0000
,
1000
0000
1000
0000
,
0001
0000
0001
0000
,
0010
0000
0010
0000
,
0100
0000
0100
1000
,
1000
1000
1000
0010
,
0010
0010
0010
0100
,
0100
0001
0001
1000
,
1000
1000
0000
2000
,
0010
0000
0000
3002
,
0100
0000
0000
2003
,
0010
0001
0001
3002
,
0100
0003
0000
1000
,
0010
0100
0100
0001
,
0010
0100
0100
1000
,
0010
1000
0001
0100
,
0020
0100
1030
0001
,
0001
0000
0000
0100
,
0100
0000
0000
0001
,
0001
1000
1000
0100
,
0100
0000
0000
1000
,
1000
0000
0000
0010
,
0010
0000
0000
1000
,
0001
0100
0100
0001
,
2000
0000
3000
0000
;

//--------------- dance-single - ----------------
#NOTES:
     dance-single:
     :
     Medium:
     7:
     0.236084,0.295928,0,0.099924,0.007686,215,215,0,13,0,0,0.236084,0.295928,0,0.099924,0.007686,215,215,0,13,0,0:
0000
0000
0000
0000
,
0000
0000
0000
0000
,
0000
0000
0000
0000
,
0000
0000
0000
0000
,
1000
0000
0010
0000
1000
0010
0100
0001
,
2000
0000
3100
0000
,
0010
0000
0001
0000
0100
0000
0100
0010
,
1000
0000
0000
0000
,
0001
0000
0010
0000
0001
0100
0010
1000
,
0200
0010
1300
0000
,
1000
0000
0010
0000
0100
0001
0100
0010
,
2000
0010
3001
0000
,
0001
0000
0010
0000
0001
0010
0100
1000
,
0002
0010
0103
0000
,
2000
0010
3002
0100
,
2003
0100
3001
0000
,
1000
0010
0100
0000
0010
1000
0100
0000
,
1000
0001
0100
0000
0001
1000
0001
0010
,
0001
0010
0100
0000
0010
0001
0100
0000
,
0010
0000
1000
0000
0001
0000
0000
0000
0010
0000
0000
0100
0000
0000
1000
0000
,
0001
0010
0100
0000
0010
0001
0100
0000
,
0010
1000
0001
0000
0010
0100
1000
0000
,
1000
0010
0100
0000
0100
0001
0100
0000
,
0001
0010
0100
0000
0100
1000
0100
0000
,
0000
0000
0010
0001
,
0001
0100
0000
0000
0000
0000
0000
0000
,
0100
0000
0010
1000
,
1000
0100
0000
0000
0000
0000
0000
0000
,
0010
0000
0010
0001
,
0001
0100
0000
0000
0000
0000
0000
0000
,
0010
1000
0001
0100
,
1000
1000
1000
0000
,
0100
0010
0100
0001
,
1000
0001
1000
0010
,
0100
0010
0100
1000
,
0001
1000
0001
0010
,
0100
0010
0100
0001
,
0010
0001
0010
0100
,
1000
0100
1000
0001
,
0001
0001
0000
2000
,
0010
0000
0001
0001
3001
0000
0002
0000
,
0100
0000
1000
1000
1003
0000
2000
0000
,
0010
0000
0001
0001
0001
0000
0100
0000
,
0001
0000
0000
0000
3100
0000
0000
0010
0000
0000
0001
0000
1000
0000
0010
0000
,
0200
0000
1000
0000
0301
0000
0001
1000
,
0020
0000
0001
0000
1030
0000
1000
0010
,
1000
0000
0100
0000
0100
0000
0001
0010
,
0200
0000
0001
0000
1300
0000
0000
0010
,
0100
0000
0000
0000
0000
0000
0000
0100
,
1000
0000
0000
0000
0000
0000
0000
1000
,
0001
0100
0001
0010
0001
0000
0100
0010
,
1000
0000
0000
0000
0000
0000
0000
1000
,
0100
0000
0000
0000
0000
0000
0000
0100
,
0010
0000
0000
0000
0000
0000
0000
0010
,
0001
0100
0010
1000
0010
0100
0100
0001
,
1000
0000
0000
0000
;

//--------------- dance-single - ----------------
#NOTES:
     dance-single:
     :
     Hard:
     11:
     0.371146,0.469258,0,0.13067,0.372793,338,338,0,17,0,0,0.371146,0.469258,0,0.13067,0.372793,338,338,0,17,0,0:
0000
0000
0000
0000
,
0000
0000
0000
0000
,
0000
0000
0000
0000
,
0000
0000
0000
0000
,
1000
0000
0100
0000
1000
0000
0100
0010
0100
0010
0000
0010
0001
0000
1000
0000
,
0001
0000
0100
0000
0001
0000
0100
0010
0100
0010
0000
0010
1000
0000
0100
0000
,
0010
0010
0100
0100
1000
1000
0001
0001
,
0200
0000
0000
0310
,
1000
0000
0010
0000
0001
0010
1000
0100
,
0020
1000
0100
0031
,
1000
0000
0010
0000
1000
0010
0001
0010
,
2000
0100
0010
3001
,
1000
0000
0100
0000
0001
0100
1000
0010
,
0200
1000
0010
0301
,
0020
0000
0000
0000
0100
0000
0000
0000
0032
0000
0000
0000
0103
0000
0001
0010
,
0200
0001
1300
0000
,
1000
0100
0010
0000
0100
1000
0000
0010
0000
1000
0100
0000
0010
0100
0000
0000
,
1000
0001
0100
0000
0010
0100
0000
0001
0000
0010
0100
0000
1000
0000
0010
1000
,
0001
0100
0010
0000
0100
0001
0000
0010
0000
0001
0100
0000
0010
0100
0000
0000
,
0001
1000
0010
0000
0100
0001
0000
0000
1000
0010
0000
0010
0100
0000
0100
0001
,
1000
0010
0100
0000
0001
0100
0000
0010
0000
0100
0001
0000
0010
0100
0000
0000
,
1000
0100
0010
0000
0001
0010
0000
0001
0000
1000
0001
0000
0100
0000
0010
0000
,
0100
0001
1000
0000
0100
0010
0000
0001
0000
0001
0100
0000
0001
1000
0000
0000
,
0100
0010
0001
0000
0100
0010
0000
1000
0000
1000
0100
0000
0010
0001
0000
0000
,
0000
0000
0000
0000
0010
0000
0010
0001
,
0100
0010
0100
0000
0000
0000
0000
0000
0100
0000
0000
0000
0001
0000
0000
0000
,
1000
0000
0010
1000
,
0100
0010
0100
0000
0000
0000
0000
0000
0100
0000
0000
0000
0010
0000
0000
0000
,
0001
0000
0010
0001
,
0100
0010
0100
0000
0000
0000
0000
0000
0100
0000
0000
0000
0100
0000
0000
0000
,
0001
0010
0001
1000
,
0100
0100
0100
0000
,
1000
0010
0100
0001
,
1000
0000
0000
0001
0000
0001
0000
0000
1000
0000
0000
0000
0010
0000
0000
0000
,
0100
0001
1000
0001
,
0010
0000
0000
0100
0000
0100
0000
0000
1000
0000
0000
0000
0001
0000
0000
0000
,
0100
0000
0010
0100
0000
0010
0100
0000
0001
0000
0000
0000
1000
0000
0000
0000
,
0100
0000
0010
0100
0000
0010
0100
0000
1000
0000
0000
0000
0020
0000
0000
0000
,
0000
2030
0000
0000
3002
0000
0103
0000
,
0100
0000
0000
0000
0100
0000
0010
0000
0010
0000
0000
0000
1000
0010
0100
0001
,
0020
0000
0000
0000
0100
0000
0100
0000
0100
0000
0100
0000
0130
1000
0001
0010
,
0200
0000
0000
0000
0010
0000
0010
0000
0010
0000
0010
0000
0310
0001
1000
0010
,
0100
0000
0001
0000
0100
0000
0010
0000
1000
0000
0100
0010
0000
0001
0010
0100
,
2000
0000
0000
0000
3001
0010
0000
0010
0100
0000
0100
1000
0001
1000
0010
0100
,
0002
0000
0000
0000
1000
0000
0000
0000
0103
0000
0000
0000
0001
0010
0100
1000
,
0020
0000
0000
0000
0001
0000
0000
0000
0100
0000
0000
0000
1030
0001
1000
0010
,
0100
0000
0001
0000
0010
0000
1000
0000
0010
0000
0100
1000
0000
0001
0100
0010
,
2000
0000
0000
0000
0100
0000
0000
0000
3001
0010
0100
0010
0100
0000
1000
0001
,
0100
0000
0000
0000
0000
0000
0000
0000
0000
0000
0000
0000
0000
0001
0010
0100
,
1000
0000
0000
0000
0000
0000
0000
0000
0000
0000
0000
0000
0000
1000
0001
0010
,
0100
0000
1000
0000
0100
0000
0010
0000
0100
0000
1000
0001
0000
1000
0010
0100
,
0001
0000
0000
0000
0000
0000
0000
0000
0000
0000
0000
0000
0000
0001
1000
0010
,
0100
0000
0000
0000
0000
0000
0000
0000
0000
0000
0000
0000
0000
0001
0010
0100
,
0010
0000
0000
0000
0000
0000
0000
0000
0000
0000
0000
0000
0000
0001
1000
0010
,
0010
0000
0100
0000
0001
0000
0010
0000
0001
0000
1000
1000
0000
0010
0100
0001
,
2000
0000
3000
0000
;
