#VERSION:0.83;
#TITLE:Oblivion;
#SUBTITLE:;
#ARTIST:TheFatRat ft. Lola Blanc;
#TITLETRANSLIT:;
#SUBTITLETRANSLIT:;
#ARTISTTRANSLIT:;
#GENRE:Electro House;
#CREDIT:darkanine;
#MUSIC:Oblivion.ogg;
#BANNER:Oblivion.png;
#BACKGROUND:Oblivion-bg.png;
#CDTITLE:;
#SAMPLESTART:25.162;
#SAMPLELENGTH:27.097;
#SELECTABLE:YES;
#OFFSET:0.483;
#BPMS:0.000=124.000
,108.000=62.000
,124.000=124.000
;
#STOPS:35.000=0.484;
#SPEEDS:0.000=1.000=0.000=0;
#SCROLLS:0.000=1.000;
#TICKCOUNTS:0.000=4;
#TIMESIGNATURES:0.000=4=4;
#LABELS:0.000=Song Start;
#COMBOS:0.000=1;
#DISPLAYBPM:124.000;
#ORIGIN:;
#TAGS:;
#PREVIEWVID:;
#JACKET:Oblivion-jacket.png;
#CDIMAGE:;
#DISCIMAGE:;
#BGCHANGES:0.000=Oblivion.mp4=1.000=0=0=0=StretchNoLoop====,
99999.000=-nosongbg-=1.000=0=0=0=StretchNoLoop====
;
#FGCHANGES:;

//--------------- dance-single - ----------------
#NOTEDATA:;
#STEPSTYPE:dance-single;
#DESCRIPTION:;
#DIFFICULTY:Beginner;
#METER:2;
#RADARVALUES:0.112348,0.128939,0.009145,0,0,86,85,1,0,0,0,0,0,0,0.112348,0.128939,0.009145,0,0,86,85,1,0,0,0,0,0,0;
#CHARTNAME:;
#CHARTHASH:1889679215;
#BANNER:;
#CHARTSTYLE:;
#METERF:0.000000;
#LASTSECONDHINT:98.710678;
#CREDIT:;
#NOTES:
0000
0000
0000
0000
,
0000
0000
0000
0000
,
0000
0000
0000
0000
,
0000
0000
0000
0000
,
0000
0000
0000
0000
,
0000
0000
0000
0000
,
0000
0001
0000
0001
,
0000
0100
0100
0100
,
0000
0100
0000
0000
,
1000
0000
1000
0000
,
0001
0000
0001
0000
,
0010
0000
0010
0000
,
0100
0100
0100
0000
,
0010
0000
0001
0000
,
0010
0000
1000
0000
,
0010
0000
0001
0000
,
0100
0000
0100
0000
,
0010
0000
0010
0000
,
1000
1000
1000
0000
,
0010
0000
0010
0000
,
0001
0001
0001
0000
,
0010
0000
0100
0000
,
0001
0001
0001
0000
,
0010
0000
0100
0000
,
1000
0000
0001
0000
,
0010
0000
0000
0000
,
0000
0000
0000
0000
,
0000
1000
0000
0010
,
0000
0001
0000
0010
,
0000
0100
0000
0010
,
0000
1000
0000
0001
,
0000
0000
1000
0000
,
0100
0100
0100
0000
,
0000
0000
0010
0000
,
0001
0001
0001
0000
,
1000
0000
0010
0000
,
0100
0100
0100
0000
,
0001
0000
0010
0000
,
0100
0100
0000
0000
,
1000
0000
0010
0000
,
1000
0000
0100
0000
,
0001
0000
0010
0000
,
0001
0000
0100
0000
,
0010
0000
1000
0000
,
0100
0000
0100
0000
,
0010
0000
0001
0000
,
0100
0000
0100
0000
,
1001
0000
0000
0000
;

//--------------- dance-single - ----------------
#NOTEDATA:;
#STEPSTYPE:dance-single;
#DESCRIPTION:;
#DIFFICULTY:Easy;
#METER:5;
#RADARVALUES:0.203794,0.228615,0,0.064012,0,156,156,0,7,0,0,0,0,0,0.203794,0.228615,0,0.064012,0,156,156,0,7,0,0,0,0,0;
#CHARTNAME:;
#CHARTHASH:534604516;
#BANNER:;
#CHARTSTYLE:;
#METERF:0.000000;
#LASTSECONDHINT:104.517128;
#CREDIT:;
#NOTES:
0000
0000
0000
0000
,
0000
0000
0000
0000
,
0000
0000
0000
0000
,
0000
0000
0000
0000
,
0000
0000
0000
0000
,
0000
1000
0010
1000
,
0010
0100
0001
0010
,
0001
1000
0100
0001
,
0100
1000
0001
0000
,
1000
0010
1000
0010
,
0010
0001
0010
0001
,
0001
0100
0001
0100
,
0100
1000
0100
1000
,
1000
0010
1000
0100
,
1000
0010
1000
0100
,
0010
0001
0100
0001
,
0010
0001
0100
0000
,
0010
1000
0010
1000
,
0001
0010
0001
0010
,
0100
1000
0100
1000
,
0001
0100
0001
0100
,
0010
0010
1000
0100
,
0010
0010
0001
1000
,
0100
0100
1000
0001
,
0100
0100
0200
0000
,
0300
0000
0000
0000
,
0000
0000
0000
0000
,
0001
0001
1000
1000
,
0010
0010
0100
0100
,
0002
1003
2000
3010
,
0020
0000
0130
0000
0100
0001
1000
0000
,
0100
0100
1000
1000
,
0001
1000
0010
0100
,
0001
0001
0010
0010
,
0001
0100
0010
1000
,
0100
0100
0100
0000
,
0010
0010
0010
0000
,
0001
0001
0001
0000
,
1000
1000
0000
0000
,
1000
0010
0001
0010
,
1000
0010
0001
0010
,
0100
1000
0100
0001
,
0100
1000
0100
0001
,
0001
0010
1000
0010
,
0001
0010
1000
0010
,
0100
0001
0100
1000
,
0100
0001
0100
0100
,
2000
0000
0000
0000
,
3002
0000
0000
0000
,
2003
0000
0000
0000
,
3001
0000
0000
0000
;

//--------------- dance-single - ----------------
#NOTEDATA:;
#STEPSTYPE:dance-single;
#DESCRIPTION:;
#DIFFICULTY:Medium;
#METER:9;
#RADARVALUES:0.306998,0.407393,0.137169,0.036578,0,235,220,15,4,0,0,0,0,0,0.306998,0.407393,0.137169,0.036578,0,235,220,15,4,0,0,0,0,0;
#CHARTNAME:;
#CHARTHASH:2147483647;
#BANNER:;
#CHARTSTYLE:;
#METERF:0.000000;
#LASTSECONDHINT:103.549393;
#CREDIT:;
#NOTES:
0000
0000
0000
0000
,
0000
0000
0000
0000
,
0000
0000
0000
0000
,
0000
0000
0000
0000
,
0000
0000
0000
0000
,
0000
0001
0001
1000
,
1000
0010
0010
0100
,
0100
0001
0010
0100
,
1000
0000
0001
1000
0001
1000
0000
0000
,
0100
0000
0100
0000
1000
0010
1000
0010
,
0100
0000
0100
0000
0001
0010
0001
0010
,
0100
0000
0100
0000
1000
0001
0100
0001
,
0010
0000
0100
0000
0100
1000
0100
0010
,
0001
0000
0001
0000
0010
0100
0010
0001
,
1000
0000
1000
0000
0010
0100
0001
1000
,
0010
0000
0100
0000
0010
1000
0100
0000
,
0020
0000
0000
0030
,
0101
0000
0001
0000
0010
0100
0010
0100
,
1100
0000
1000
0000
0100
0010
0001
1000
,
1010
0000
0001
0000
0100
0010
0100
0001
,
0011
0000
1000
0000
1000
0001
1000
0010
,
0110
0000
1000
0001
0010
0100
1000
0100
,
0110
0000
0001
1000
0010
0100
0001
0100
,
0110
0000
1000
0100
0010
0010
0001
0000
,
0001
0100
0010
0000
1000
1000
0001
0000
,
0000
0000
0000
0000
,
0000
0000
0000
0000
,
1000
0000
1010
0000
0001
0100
0110
0000
,
1000
0000
0011
0000
0001
1000
1001
0000
,
1000
0100
0010
0000
0001
0010
1000
0000
,
0010
0001
0100
0000
0010
0010
0110
0000
,
1000
1000
0001
0001
,
0010
0001
0010
0000
0100
0000
0100
0000
,
1000
1000
0010
0010
,
0100
0001
0100
0000
0010
0000
1000
0000
,
1000
0001
0001
0010
,
0010
0100
0100
1000
,
0010
0100
0001
0010
,
0100
0100
0100
0000
0000
0000
0000
0000
,
1000
0010
1000
0100
1000
0010
0100
0000
,
1010
0010
1000
0000
0100
0010
0001
0000
,
0001
0010
0001
0100
0001
0010
0100
0000
,
0011
0010
0001
0000
0100
0010
1000
0000
,
1000
0100
0010
0100
1000
0010
0100
0000
,
0011
0010
0100
0000
0010
0001
1000
0000
,
0001
0100
0010
0100
0001
1000
0001
0000
,
0001
0010
0100
1000
0001
1000
0100
0010
,
0002
0000
0003
0000
,
2000
0000
3000
0000
,
0200
0000
0300
0000
;

//--------------- dance-single - ----------------
#NOTEDATA:;
#STEPSTYPE:dance-single;
#DESCRIPTION:;
#DIFFICULTY:Hard;
#METER:14;
#RADARVALUES:0.502954,0.571538,0.292628,0.091446,0.731569,385,353,32,10,46,0,0,0,0,0.502954,0.571538,0.292628,0.091446,0.731569,385,353,32,10,46,0,0,0,0;
#CHARTNAME:;
#CHARTHASH:204572502;
#BANNER:;
#CHARTSTYLE:;
#METERF:0.000000;
#LASTSECONDHINT:104.517128;
#CREDIT:;
#NOTES:
0000
0000
0000
0000
,
0000
0000
0000
0000
,
0000
0000
0000
0000
,
0000
0000
0000
0000
,
0000
0000
0000
0000
,
0000
1000
1000
0001
,
0001
0000
1000
0100
1000
0000
0001
0100
,
0001
0000
0000
0000
0000
0000
1000
0000
0000
0010
0000
0000
0110
0000
0000
0000
0000
0000
0001
0000
0010
0100
0000
0000
,
0110
0000
0000
0000
0000
0000
1000
0000
0000
0100
0000
0001
0000
0000
0100
0000
0000
1000
0000
0000
0000
0000
0000
0000
,
0001
0000
0000
1000
0000
0001
0000
0000
0010
0000
0000
0110
0000
0000
1000
0001
0000
0000
0100
0000
0000
0001
0000
0000
,
1000
0000
0000
0100
0000
1000
0000
0000
0010
0000
0000
0110
0000
0000
0001
1000
0000
0001
0010
0000
0100
0010
0000
0001
,
1000
0000
0000
0001
0000
0100
0000
0000
0010
0000
0000
1010
0000
0000
0001
0100
0000
0000
0010
0000
0000
0100
0000
0000
,
0001
0000
0000
0010
0000
0100
0000
0000
1000
0000
0000
1100
0000
0000
0010
0001
0000
1000
0001
0000
0100
0010
0000
1000
,
0001
0000
0000
0100
0000
0010
0000
0000
1000
0000
0000
1010
0000
0000
0001
1000
0000
0000
1000
0000
0000
0001
0000
0000
,
1000
0000
0000
0100
0000
0010
0000
0000
0001
0000
0000
0011
0000
0000
1000
0001
0000
0100
0010
0000
0100
0001
0000
1000
,
0001
0000
0000
0010
0000
0100
0000
0000
1000
0000
0000
1010
0000
0000
0100
0001
0000
0000
0001
0000
0000
1000
0000
0000
,
2020
0000
0000
0000
0000
0000
0000
3030
,
MMMM
0000
0000
1000
0000
0100
0000
0000
1000
0000
0000
1010
0000
0000
0001
1000
0000
0000
0100
0000
0000
0010
0000
0000
,
MMMM
0000
0000
0010
0000
0001
0000
0000
1000
0000
0000
1010
0000
0000
0001
1000
0000
0001
0010
0000
0100
1000
0000
0000
,
MMMM
0000
0000
1000
0000
0010
0000
0000
1000
0000
0000
1100
0000
0000
0010
0001
0000
0000
0100
0000
0000
0010
0000
0000
,
MMMM
0000
0000
0010
0000
0100
0000
0000
0001
0000
0000
0101
0000
0000
0010
1000
0000
0001
1000
0000
0100
0010
0000
0000
,
MMMM
0000
0000
0010
0000
0100
0000
0000
1000
0000
0000
1010
0000
0000
M010
0001
0000
0000
0100
0000
0000
0010
0000
0000
,
MMMM
0000
0000
0010
0000
1000
0000
0000
0001
0000
0000
0011
0000
0000
001M
1000
0000
0010
0100
0000
0001
0100
0000
0000
,
MMMM
0000
0000
0100
0000
0001
0000
0000
1000
0000
0000
1100
0000
0000
M100
0001
0000
0000
1000
0000
0000
0001
0000
0000
,
1000
0000
0000
0001
0000
0100
0000
0000
1000
0000
0000
0001
0000
0000
0010
1000
0000
0001
1000
0000
0100
1000
0000
0100
,
0010
0000
0000
0000
0000
0001
0000
0000
0001
0000
0000
0001
0000
0000
0000
0100
0000
0000
0000
0000
0000
0100
0000
0000
,
0010
0000
0000
0000
0000
1000
0000
0000
1000
0000
0000
1000
0000
0000
0000
0100
0000
0000
0000
0000
0000
0000
0000
0000
,
1000
0000
0000
0000
1001
0000
0000
0000
0001
0100
0010
0000
1010
0000
0010
1000
,
0001
0000
0000
0000
1001
0000
0000
0000
1000
0100
0010
0000
0011
0000
0001
0000
,
2000
0100
3001
0000
0002
0100
0013
0000
,
2000
0000
0001
0000
3100
0000
0000
0000
1000
0001
0100
0000
1001
0000
0000
0000
,
0001
0000
0001
0000
1010
0000
1000
1000
,
0100
1000
0001
0010
0100
0000
0100
0000
,
1001
0000
0010
0000
0110
0000
0001
0001
,
0100
0010
1000
0010
0200
0000
0302
0000
,
1003
0000
0000
0000
0000
0100
0000
0000
0010
0000
0000
0001
0000
0000
0000
0000
0000
0000
0100
0000
0000
0010
0000
0000
,
1000
0000
0000
0000
0000
0100
0000
0000
0010
0000
0000
0001
0000
0000
0000
0000
0000
0000
0100
0000
0000
0010
0000
0000
,
1000
0000
0000
0000
0000
0100
0000
0000
0010
0000
0000
0001
0000
0000
0000
0000
0000
0000
0100
0000
0000
0010
0000
0000
,
1000
0000
0000
0010
0000
0001
0000
0000
0010
0000
0000
0100
0001
0000
0001
1000
0000
1000
0010
0000
0010
1000
0000
0001
,
0100
0000
0000
0100
0000
0010
0000
0000
1000
0000
0000
1100
0000
0000
M100
0001
0000
0000
1000
0000
0000
0100
0000
0000
,
MMMM
0000
0000
0100
0000
0010
0000
0000
0001
0000
0000
1001
0000
0000
1000
0010
0000
0100
0001
0000
1000
0100
0000
0010
,
0001
0000
0000
0001
0000
0100
0000
0000
0010
0000
0000
0101
0000
0000
010M
1000
0000
0000
0001
0000
0000
0100
0000
0000
,
MMMM
0000
0000
0100
0000
0010
0000
0000
1000
0000
0000
0001
0000
0000
1000
0010
0000
0100
0001
0000
1000
0100
0000
0010
,
0001
0000
0000
1000
0000
0100
0000
0000
0010
0000
0000
0011
0000
0000
001M
1000
0000
0000
0001
0000
0000
1000
0000
0000
,
MMMM
0000
0000
1000
0000
0100
0000
0000
0010
0000
0000
0110
0000
0000
0100
1000
0000
0001
0100
0000
0010
1000
0000
0001
,
0010
0000
0000
0100
0000
1000
0000
0000
0010
0000
0000
0110
0000
0000
0001
1000
0000
0000
0100
0000
0000
0010
0000
0000
,
0011
0000
0000
0001
0000
0100
0000
0000
1000
0000
0000
0100
0000
0000
0010
1000
0000
0010
0100
0000
0001
0010
0000
0100
,
2000
0000
0000
0000
0000
0100
0000
0000
0001
0000
0000
0010
0000
0000
3000
1000
0000
0000
0000
0000
0000
0000
0000
0000
,
0002
0000
0000
0000
0000
0100
0000
0000
1000
0000
0000
0010
0000
0000
0003
0001
0000
0000
0000
0000
0000
0000
0000
0000
,
0200
0000
0000
0000
,
0300
0000
0000
0000
;
