#VERSION:0.83;
#TITLE:Not Alone;
#SUBTITLE:;
#ARTIST:SICK INDIVIDUALS & Justin Prime ft. Bymia;
#TITLETRANSLIT:;
#SUBTITLETRANSLIT:;
#ARTISTTRANSLIT:;
#GENRE:Future House;
#CREDIT:darkanine;
#MUSIC:Not Alone.ogg;
#BANNER:Not Alone.png;
#BACKGROUND:Not Alone-bg.png;
#CDTITLE:;
#SAMPLESTART:85.714;
#SAMPLELENGTH:22.857;
#SELECTABLE:YES;
#OFFSET:0.000;
#BPMS:0.000=126.000;
#STOPS:211.000=0.476;
#SPEEDS:0.000=1.000=0.000=0;
#SCROLLS:0.000=1.000;
#TICKCOUNTS:0.000=4;
#TIMESIGNATURES:0.000=4=4;
#LABELS:0.000=Song Start;
#COMBOS:0.000=1;
#ORIGIN:;
#TAGS:;
#PREVIEWVID:;
#JACKET:Not Alone-jacket.png;
#CDIMAGE:;
#DISCIMAGE:;
#BGCHANGES:0.000=Not Alone.mp4=1.000=0=0=0=StretchNoLoop====,
99999.000=-nosongbg-=1.000=0=0=0=StretchNoLoop====,
99999.000=-nosongbg-=1.000=0=0=0=StretchNoLoop====
;
#FGCHANGES:;

//--------------- dance-single - ----------------
#NOTEDATA:;
#STEPSTYPE:dance-single;
#DESCRIPTION:;
#DIFFICULTY:Beginner;
#METER:5;
#RADARVALUES:0.203514,0.253053,0.016662,0.008331,0,171,169,2,1,0,0,0,0,0,0.203514,0.253053,0.016662,0.008331,0,171,169,2,1,0,0,0,0,0;
#CHARTNAME:;
#CHARTHASH:1856531683;
#BANNER:;
#CHARTSTYLE:;
#METERF:0.000000;
#LASTSECONDHINT:116.190292;
#CREDIT:;
#NOTES:
0000
0000
0000
0000
,
0000
0000
0000
0000
,
0000
0000
0000
0000
,
0000
0000
0000
0000
,
0000
0000
0000
0000
,
0001
0000
0001
0000
,
1000
0000
1000
0000
,
0100
0100
0100
0100
,
0100
0000
0000
0000
,
1000
0010
0100
0100
,
0001
0001
0001
0001
,
0010
0001
1000
0100
,
1000
1000
1000
0000
,
0010
0100
0010
1000
,
0001
0001
0001
0001
,
0010
0100
0010
0001
,
0200
0000
0000
0300
,
0100
0000
0001
0000
,
1000
0000
0000
0000
,
0100
0000
1000
0000
,
0001
0000
0000
0000
,
0010
0000
0001
0000
,
0100
0000
0000
0000
,
0010
0000
1000
0000
,
0001
0000
0000
0000
,
1000
1000
1000
0000
,
0010
0010
0010
0000
,
0100
0001
1000
0000
,
0001
1000
0100
0000
,
0010
0010
0010
0000
,
0001
0001
0001
0000
,
1000
0100
0001
0100
,
1000
1000
0000
1001
,
0000
0100
0000
0100
,
0000
0010
0000
0010
,
0000
1000
0000
1000
,
0000
0001
0000
0001
,
1000
1000
0001
0001
,
0010
0010
0001
0001
,
1000
1000
0100
0100
,
1000
1000
0010
0010
,
0100
0100
0100
0000
,
0001
0001
0001
0000
,
1000
1000
1000
1000
,
1000
0000
0000
0000
,
0001
0010
0001
0100
,
0010
0010
0010
0010
,
0100
0010
1000
0001
,
0100
0100
0100
0000
,
0001
0010
0100
1000
,
0001
0001
0001
0001
,
1000
0010
0100
0001
,
0001
1000
0100
0000
,
1001
1000
0001
0010
,
0010
0010
0010
0001
,
0100
0010
1000
0100
,
0100
0100
0000
1000
,
0001
0010
0100
1000
,
1000
1000
1000
0001
,
0100
1000
0100
0010
,
0010
1000
0000
0100
;

//--------------- dance-single - ----------------
#NOTEDATA:;
#STEPSTYPE:dance-single;
#DESCRIPTION:;
#DIFFICULTY:Easy;
#METER:9;
#RADARVALUES:0.322528,0.37958,0.108303,0.016662,0,271,258,13,2,0,0,0,0,0,0.322528,0.37958,0.108303,0.016662,0,271,258,13,2,0,0,0,0,0;
#CHARTNAME:;
#CHARTHASH:136787690;
#BANNER:;
#CHARTSTYLE:;
#METERF:0.000000;
#LASTSECONDHINT:116.190292;
#CREDIT:;
#NOTES:
0000
0000
0000
0000
,
0000
0000
0000
0000
,
0000
0000
0000
0000
,
0000
0000
0000
0000
,
0000
0000
0000
0000
,
1000
0100
0001
0100
,
0010
1000
0010
0001
,
0200
0000
0000
0000
,
0310
0010
0010
0000
,
1000
0010
0100
0000
0001
0010
0100
1000
,
0000
0001
0000
1000
0000
0001
0000
1000
,
0010
0100
0001
0000
0010
0100
1000
0010
,
0000
0100
0000
0010
0000
0100
0000
0010
,
1000
0100
0010
0000
0001
0010
0100
1000
,
0000
0010
0000
0001
0000
0010
0000
1000
,
0001
0010
0010
0000
1000
0010
0010
0000
,
0200
0000
0300
0000
,
0001
0000
0001
0000
0100
0000
0000
1001
,
0000
0000
0000
0000
,
1000
0000
1000
0000
0001
0000
0000
0110
,
0000
0000
0000
0000
,
0001
0000
1000
0000
1001
0000
0000
0100
,
0000
0000
0000
0000
,
0001
0000
0010
0000
0110
0000
0000
1000
,
0000
0000
0000
0000
,
0010
0010
0100
0100
,
0001
1000
0001
1000
,
0100
0010
0001
0100
,
0010
1010
0010
0011
,
1000
0100
0001
0100
,
1000
0101
0001
1100
,
1000
1000
0010
0000
0001
0001
0010
0000
,
1000
0001
1000
0000
,
0001
0000
1000
0000
0001
1000
0001
0000
,
1000
0010
0001
0010
,
0100
1000
0100
0001
,
0010
0001
0010
0000
0100
0000
0100
0000
,
1000
0010
1000
0000
0001
0100
0001
0000
,
0010
0001
0010
0000
0100
1000
0100
0000
,
1000
0010
0100
0010
1000
0000
1000
0000
,
0001
0010
0100
0010
0001
0000
0001
0000
,
1000
0010
1000
0000
0001
0010
0001
0000
,
1000
0100
1000
0000
0001
0100
0001
0000
,
1000
0001
1000
0001
1000
0001
1000
0000
,
0100
0100
0100
0000
,
1000
0100
0100
0000
0001
0100
0100
1000
,
0000
0010
0000
0001
0000
0010
0000
1000
,
0001
0010
0010
0000
1000
0010
0010
0001
,
0000
0100
0000
1000
0000
0100
0000
0001
,
1000
0001
0010
0000
1000
0010
0001
1000
,
0000
1010
0000
0001
0000
0011
0000
1000
,
0001
0100
1000
0000
0100
0010
1000
0000
,
0100
0010
0100
0010
0000
0000
1001
0000
,
0110
0000
1000
0001
1000
0100
0000
0100
,
0001
0100
0000
0100
1000
0100
0010
0001
,
1000
0000
0010
1000
0001
0100
0000
0100
,
1000
0100
0000
0100
0001
0100
0010
1000
,
0100
0000
1000
0010
0100
0010
0000
0010
,
0001
0010
0000
0010
1000
0010
0100
0001
,
0010
0000
1000
0010
0001
0000
0100
0100
,
0100
0010
1001
0100
;

//--------------- dance-single - ----------------
#NOTEDATA:;
#STEPSTYPE:dance-single;
#DESCRIPTION:;
#DIFFICULTY:Medium;
#METER:11;
#RADARVALUES:0.392746,0.430191,0.08331,0.016662,0.154123,330,320,10,2,0,0,0,0,0,0.392746,0.430191,0.08331,0.016662,0.154123,330,320,10,2,0,0,0,0,0;
#CHARTNAME:;
#CHARTHASH:1154379294;
#BANNER:;
#CHARTSTYLE:;
#METERF:0.000000;
#LASTSECONDHINT:116.190292;
#CREDIT:;
#NOTES:
0000
0000
0000
0000
,
0000
0000
0000
0000
,
0000
0000
0000
0000
,
0000
0000
0000
0000
,
0000
0000
0000
0000
,
0001
0010
0001
0010
0100
1000
0100
1000
,
0010
1000
0010
1000
0001
0100
0001
0100
,
0020
0000
0000
0000
,
0130
0100
0100
0000
,
0001
0010
0100
0000
0100
0010
0001
1000
,
0010
0000
0000
0010
0001
0000
0000
0001
0010
0000
0000
0010
1000
0000
0000
1000
,
0001
0100
0010
0000
1000
0010
0100
0001
,
0100
0000
0000
0100
1000
0000
0000
1000
0100
0000
0010
0000
1000
0000
0100
0000
,
0010
0001
0100
0000
0100
0010
1000
0001
,
0010
0000
0000
0010
1000
0000
0000
1000
0010
0000
0000
0010
0001
0000
0000
0001
,
1000
0010
0100
0000
0010
1000
0100
0010
,
0002
0000
0000
0003
,
1000
0000
0000
0000
1000
0000
0000
0000
1000
0000
0000
0010
0000
0000
0100
0000
,
0000
0000
0000
0000
,
0001
0000
0000
0000
0001
0000
0000
0000
0001
0000
0000
0010
0000
0000
0010
0000
,
0000
0000
0000
0000
,
0001
0000
0000
0000
0001
0000
0000
0000
1000
0000
0000
0010
0000
0000
0100
0000
,
0000
0000
0000
0000
0000
0000
0000
0000
0000
0000
0000
0000
0000
0000
0100
0001
,
1000
0000
0000
0000
1000
0000
0000
0000
0100
0000
0000
0010
0000
0000
1001
0000
,
0000
0000
0000
0000
,
1000
0100
1000
0000
0010
0001
0010
0000
,
0100
0001
0100
0001
1000
0000
0001
0000
,
0010
0010
0100
0100
,
1000
0010
1000
0000
0100
0010
0001
0000
,
0001
0100
0001
0000
0010
1000
0010
0000
,
0100
1000
0100
1000
0001
0000
0001
0000
,
1010
0011
1100
0101
,
0100
0110
1000
1001
,
0001
0000
0001
0000
1000
0000
1000
0010
,
0100
0100
0001
0001
,
0010
0000
0010
0000
0100
0000
0100
1000
,
0001
0000
0001
0000
0100
0000
0010
1000
,
0010
0000
0010
0001
0010
0000
0010
1000
,
0010
0000
0010
0001
0010
0000
0010
1000
,
0100
0000
0100
0001
0100
0000
0100
1000
,
0100
0000
0100
0001
0100
0000
0100
1000
,
0010
0100
0010
1000
0100
0010
0100
1000
,
0001
0010
0001
0100
0010
1000
0010
0100
,
0001
0001
1000
1000
0100
0100
0010
0100
,
0010
0010
0010
0000
,
0001
0010
0100
0000
0001
0100
1000
0010
,
0100
0000
0000
0100
1000
0000
0000
1000
0100
0000
0000
0100
0001
0000
0000
0001
,
1000
0010
0100
0000
1000
0100
0001
0010
,
0100
0000
0000
0100
0010
0000
0000
0010
0100
0000
1000
0000
0010
0000
0100
0000
,
0010
1000
0100
0000
0001
0100
0010
0001
,
0010
0000
0000
0010
1000
0000
0000
1000
0010
0000
0000
0010
0001
0000
0000
0001
,
1000
0010
0001
0000
0010
0100
0001
0000
,
1000
0000
0100
0010
0001
0000
0000
0000
1000
0000
0000
0000
0110
0000
0000
0000
,
1001
0000
0000
0000
0001
0000
0010
0000
0100
0000
1000
0000
0001
0000
0000
0001
,
0100
0000
0000
0100
0010
0000
0000
0010
1000
0000
0000
1000
0001
0000
0010
0000
,
0100
0000
0000
0000
1000
0000
0100
0000
0010
0000
0001
0000
0100
0000
0000
0100
,
0010
0000
0000
0010
0100
0000
0001
0000
1000
0000
0000
0000
0001
0000
0010
0000
,
0100
0000
0000
0000
0001
0000
0100
0000
1000
0000
0010
0000
0100
0000
0000
0100
,
0001
0000
0000
0001
0010
0000
0000
0010
1000
0000
0000
1000
0010
0000
0100
0000
,
1000
0000
0100
0001
0100
0010
0010
0000
,
1001
0000
0000
0000
0100
0000
0000
0100
0001
0000
0100
0000
1000
0000
0000
0000
;

//--------------- dance-single - ----------------
#NOTEDATA:;
#STEPSTYPE:dance-single;
#DESCRIPTION:;
#DIFFICULTY:Hard;
#METER:15;
#RADARVALUES:0.651006,0.784465,0.116634,0.024993,0.76645,547,533,14,3,0,0,0,0,0,0.651006,0.784465,0.116634,0.024993,0.76645,547,533,14,3,0,0,0,0,0;
#CHARTNAME:;
#CHARTHASH:2147483647;
#BANNER:;
#CHARTSTYLE:;
#METERF:0.000000;
#LASTSECONDHINT:116.190292;
#CREDIT:;
#NOTES:
0000
0000
0000
0000
,
0000
0000
0000
0000
,
0000
0000
0000
0000
,
0000
0000
0000
0000
,
0000
0000
0000
0000
,
1000
0001
0100
0100
0010
0010
1000
1000
,
0001
0010
0001
0010
0001
0100
0001
0100
0010
1000
0010
1000
0100
1000
0100
1000
,
0002
0000
0000
0000
,
0103
0000
0100
0000
0100
0010
1001
0000
,
1000
0100
0010
0000
0010
0100
1000
0000
1000
0010
0100
0010
0100
0001
0010
0100
,
1000
0100
0010
0001
1000
0100
0010
0001
1000
0100
0010
0001
1000
0100
0010
0001
,
1000
0010
0100
0000
0100
0010
1000
0000
1000
0001
0100
0010
1000
0100
0010
0001
,
1000
0001
0010
0100
1000
0001
0010
0100
1000
0001
0010
0100
1000
0000
1000
0000
,
0001
0010
0100
0000
0100
0010
0001
0000
0001
0010
0100
1000
0001
1000
0010
0100
,
0001
0100
0010
1000
0001
0100
0010
1000
0001
0100
0010
1000
0001
0100
0010
1000
,
0010
0100
0001
0000
0001
0010
0100
0000
0100
1000
0001
0100
0010
1000
0100
0000
,
2000
0000
0000
0000
,
3001
0000
0000
0000
0100
0000
0000
0000
0010
0000
0000
1010
0000
0000
1000
0000
,
0000
0000
0000
0000
0000
0000
0000
0000
0000
0000
0000
0000
0000
0000
1000
0001
,
0010
0000
0000
0000
0100
0000
0000
0000
0010
0000
0000
0011
0000
0000
0001
0000
,
0000
0000
0000
0000
,
0001
0000
0000
0000
1000
0000
0000
0000
0010
0000
0000
0110
0000
0000
0100
0000
,
0000
0000
0000
0000
0000
0000
0000
0000
0000
0000
0000
0000
0000
0000
0100
0001
,
1000
0000
0000
0000
1000
0000
0000
0000
0001
0000
0000
1001
0000
0000
0100
0000
,
0000
0000
0000
0000
,
1000
0000
0000
1000
0100
0000
0010
0000
0001
0000
0010
0000
0100
0010
0000
0000
,
0001
0000
0000
0001
0100
0000
0010
0000
1000
0000
0010
0000
0100
0010
0000
0000
,
0100
0000
0000
0100
0001
0000
0100
0000
1000
0000
0100
0000
0010
1000
0000
0000
,
0001
0000
0000
0001
1000
0000
0100
0000
0001
0000
0100
0000
1000
0001
0000
0000
,
0100
0000
0000
0100
0010
0000
1000
0000
0100
0000
0010
0000
0100
1000
0000
0000
,
0100
0000
0000
0100
0010
0000
0001
0000
0100
0000
0010
0000
0100
0001
0000
0000
,
0010
0000
0000
0010
1000
0000
0000
1000
0020
0000
0000
0000
0031
0000
1000
0000
,
0010
0000
0000
0010
0100
0000
0010
0000
0110
0000
0000
0000
1001
0000
0000
0000
,
1000
0001
1000
0000
0010
1000
0010
0000
,
0100
0010
0100
0000
0100
0010
0100
0000
,
0001
1000
0010
0000
0100
0001
1000
0000
,
0100
0010
0100
0000
1000
0000
1000
0000
,
0001
0100
0010
0100
1000
0100
0010
1000
,
0001
0010
0100
0010
1000
0010
0100
1000
,
0001
0001
0100
0100
1000
1000
0001
0001
,
0010
0010
1000
1000
0100
0100
0100
0100
,
1001
0000
1000
0100
1000
0000
0001
0100
0001
0000
0010
0100
0010
0000
0001
1000
,
0001
0000
0100
0010
0100
0000
0001
0010
0001
0000
1000
0010
1000
0000
0010
0100
,
0001
0100
0001
0100
0001
1000
0001
1000
0001
0010
0001
0010
0100
0010
0100
1000
,
0010
0000
0010
0000
0010
0100
1001
0000
,
0001
0010
1000
0000
1000
0010
0100
0000
0100
1000
0001
0100
0010
1000
0010
0100
,
0001
0010
0100
1000
0001
0010
0100
1000
0001
0010
0100
1000
0001
0010
0100
1000
,
0001
0100
1000
0000
1000
0100
0010
0000
0010
0100
0001
1000
0100
0010
0001
1000
,
0010
0100
0001
1000
0010
0100
0001
1000
0010
0100
0001
1000
0100
0000
0010
0000
,
0001
0010
1000
0000
1000
0010
0100
0000
0100
0010
0001
1000
0010
0100
0001
0010
,
0100
0010
0001
1000
0100
0010
0001
1000
0100
0010
0001
1000
0100
0010
0001
1000
,
0010
0100
0001
0000
0001
0100
0010
0000
0010
1000
0001
0100
0010
1000
0001
0010
,
0100
0000
0000
0000
0000
0000
0100
0000
1000
0000
0100
0000
0010
0000
0000
0001
0000
0000
0100
0000
0000
0010
0000
0000
1000
0000
0000
0000
0000
0000
0000
0000
0000
0000
0000
0000
0110
0000
0000
0000
0000
0000
0000
0000
0000
0000
0000
0000
,
1001
0000
0000
0000
0001
0100
0010
1000
0010
0100
0001
0010
0100
1000
0001
0010
,
0100
1000
0001
0010
0100
1000
0001
0010
0100
1000
0001
0010
1000
0010
0001
0000
,
0001
1000
0010
0000
0010
0100
0001
0100
0010
1000
0001
0010
0100
1000
0010
0100
,
0010
1000
0100
0010
0100
1000
0010
0100
0010
0000
0100
0000
0001
0100
1000
0000
,
0100
0010
1000
0000
1000
0100
0010
1000
0010
0001
1000
0010
0100
0001
1000
0010
,
0100
0001
1000
0010
0100
0001
1000
0010
0100
0001
1000
0010
0001
0010
1000
0000
,
0100
0010
1000
0000
0010
0100
1000
0010
0000
0010
0001
0000
1000
0000
1100
0000
,
0101
0000
0001
0000
1000
0000
0000
0100
0001
0000
1000
0000
0110
0000
0000
0000
;
