#VERSION:0.83;
#TITLE:No Sleep;
#SUBTITLE:;
#ARTIST:Last Heroes;
#TITLETRANSLIT:;
#SUBTITLETRANSLIT:;
#ARTISTTRANSLIT:;
#GENRE:Melodic Bass;
#CREDIT:darkanine;
#MUSIC:No Sleep.ogg;
#BANNER:No Sleep.png;
#BACKGROUND:No Sleep-bg.png;
#CDTITLE:;
#SAMPLESTART:27.143;
#SAMPLELENGTH:29.995;
#SELECTABLE:YES;
#OFFSET:0.000;
#BPMS:0.000=84.000;
#STOPS:;
#SPEEDS:0.000=1.000=0.000=0;
#SCROLLS:0.000=1.000;
#TICKCOUNTS:0.000=4;
#TIMESIGNATURES:0.000=4=4;
#LABELS:0.000=Song Start;
#COMBOS:0.000=1;
#ORIGIN:;
#TAGS:;
#PREVIEWVID:;
#JACKET:No Sleep-jacket.png;
#CDIMAGE:;
#DISCIMAGE:;
#BGCHANGES:0.000=No Sleep.mp4=1.000=0=0=0=StretchNoLoop====,
99999.000=-nosongbg-=1.000=0=0=0=StretchNoLoop====
;
#FGCHANGES:;

//--------------- dance-single - ----------------
#NOTEDATA:;
#STEPSTYPE:dance-single;
#DESCRIPTION:;
#DIFFICULTY:Beginner;
#METER:1;
#RADARVALUES:0.076118,0.079527,0.007953,0.015905,0,67,66,1,2,0,0,0,0,0,0.076118,0.079527,0.007953,0.015905,0,67,66,1,2,0,0,0,0,0;
#CHARTNAME:;
#CHARTHASH:2147483647;
#BANNER:;
#CHARTSTYLE:;
#METERF:0.000000;
#LASTSECONDHINT:114.285713;
#CREDIT:;
#NOTES:
0000
0000
0000
0000
,
0000
0000
0000
0000
,
1000
0000
0000
0000
,
0000
0000
0000
0000
,
0001
0000
0000
0000
,
0000
0000
0000
0000
,
0010
0000
0010
0000
,
0100
0000
0100
0000
,
1000
0000
1000
0000
,
0002
0000
0003
0000
,
0010
0000
0001
0000
,
1000
0000
1000
0000
,
0010
0000
0100
0000
,
0001
0000
0001
0000
,
1000
0000
0100
0000
,
0010
0000
0010
0000
,
0001
0000
0100
0000
,
0010
0000
0010
0000
,
1000
0000
1000
0000
,
0001
0000
0001
0000
,
0000
0100
0000
0100
,
0000
0010
0000
0010
,
0000
1000
0000
1000
,
0000
0001
0000
0001
,
0000
0010
0000
1000
,
0000
0010
0000
0001
,
0000
0100
0000
1000
,
0000
0100
0000
0000
,
0001
0000
0000
0100
,
0100
0000
0000
0000
,
0010
0000
0010
0000
,
2000
0000
3000
0000
,
1001
0000
0000
0000
,
1000
0000
1000
0000
,
0010
0000
0100
0000
,
0001
0000
0001
0000
,
1000
0000
0100
0000
,
0010
0000
0010
0000
,
0001
0000
0100
0000
,
0010
0000
0010
0000
,
0100
0000
0000
0000
;

//--------------- dance-single - ----------------
#NOTEDATA:;
#STEPSTYPE:dance-single;
#DESCRIPTION:;
#DIFFICULTY:Easy;
#METER:4;
#RADARVALUES:0.137468,0.174959,0.055669,0.031811,0,121,114,7,4,0,0,0,0,0,0.137468,0.174959,0.055669,0.031811,0,121,114,7,4,0,0,0,0,0;
#CHARTNAME:;
#CHARTHASH:801608686;
#BANNER:;
#CHARTSTYLE:;
#METERF:0.000000;
#LASTSECONDHINT:114.285713;
#CREDIT:;
#NOTES:
0000
0000
0000
0000
,
0000
0000
0000
0000
,
0000
0000
0000
0000
,
0000
0000
0000
0000
,
0000
0000
0000
0000
,
0000
0000
0000
0000
,
1000
1000
0001
0010
,
0100
0100
0010
0010
,
0001
0001
1000
1000
,
0200
0000
0300
0000
,
1000
1001
0001
0100
,
0010
0100
0010
0100
,
0001
1001
1000
0100
,
0010
0100
0010
0010
,
0001
1001
1000
0001
,
1000
0010
0001
0010
,
1000
1001
0001
1000
,
0001
0010
1000
0010
,
0100
0100
0000
1000
,
0000
0001
0000
0200
,
0300
0010
0000
1000
,
0000
0001
0000
0010
,
0000
0100
0000
1000
,
0000
0001
0000
0100
,
0010
0010
0000
1000
,
0001
0001
0000
0010
,
0100
0100
0000
0010
,
0001
0001
0000
1000
,
0100
0100
0100
0100
,
0010
0001
1000
0001
,
0100
0100
0010
0010
,
2002
0000
3003
0000
,
0110
0000
1001
0000
,
1000
1000
0010
0100
,
0001
0001
0010
0100
,
0010
0010
0001
0001
,
1000
0010
0100
0100
,
0001
0010
0100
0100
,
1000
0001
0100
0100
,
0010
0010
0010
0100
,
0001
0000
0000
0000
;

//--------------- dance-single - ----------------
#NOTEDATA:;
#STEPSTYPE:dance-single;
#DESCRIPTION:;
#DIFFICULTY:Medium;
#METER:7;
#RADARVALUES:0.229491,0.254485,0.071574,0.031811,0.011929,202,193,9,4,0,0,0,0,0,0.229491,0.254485,0.071574,0.031811,0.011929,202,193,9,4,0,0,0,0,0;
#CHARTNAME:;
#CHARTHASH:2147483647;
#BANNER:;
#CHARTSTYLE:;
#METERF:0.000000;
#LASTSECONDHINT:114.285713;
#CREDIT:;
#NOTES:
0000
0000
0000
0000
,
0000
0000
0000
0000
,
0000
0000
0000
0000
,
0000
0000
0000
0000
,
0000
0000
0000
0000
,
0000
0000
0000
0000
,
1000
1000
1000
0000
0010
0010
0100
0000
,
0001
0001
0001
0000
0010
0100
0010
0000
,
0001
0001
0001
0001
1000
1000
1000
1000
,
0020
0000
0030
0000
,
0010
0000
0000
0010
1000
0000
0000
0000
0001
0000
0001
0000
0001
0000
0000
0000
,
0010
0001
1000
0000
0001
1000
0010
0010
,
0100
0000
0110
0000
1000
0001
1000
0000
,
0100
1000
0001
0000
1000
0001
1000
1000
,
0100
0000
0000
0100
0010
0000
0000
0000
0001
0000
0001
0000
0001
0000
0000
0000
,
1000
0010
1000
0000
0001
0010
0001
0001
,
1000
0000
1001
0000
0100
0100
0100
0000
,
0010
0100
0001
0100
1000
0100
0010
0010
,
0100
1001
0010
1001
,
0001
0110
1000
0110
,
1000
0010
1000
0000
0100
0010
0100
0000
,
0001
0100
1000
0010
0000
0000
0000
0000
,
0100
0001
0100
0000
0010
1000
0100
0000
,
0010
0001
1000
0010
0000
0000
0000
0000
,
1000
0010
0001
0000
0001
0010
1000
0000
,
1000
0100
0010
0000
0010
0100
1000
0000
,
0001
0010
1000
0000
1000
0010
0001
0000
,
0002
1003
2000
3001
,
1000
1000
1000
0000
0010
0010
0010
0000
,
0001
0001
0001
0000
0010
0010
0010
0000
,
0100
1000
0100
0010
0100
0001
0100
0000
,
0020
0000
0030
0000
,
1010
0000
0011
0000
,
1000
0100
0001
0100
1000
0100
0010
0010
,
0001
0001
1000
0000
1000
1000
0001
0000
,
0001
0100
1000
0100
0001
1000
0001
0001
,
1000
0000
0000
1000
0100
0000
0000
0000
0001
0000
0001
0000
0100
0000
0000
0000
,
1000
0010
0001
0010
1000
0010
0100
0100
,
0001
0011
1000
1000
,
0001
0010
1000
0010
0001
1000
0001
0001
,
0100
0000
0000
0000
;

//--------------- dance-single - ----------------
#NOTEDATA:;
#STEPSTYPE:dance-single;
#DESCRIPTION:;
#DIFFICULTY:Hard;
#METER:11;
#RADARVALUES:0.41013,0.464137,0.111337,0.047716,0.501018,361,347,14,6,0,0,0,0,0,0.41013,0.464137,0.111337,0.047716,0.501018,361,347,14,6,0,0,0,0,0;
#CHARTNAME:;
#CHARTHASH:2147483647;
#BANNER:;
#CHARTSTYLE:;
#METERF:0.000000;
#LASTSECONDHINT:119.107147;
#CREDIT:;
#NOTES:
0000
0000
0000
0000
,
0000
0000
0000
0000
,
0000
0000
0000
0000
,
0000
0000
0000
0000
,
0000
0000
0000
0000
,
0000
0000
0000
0000
,
1000
1000
0001
0001
0010
0010
0100
1000
,
0010
0010
0100
0100
0001
1000
0001
0001
,
0010
0001
0010
0001
0000
0000
1000
0010
1000
0010
1000
0010
1000
0010
0100
0001
,
0020
0000
0030
0000
,
1000
0010
1000
0010
0100
0000
0000
0001
1000
0100
1000
0001
1000
0100
0000
0000
,
0010
0001
0010
0100
1000
0001
0100
0010
1000
0001
0010
0100
1000
0000
1000
0000
,
0001
0010
0001
0010
0100
0000
0000
1000
0001
0100
0001
1000
0001
0100
0000
0000
,
0010
1000
0010
0100
0001
1000
0100
0010
0001
1000
0010
0100
0001
0000
0001
0000
,
0010
0100
0010
0100
1000
0000
0000
0010
0100
0001
0100
0010
0100
0001
0000
0000
,
1000
0010
0100
0001
1000
0100
0010
0001
1000
0010
0100
0001
0010
0000
0010
0000
,
0100
0010
0100
0010
0001
0000
0000
0010
0100
1000
0100
0010
0100
1000
0000
0000
,
0001
0010
0100
1000
0001
0100
0010
1000
0001
0010
0100
1000
0001
0000
1010
0000
,
1000
0000
0000
1000
0001
0000
0001
0000
0100
0000
0001
0000
0101
0000
0100
0000
,
0001
0000
0001
0000
1001
0000
1000
0000
0100
0000
0000
0100
2000
0000
0000
0000
,
3001
0000
0000
0000
0110
0000
0000
0000
0000
1000
1000
0000
0001
0000
0000
0000
,
1000
0000
0001
1000
0100
0000
0010
0000
0000
0000
0100
0000
0010
0001
0000
0000
,
0001
0000
1000
0000
1010
0000
0000
0000
0000
0001
0001
0000
0010
0000
0000
0000
,
0100
0000
0010
0001
1000
0000
0110
0000
0000
0000
0100
0000
1001
0001
0000
0000
,
1000
0000
0100
0000
1100
0000
0000
0000
0000
0010
0001
0000
0101
0000
0010
0000
,
1000
0000
0100
0001
0000
0100
1000
0000
1000
0000
0010
0001
0000
0010
2000
0000
,
3100
0000
0010
0000
0011
0000
0000
0000
0000
1000
0010
0000
1010
0000
0000
0000
,
0002
0000
1003
0000
0000
0200
0310
0000
,
1000
0010
0010
0100
0100
0001
0001
0010
,
0100
1000
0001
1000
0010
1000
0010
0010
,
0100
0001
0100
0001
0100
0001
1000
0100
1000
0100
1000
0100
1000
0100
0010
0001
,
2000
0000
0010
0000
0010
0000
0010
0010
3000
0000
0000
0000
0000
0000
0000
0000
,
0110
0000
0000
0000
0000
0000
0000
1000
1001
0000
0000
0000
0000
0000
0000
0000
,
0001
0010
0001
1000
0010
0100
0001
1000
0100
0010
0001
1000
0010
0000
0010
0000
,
0100
0001
0010
0001
1000
0000
0000
0100
0010
0001
0010
0100
0010
0001
1000
0000
,
0010
0100
0001
1000
0100
0010
0001
1000
0010
0100
0010
0100
0001
0000
0001
0000
,
1000
0001
0100
0010
1000
0000
0000
1000
0100
0010
0100
1000
0100
0010
0001
0000
,
0001
0100
0010
1000
0100
0010
0001
1000
0010
0100
0010
1000
0001
0000
0001
0000
,
0001
0010
0100
1000
0001
0000
0000
0001
1000
0010
0100
0010
0100
0001
0000
0000
,
1000
0100
0010
0001
0100
0010
1000
0001
0010
0100
1000
0001
1000
0000
1001
0000
,
0100
0000
0000
0100
0000
0100
0000
0000
1000
0000
0000
1000
0000
0000
0000
0000
,
0010
0000
0000
0010
0000
0000
0000
0000
0001
0000
0000
0001
0000
0000
0000
0000
;
