#TITLE:Just Say Yeah;
#SUBTITLE:;
#ARTIST:Dr Phunk;
#TITLETRANSLIT:;
#SUBTITLETRANSLIT:;
#ARTISTTRANSLIT:;
#GENRE:Happy Hardcore;
#CREDIT:darkanine;
#BANNER:Just Say Yeah.png;
#BACKGROUND:Just Say Yeah-bg.png;
#LYRICSPATH:;
#CDTITLE:./../EDMix1title.png;
#MUSIC:Just Say Yeah.ogg;
#OFFSET:0.000000;
#SAMPLESTART:37.313;
#SAMPLELENGTH:27.000;
#SELECTABLE:YES;
#BPMS:0.000000=160.000000
;
#STOPS:
;
#BGCHANGES:3.500=./../../RandomMovies/edmixglitter1.mp4=0.000=0=0=0=StretchNoLoop====,
33.500=./../../RandomMovies/edmixcubes2.mp4=0.000=0=0=0=StretchNoLoop====,
36.000=./../../RandomMovies/edmixgears1.mp4=0.000=0=0=0=StretchNoLoop====,
52.000=./../../RandomMovies/edmixlcd1.mp4=0.000=0=0=0=StretchNoLoop====,
60.000=./../../RandomMovies/edmixcircleglow2.mp4=0.000=0=0=0=StretchNoLoop====,
68.000=./../../RandomMovies/edmixcubes4.mp4=0.000=0=0=0=StretchNoLoop====,
84.000=./../../RandomMovies/edmixnumbers1.mp4=0.000=0=0=0=StretchNoLoop====,
96.000=./../../RandomMovies/edmixcubes2.mp4=0.000=0=0=0=StretchNoLoop====,
100.000=./../../RandomMovies/edmixedmixcubes1.mp4=0.000=0=0=0=StretchNoLoop====,
132.000=./../../RandomMovies/edmixtech1.mp4=0.000=0=0=0=StretchNoLoop====,
148.000=./../../RandomMovies/edmixnumbers1.mp4=0.000=0=0=0=StretchNoLoop====,
160.000=./../../RandomMovies/edmixlcd1.mp4=0.000=0=0=0=StretchNoLoop====,
164.000=./../../RandomMovies/edmixglitter1.mp4=0.000=0=0=0=StretchNoLoop====,
196.000=./../../RandomMovies/edmixspeakers4.mp4=0.000=0=0=0=StretchNoLoop====,
228.000=./../../RandomMovies/edmixgears1.mp4=0.000=0=0=0=StretchNoLoop====,
244.000=./../../RandomMovies/edmixnumbers1.mp4=0.000=0=0=0=StretchNoLoop====,
252.000=./../../RandomMovies/edmixcubes2.mp4=0.000=0=0=0=StretchNoLoop====,
260.000=./../../RandomMovies/edmixcubes3.mp4=0.000=0=0=0=StretchNoLoop====,
288.000=./../../RandomMovies/edmixcubes2.mp4=0.000=0=0=0=StretchNoLoop====,
292.000=./../../RandomMovies/edmixcubes3.mp4=0.000=0=0=0=StretchNoLoop====,
308.000=./../../RandomMovies/numbers1.mp4=0.000=0=0=0=StretchNoLoop====,
320.000=./../../RandomMovies/edmixcubes2.mp4=0.000=0=0=0=StretchNoLoop====,
324.000=edmixblack.png=0.000=0=0=0=StretchNoLoop====,
99999=-nosongbg-=1.000=0=0=0 // don't automatically add -songbackground-
;
#KEYSOUNDS:;
#ATTACKS:;

//---------------dance-single - ----------------
#NOTES:
     dance-single:
     :
     Beginner:
     4:
     0.203589,0.283856,0.031150,0.077876,0.000000,183.000000,179.000000,4.000000,10.000000,0.000000,0.000000,0.203589,0.283856,0.031150,0.077876,0.000000,183.000000,179.000000,4.000000,10.000000,0.000000,0.000000:
0000
0000
0000
0000
,
0000
0000
0000
0000
,
0000
0000
0000
0000
,
0000
0000
0000
0000
,
0000
0000
0000
0000
,
0000
0000
0000
0000
,
0000
0000
0000
0000
,
0000
0000
0000
0000
,
0000
0000
0000
0000
,
1000
1000
1000
0000
,
0100
0000
0000
0000
,
0010
0010
0010
0000
,
0001
0000
0000
0000
,
0010
0010
0010
0000
,
1000
0000
0001
0000
,
0100
0000
0100
0000
,
1000
0000
0000
0000
,
1000
0000
1000
0000
,
0010
0000
0010
0000
,
0100
0000
0100
0000
,
0001
0000
0001
0000
,
1000
1000
0001
0001
,
0100
0100
0100
0100
,
0200
0000
0000
0000
,
0300
0000
0000
0000
,
0001
0001
0001
0000
,
0100
0000
0100
0000
,
1000
1000
1000
0000
,
0010
0000
0010
0000
,
0001
0001
0001
0000
,
1000
0000
0100
0000
,
0010
0010
0010
0000
,
1001
0000
0000
0000
,
1000
1000
1000
1000
,
0001
0001
0001
0001
,
0010
0010
0010
0010
,
0100
0100
0100
0100
,
0010
0010
0010
0010
,
0001
0001
0001
0001
,
1000
1000
2000
0000
,
3001
0000
0000
0000
,
1000
0000
0001
0000
,
0100
0000
0100
0000
,
0010
0000
1000
0000
,
0001
0000
0001
0000
,
0010
0000
0100
0000
,
1000
0000
0010
0000
,
0100
0000
0001
0000
,
1000
0000
1000
0000
,
0001
0001
0001
0000
,
1000
1000
1000
0000
,
0010
0010
0010
0000
,
0100
0100
0100
0000
,
0010
0010
0010
0000
,
1000
1000
1000
0000
,
0001
0001
0001
0000
,
0100
0000
1001
0000
,
1000
0000
0200
0300
,
0001
0000
0200
0300
,
1000
0000
0020
0030
,
0001
0000
0020
0030
,
1000
1000
0001
0001
,
0010
0010
0010
0010
,
0200
0000
0000
0000
,
0000
0000
0300
0000
,
1000
1000
0010
0000
,
0001
0001
0010
0000
,
1000
1000
0100
0000
,
0001
0001
0100
0000
,
1000
1000
0010
0000
,
0001
0001
0010
0000
,
1000
1000
0100
0000
,
2002
0000
3003
0000
,
1000
0000
0010
0000
,
0100
0100
0100
0000
,
0001
0000
0010
0000
,
0100
0100
0100
0000
,
1000
1000
0001
0001
,
1000
1000
1000
1000
,
0002
0000
0000
0000
,
0003
0000
0000
1000
,
0110
0000
0000
0000
;

//---------------dance-single - ----------------
#NOTES:
     dance-single:
     :
     Easy:
     8:
     0.351552,0.473094,0.264777,0.132388,0.015575,316.000000,282.000000,34.000000,17.000000,0.000000,0.000000,0.351552,0.473094,0.264777,0.132388,0.015575,316.000000,282.000000,34.000000,17.000000,0.000000,0.000000:
// measure 0
0000
0000
0000
0000
,  // measure 1
0000
0000
0000
0000
,  // measure 2
0000
0000
0000
0000
,  // measure 3
0000
0000
0000
0000
,  // measure 4
0000
0000
0000
0000
,  // measure 5
0000
0000
0000
0000
,  // measure 6
0000
0000
0000
0000
,  // measure 7
0000
0000
0000
0000
,  // measure 8
0000
0000
0000
0000
0000
0000
0000
1000
,  // measure 9
0010
0000
0000
0010
1000
0000
0100
0000
,  // measure 10
1000
0000
0000
2000
0000
3000
0000
0001
,  // measure 11
0010
0000
0000
0010
0001
0000
0100
0000
,  // measure 12
0001
0000
0000
0002
0000
0003
0000
1000
,  // measure 13
0010
0000
0000
0010
1000
0000
0001
0000
,  // measure 14
1000
0000
0000
0010
0000
0000
0100
0000
0002
0000
0000
0000
0003
0000
1000
0000
,  // measure 15
0100
0000
0000
0010
0000
0000
0100
0000
1000
0000
0000
0000
0000
0000
1000
0000
,  // measure 16
0002
0003
0000
0000
,  // measure 17
1000
1000
0010
0010
,  // measure 18
0100
0100
0001
0001
,  // measure 19
1000
1000
0100
0100
,  // measure 20
0010
0010
0001
0001
,  // measure 21
1000
0010
0100
0100
,  // measure 22
0001
0010
0100
0100
,  // measure 23
1000
0001
1000
0000
0001
1000
0001
0100
,  // measure 24
0000
0100
0000
0200
0000
0000
0310
0000
,  // measure 25
1001
0001
0100
0101
,  // measure 26
0001
0110
2000
3000
,  // measure 27
1010
0010
1000
1100
,  // measure 28
0001
0001
2000
3000
,  // measure 29
0011
0010
0100
1000
,  // measure 30
0110
0101
1100
0000
,  // measure 31
1010
0100
0011
1000
,  // measure 32
0102
1000
1003
0000
,  // measure 33
1010
1100
1001
0001
,  // measure 34
0011
1001
0100
0100
,  // measure 35
1010
0110
0011
1000
,  // measure 36
0110
1001
0001
0100
,  // measure 37
1010
0001
1100
0010
,  // measure 38
0001
0000
0000
1000
0000
0000
0100
0000
2000
0000
0000
0000
3001
0000
0000
0000
,  // measure 39
0001
0010
0001
0000
1000
0010
1000
0000
,  // measure 40
0200
0000
0300
0000
,  // measure 41
1000
0010
1000
0001
,  // measure 42
1000
0100
1000
1000
,  // measure 43
0100
0001
0100
1000
,  // measure 44
0100
0010
0100
0010
,  // measure 45
0100
0001
0100
1000
,  // measure 46
0010
0100
0001
0001
,  // measure 47
1000
0010
0001
0010
,  // measure 48
1000
0100
0100
0000
,  // measure 49
1000
1000
0001
0001
,  // measure 50
1000
0001
1000
1000
,  // measure 51
0001
0001
0010
0010
,  // measure 52
0001
0010
0001
0001
,  // measure 53
1000
1000
0010
0010
,  // measure 54
1000
0010
1000
1000
,  // measure 55
0001
0000
0000
0010
0000
0000
0001
0000
1000
0000
0000
0000
0000
0000
0001
0000
,  // measure 56
0200
0000
0310
0110
,  // measure 57
2000
0010
3001
0010
,  // measure 58
0002
0010
1003
0010
,  // measure 59
2000
0100
3001
0100
,  // measure 60
0002
0100
1003
0100
,  // measure 61
1000
0010
1000
0000
0001
0100
0001
0000
,  // measure 62
0010
0000
0010
0000
0100
0010
0100
0000
,  // measure 63
0400
0000
0000
0000
,  // measure 64
0000
0000
0300
0000
,  // measure 65
1000
0010
0011
0010
,  // measure 66
1000
0100
0101
1000
,  // measure 67
0001
0010
1010
0010
,  // measure 68
0001
1000
0110
0100
,  // measure 69
0010
1010
0010
0011
,  // measure 70
0100
1100
0100
0101
,  // measure 71
1000
0000
0110
0000
0001
0000
0100
0001
,  // measure 72
2000
0000
3000
0000
,  // measure 73
0001
0000
0010
0000
0001
0000
0010
0001
,  // measure 74
0010
0000
0001
0000
0100
0000
0001
0100
,  // measure 75
0001
0000
1000
0000
0010
0000
1000
0010
,  // measure 76
1000
0100
1000
0100
,  // measure 77
1000
0010
1000
0000
0001
0010
0001
0000
,  // measure 78
1000
0100
1000
0000
0001
0100
0001
0000
,  // measure 79
0002
0000
0000
0000
0000
0000
0000
1000
,  // measure 80
0000
1000
0000
1000
0000
0000
0103
0000
,  // measure 81
0001
0000
0000
0000
;

//---------------dance-single - ----------------
#NOTES:
     dance-single:
     :
     Medium:
     12:
     0.467253,0.630792,0.218052,0.116813,0.147964,420.000000,392.000000,28.000000,15.000000,0.000000,0.000000,0.467253,0.630792,0.218052,0.116813,0.147964,420.000000,392.000000,28.000000,15.000000,0.000000,0.000000:
0000
0000
0000
0000
,
0000
0000
0000
0000
,
0000
0000
0000
0000
,
0000
0000
0000
0000
,
0000
0000
0000
0000
,
0000
0000
0000
0000
,
0000
0000
0000
0000
,
0000
0000
0000
0000
,
0000
0000
0000
0000
0000
0000
0000
0001
,
0010
0000
0000
0100
0000
0000
1000
0000
0001
0000
0000
0000
0100
0000
0000
0000
,
0001
0000
0000
1000
0000
0000
0002
0000
0000
0000
0003
0000
0000
0000
1000
0000
,
0010
0000
0000
0100
0000
0000
0001
0000
0010
0000
0000
0000
0100
0000
0000
0000
,
1000
0000
0000
0010
0000
0000
2000
0000
0000
0000
3000
0000
0000
0000
0100
0000
,
0010
0000
0000
0001
0000
0000
0100
0000
0010
0000
0000
0000
0100
0000
0000
0000
,
0001
0000
0000
1000
0000
0000
1000
0000
0200
0000
0000
0000
0300
0000
1000
0000
,
0001
0000
0000
0010
0000
0000
0100
0000
1000
0000
0000
0000
0000
0000
1000
0000
,
0002
0000
0103
0010
,
1000
1000
0010
0010
,
0100
0100
1000
1000
,
0001
0001
0010
0010
,
0100
0100
0001
0001
,
1000
0010
0100
0000
0001
0010
0100
0000
,
1000
0001
0100
0000
0001
1000
0100
0010
,
0100
1000
0001
0100
0010
1000
0002
0010
,
0000
0010
0000
0010
0000
0000
1003
0000
,
1001
0000
0000
1000
0010
0000
0100
0000
0001
0000
0000
0000
0110
0000
0000
0000
,
0010
0000
0000
0010
0100
0000
0010
0000
0100
0000
0000
0000
1001
0000
0000
0000
,
1000
0000
0000
0100
0001
0000
0100
0000
0010
0000
0000
0000
0110
0000
0000
0000
,
1000
0000
0000
1000
0001
0000
1000
0000
0001
0000
0000
0000
1001
0000
0000
0000
,
0001
0000
0000
0100
1000
0000
0100
0000
0010
0000
0000
0000
0110
0000
0000
0000
,
1001
0000
0000
1010
0000
0000
0010
0000
0210
0000
0000
0000
0301
0000
0000
0000
,
1000
0000
0000
0110
0000
0000
0001
0000
1001
0000
0000
0000
0000
0000
0010
0000
,
0120
0100
0130
0000
,
1100
0000
0000
0010
0001
0000
0000
0000
0101
0000
0000
0010
1000
0000
0010
0000
,
0110
0000
0000
0001
0100
0000
0000
0000
0110
0000
0000
1000
0100
0000
0010
0000
,
0011
0000
0000
0100
1000
0000
0000
0000
1010
0000
0000
0100
0001
0000
0100
0000
,
0110
0000
0000
0001
1000
0000
0000
0000
0110
0000
0000
1000
0001
0000
0001
0000
,
0010
0001
0010
0001
1000
0100
1000
0100
,
1000
0010
0100
0001
1000
0001
1000
0002
,
0100
0000
0000
0010
0000
0000
1003
0000
2000
0000
0000
0000
0000
0000
3100
0000
,
0200
0000
0300
0000
,
0001
0010
0001
1000
,
0010
0100
0010
0100
,
0010
0001
0010
1000
,
0100
0001
0100
0001
,
0100
0010
0001
1000
,
0010
0100
1000
0001
,
0010
1000
0001
0100
,
0001
0000
1000
0000
1000
0000
0000
0001
,
0010
0000
0000
0001
0000
0000
0100
0000
0010
0000
0000
0000
0100
0000
0000
0000
,
0010
0000
0000
1000
0000
0000
0010
0000
0000
0000
0000
0000
0000
0000
0100
0000
,
0010
0000
0000
1000
0000
0000
0100
0000
0010
0000
0000
0000
0100
0000
0000
0000
,
0010
0000
0000
0001
0000
0000
0010
0000
0000
0000
0000
0000
0000
0000
0100
0000
,
0010
0000
0000
0001
0000
0000
1000
0000
0010
0000
0000
0000
0100
0000
0000
0000
,
0001
0000
0000
0010
0000
0000
0100
0000
1000
0000
0000
0000
0000
0000
0001
0000
,
1000
0000
0000
0010
0000
0000
0100
0000
0001
0000
0000
0000
0000
0000
0001
0000
,
2000
0000
3100
1000
,
0010
1000
1010
0010
,
0100
0001
1001
1000
,
0100
0010
0110
0010
,
0001
0100
0101
0001
,
1000
0100
1000
0100
0010
0001
0010
0001
,
1000
0010
0100
0001
1000
0001
1000
0002
,
0100
0100
0100
0100
0100
0100
0100
0100
,
0200
0000
0303
0000
,
1000
1000
0010
0010
0100
0001
0010
0001
,
1000
1000
0001
0001
0100
1000
0100
0001
,
0010
0010
0100
0100
1000
0010
0100
0001
,
1000
1000
0001
0001
0100
1000
0001
0010
,
0100
0100
0101
0000
1000
1000
1010
0000
,
0100
0100
0110
0000
0001
0001
0011
0000
,
1000
1000
0010
0010
0100
0001
1000
1000
,
0200
0000
0300
0000
,
1000
0000
0000
1000
0100
0000
0010
0000
0001
0000
0000
0001
0100
0000
0010
0000
,
1000
0000
0000
1000
0100
0000
0010
0000
0001
0000
0000
0001
0100
0000
0010
0000
,
0100
0000
0000
0100
0001
0000
0010
0000
0100
0000
0000
0100
1000
0000
0010
0000
,
0100
0000
0000
0100
0001
0000
0010
0000
0100
0000
0000
0100
1000
0000
0010
0000
,
0100
0010
1000
0100
0010
0100
1000
0010
,
0001
0010
0100
0001
0010
0100
1000
0001
,
0100
0100
0010
0010
1000
2000
0001
0001
,
0000
0001
0000
0001
0000
0000
3100
0000
,
1000
0000
0000
0000
;

//---------------dance-single - ----------------
#NOTES:
     dance-single:
     :
     Hard:
     14:
     0.576279,0.662332,0.311502,0.319290,0.292033,518.000000,478.000000,40.000000,41.000000,0.000000,0.000000,0.576279,0.662332,0.311502,0.319290,0.292033,518.000000,478.000000,40.000000,41.000000,0.000000,0.000000:
0000
0000
0000
0000
,
0000
0000
0000
0000
,
0000
0000
0000
0000
,
0000
0000
0000
0000
,
0000
0000
0000
0000
,
0000
0000
0000
0000
,
0000
0000
0000
0000
,
0000
0000
0000
0000
,
0000
0000
0000
0000
0000
0000
0000
0000
0220
0000
0000
0000
0330
0000
1000
0001
,
0010
0000
0000
0001
0000
0000
2000
0000
0010
0000
0000
0000
3100
0000
0000
0000
,
1000
0000
0000
0001
0000
0000
2000
0000
0000
0000
3000
0000
0000
0000
0100
1000
,
0010
0000
0000
0100
0000
0000
0002
0000
1000
0000
0000
0000
0013
0000
0000
0000
,
0001
0000
0000
1000
0000
0000
0002
0000
0000
0000
0003
0000
0000
0000
0100
0001
,
0010
0000
0000
0001
0000
0000
0200
0000
0010
0000
0000
0000
0301
0000
0000
0000
,
1000
0000
0000
0010
0000
0000
0100
0000
0002
0000
0000
0000
0003
0000
1000
0100
,
0010
0000
0000
0001
0000
0000
0100
0000
0020
0000
0000
0000
0030
0000
1000
0000
,
0001
0000
0001
0001
,
1001
0100
1010
0010
,
0110
1000
0101
0001
,
1001
0010
1100
0100
,
0110
1000
0011
0001
,
0001
0100
0001
1000
0010
0100
0010
1000
,
0100
1000
0100
0010
0001
1000
0001
0010
,
0001
0100
0001
0000
0010
0001
0010
0000
0100
1000
0100
0000
1000
0010
0100
0000
,
0000
0000
0100
0000
0000
0000
0200
0000
0000
0000
0000
0000
0301
0000
0001
0100
,
0010
0000
0000
0010
1000
0000
0001
0000
0011
0000
0000
0000
0101
0000
0000
0000
,
1000
0000
0000
1000
0100
0000
2000
0000
0100
0000
0000
0000
3100
0000
0100
1000
,
0010
0000
0000
0100
0001
0000
1000
0000
1010
0000
0000
0000
0011
0000
0000
0000
,
1000
0000
0000
0010
0100
0000
0002
0000
0100
0000
0000
0000
0103
0000
0100
0001
,
0010
0000
0000
0010
0100
0000
1000
0000
1100
0000
0000
0000
0101
0000
0000
0000
,
2000
0000
0000
0010
0000
0000
3100
0000
0020
0000
0000
0000
0130
0000
1000
0100
,
0010
0000
0000
0001
0000
0000
1000
0000
0020
0000
0000
0000
0030
0000
0100
0000
,
0002
0000
0000
0000
0100
0000
0000
0000
0100
0000
0000
0000
1003
0000
0001
0100
,
0010
0000
0000
0010
1000
0000
0100
0000
0010
0000
0000
0010
0001
0000
0100
0000
,
0010
0000
0000
0100
0000
0000
0120
0000
0000
0000
0030
0100
0001
0000
0100
0001
,
0010
0000
0000
0010
0100
0000
1000
0000
0010
0000
0000
0010
0100
0000
0001
0000
,
1000
0000
0000
0001
0000
0000
2001
0000
0000
0000
3000
0100
1000
0000
0100
1000
,
0010
0100
0001
0001
0010
0100
1000
1000
,
0010
0100
1000
0100
0001
0001
1000
1000
,
0100
0010
0100
0000
1000
0100
1000
0000
0010
1000
0010
0000
0100
0010
0100
0000
,
0002
0000
0003
0000
,
1000
0001
0010
0010
1000
0001
0100
0100
,
1000
0100
0001
0100
1000
0100
1000
0001
,
0010
0100
0001
0001
0100
0010
0001
0001
,
0100
0010
1000
0010
0100
0010
1000
0010
,
0100
0010
0001
0001
1000
0100
0010
0010
,
1000
0100
0010
0100
1000
0100
1000
0001
,
0100
0001
0010
0010
1000
0010
0001
0001
,
0100
0000
0001
0000
0010
0000
0001
0000
1000
0000
0001
0000
0000
0000
0100
0001
,
1000
0000
0000
0100
1000
0000
0001
0000
1001
0000
0000
0000
1100
0000
0000
0000
,
1010
0000
0000
0001
1000
0000
0010
0000
1000
0000
0000
0000
1000
0000
0010
1000
,
0001
0000
0000
0010
0001
0000
1000
0000
1001
0000
0000
0000
0101
0000
0000
0000
,
0011
0000
0000
0100
0001
0000
1000
0000
0001
0000
0000
0000
0001
0000
0010
0001
,
0100
0000
0000
0010
0100
0000
0001
0000
0101
0000
0000
0000
1100
0000
0000
0000
,
0110
0000
0000
1000
0100
0000
0001
0000
0110
0000
0000
0000
0010
0000
0100
0010
,
0001
0000
0000
1000
0001
0000
0100
0000
0110
0000
0000
0000
0100
0000
0010
0000
,
1002
0000
0013
0000
0210
0000
1300
0001
,
0100
0000
0010
0000
2010
0000
0100
3000
,
0001
0000
0010
0000
0012
0000
0100
0003
,
1000
0000
0010
0000
0102
0000
1000
0003
,
0010
0100
2100
0001
,
3010
1000
0010
0100
0001
0010
0100
1000
,
0001
0001
1000
1000
0001
1000
0002
0400
,
0000
0000
0000
0000
,
0000
0000
0303
1001
,
1000
0000
0001
0100
0001
0000
1000
0100
0020
0000
0000
0000
0130
0000
1000
0000
,
0001
0000
0100
0001
1000
0000
0001
0010
0200
0000
0000
0000
0310
0000
0200
0000
,
1300
0000
0001
1000
0001
0000
0001
0100
0020
0000
0000
0000
0130
0000
0001
0000
,
1000
0000
0010
0100
0010
0000
1000
0100
0020
0000
0000
0000
0032
0000
2003
0000
,
3100
0000
0000
0000
0110
0000
0100
1000
0002
0000
0000
0000
1003
0000
0001
0000
,
1000
0000
0000
0000
1100
0000
1000
0100
0020
0000
0000
0000
0031
0000
2000
0000
,
3001
0000
0000
0000
0110
0000
0000
1000
0200
0000
0000
0000
0310
0000
0002
0000
,
2000
0000
3003
0110
,
1000
0000
0010
1000
0010
0000
0100
0000
0001
0000
0010
0001
0010
0000
0100
0000
,
1000
0000
0010
0100
0010
0000
1000
0000
0001
0000
0010
0100
0010
0000
0001
0000
,
1000
0000
0100
1000
0001
0000
0010
0000
0001
0000
0100
0001
1000
0000
0010
0000
,
0100
0000
0010
1000
0001
0000
0010
0000
0100
0000
0010
0001
1000
0000
0010
0000
,
1000
0100
1000
0010
0100
0001
0100
0010
,
1000
0100
0001
0100
1000
0010
0100
0001
,
0020
0000
0000
0000
,
0031
1000
0001
1000
0001
1000
0001
2000
0000
0000
0000
0000
3100
0000
0000
0000
,
0101
0000
0000
0000
;
