#TITLE:Gravity;
#SUBTITLE:;
#ARTIST:Blackcode & Feerty ft. Marina Lin;
#TITLETRANSLIT:;
#SUBTITLETRANSLIT:;
#ARTISTTRANSLIT:;
#GENRE:Progressive House;
#CREDIT:darkanine;
#MUSIC:Gravity.ogg;
#BANNER:Gravity.png;
#BACKGROUND:Gravity-bg.png;
#CDTITLE:;
#SAMPLESTART:65.433;
#SAMPLELENGTH:22.677;
#SELECTABLE:YES;
#OFFSET:0.000;
#BPMS:0.000=127.000;
#STOPS:176.250=0.472;
#BGCHANGES:0.000=./../../RandomMovies/edmixearth2.mp4=0.000=0=0=0=StretchNoLoop====,
16.000=./../../RandomMovies/edmixstairs1.mp4=0.000=0=0=0=StretchNoLoop====,
32.000=./../../RandomMovies/edmixglow1.mp4=0.000=0=0=0=StretchNoLoop====,
48.000=./../../RandomMovies/edmixsea1.mp4=0.000=0=0=0=StretchNoLoop====,
64.000=./../../RandomMovies/edmixearth1.mp4=0.000=0=0=0=StretchNoLoop====,
80.000=./../../RandomMovies/edmixspace1.mp4=0.000=0=0=0=StretchNoLoop====,
112.000=./../../RandomMovies/edmixtech1.mp4=0.000=0=0=0=StretchNoLoop====,
128.000=./../../RandomMovies/edmixstars1.mp4=0.000=0=0=0=StretchNoLoop====,
136.000=./../../RandomMovies/edmixblackhole1.mp4=0.000=0=0=0=StretchNoLoop====,
144.000=./../../RandomMovies/edmixspace2.mp4=7.500=0=0=0=StretchNoLoop====,
176.000=./../../RandomMovies/edmixfirework1.mp4=0.000=0=0=0=StretchNoLoop====,
177.000=./../../RandomMovies/edmixspace2.mp4=7.500=0=0=1=CrossFade====,
99999.000=-nosongbg-=1.000=0=0=0=StretchNoLoop====
;
#FGCHANGES:;

//--------------- dance-single - ----------------
#NOTES:
     dance-single:
     :
     Beginner:
     3:
     0,0,0,0,0:
0000
0000
0000
0000
,
0000
0000
0000
0000
,
0000
0000
0000
0000
,
0000
0000
0000
0000
,
0000
0000
0000
0000
,
1000
0000
0010
0000
,
2000
0000
0000
3000
,
0000
0000
0000
0000
,
0000
0000
0000
0000
,
1000
0000
0001
0000
,
0020
0000
0000
0030
,
0000
0000
0000
0000
,
0001
0000
1000
0000
,
0001
0000
0001
0000
,
1000
0000
0100
0000
,
1000
0000
1000
0000
,
0001
0000
0001
0000
,
0100
0000
0100
0000
,
0010
0000
0010
0000
,
1000
0000
1000
0000
,
0001
0000
0000
0000
,
1000
0000
0000
0000
,
0100
0000
0000
0000
,
0010
0000
0000
0000
,
0001
0000
0001
0000
,
2000
3000
1000
0000
,
0010
0000
0010
0000
,
0200
0000
0000
0300
,
0001
0000
1000
0000
,
0010
0000
0100
0000
,
0001
0000
1000
0000
,
0100
0000
0010
0000
,
0001
0001
0001
0000
,
0100
0100
0100
0000
,
0010
0010
0010
0010
,
0010
0000
0000
0000
,
1000
1000
1000
0000
,
0001
0001
0001
0000
,
0010
0010
0010
0000
,
0001
0000
1000
0000
,
0010
0010
0010
0000
,
0100
0100
0100
0000
,
0001
0001
0001
0000
,
1000
0000
0001
0000
,
0000
0010
0010
0010
,
0000
0100
0100
0100
,
0000
0001
0001
0001
,
0000
1000
1000
1000
,
0000
0100
0100
0100
,
0000
0010
0010
0010
,
0000
0001
0001
0001
,
0000
1000
0000
0100
;

//--------------- dance-single - ----------------
#NOTES:
     dance-single:
     :
     Easy:
     6:
     0,0,0,0,0:
0000
0000
0000
0000
,
0000
0000
0000
0000
,
0000
0000
0000
0000
,
0000
0000
0000
0000
,
0000
0000
1000
0000
,
0100
0000
0010
0000
,
0002
0000
0000
0003
,
0000
0000
0000
0000
,
0000
0000
0001
0000
,
0100
0000
0010
0000
,
2000
0000
0000
3000
,
0000
0000
0000
0000
,
1000
0100
1000
1000
,
0001
0100
0010
1000
,
0001
0010
0100
0100
,
1000
0001
1000
1000
,
0001
0100
0010
0010
,
1000
0100
0010
0010
,
0001
0010
0100
1000
,
0001
0000
1000
0000
0000
0001
0001
0000
,
2000
0000
3200
0000
,
0320
0000
0032
0000
,
0203
0000
0320
0000
,
2030
0000
3200
0000
,
0310
0010
0010
0000
,
0002
1000
1003
0000
,
1000
0010
0010
0000
,
0100
0100
0001
1000
,
0010
0010
0010
0010
,
1000
1000
1000
1000
,
0001
0001
0001
0001
,
0100
0100
0100
0001
,
1000
1000
0001
0001
,
0010
0010
0100
0100
,
1000
0100
0010
0001
,
2000
0000
0000
3001
,
1001
1000
0100
0010
,
0110
0100
1000
0001
,
1001
1000
0010
0100
,
0110
0010
1000
1000
,
1001
0001
0010
0100
,
0110
0010
0001
1000
,
1001
1000
0010
0100
,
0002
0000
1000
1003
,
0000
0000
1010
0000
1000
0000
0001
0100
,
0001
0000
0101
0000
0001
0000
1000
0100
,
1000
1100
0100
0010
,
0010
0011
0001
1000
,
1000
0000
1001
0000
0001
0000
0001
1000
,
0001
0000
0110
0000
0100
0000
0100
0010
,
0100
1001
1000
0001
,
0001
0020
0230
1300
;

//--------------- dance-single - ----------------
#NOTES:
     dance-single:
     :
     Medium:
     9:
     0,0,0,0,0:
0000
0000
0000
0000
,
0000
0000
0000
0000
,
0000
0000
0000
0000
,
0000
0000
0000
0000
,
0000
0000
0000
0000
1000
0000
0000
1000
,
0001
0000
0000
0000
0000
0000
0000
0000
0010
0000
0000
0001
0000
0000
1000
0000
,
0020
0000
0030
0000
,
0000
0000
0000
0000
,
0000
0000
0000
0000
0001
0000
0000
0001
,
1000
0000
0000
0000
0000
0000
0000
0000
0100
0000
0000
1000
0000
0000
0001
0000
,
0020
0000
0030
0000
,
0000
0000
0000
0000
,
0000
0000
0000
0000
1000
0000
0000
1000
,
0100
0000
0000
0000
0000
0000
0000
0000
1000
0000
0000
0100
0000
0000
0010
0000
,
0001
0000
1000
0000
0001
0000
0000
0001
,
0100
0000
0000
0000
0001
0000
0000
0100
,
0010
2000
0000
3000
,
0100
1000
0000
0001
0000
1000
0000
0100
,
0000
0020
0000
0000
0000
0000
0000
0000
,
0031
0000
0001
1000
0000
1000
0001
0000
,
0000
0000
0000
1000
0001
1000
0000
0100
,
0000
0010
0000
0002
0000
1000
0000
0000
,
0103
0000
0000
0001
0100
0001
0000
2000
,
0000
0010
0000
0001
0000
3100
0000
1000
,
0000
0000
0000
1000
,
0200
0000
0000
0010
0000
1000
0000
0310
,
0000
0000
0000
0000
0000
0001
0100
0000
,
0020
0000
0000
2030
0000
0000
3200
0000
,
1300
0000
0000
0000
1000
0000
0000
0000
1000
0000
0000
0000
1000
0000
0000
0010
,
0000
0000
0000
0100
0000
0000
0000
0000
0001
0000
0000
0000
0001
0000
0000
0010
,
0000
0000
0000
0100
0000
0000
0000
0000
1000
0000
0000
0000
1000
0000
0000
0010
,
0000
0100
0100
0100
,
0001
0100
0001
0100
0001
1000
0001
1000
,
0100
1000
0100
1000
0100
0010
0100
0010
,
0200
0000
0000
0000
,
0300
0000
0000
0000
,
1001
0000
0000
0000
1000
0000
0000
0000
1010
0000
0000
0000
0010
0000
0000
0100
,
0000
0001
0000
0100
0000
0000
0000
0000
0101
0000
0000
0000
0001
0000
0000
1000
,
0000
0100
0000
1000
0000
0000
0000
0000
1100
0000
0000
0000
0100
0000
0000
0010
,
0000
0001
0000
0000
1001
0000
0000
0000
0001
0000
1000
0000
0001
0000
0000
0010
,
0000
0001
0000
0000
1000
0000
0000
0000
1001
0000
0000
0000
1000
0000
0000
0010
,
0000
1000
0000
0010
0000
0000
0000
0000
0110
0000
0000
0000
0100
0000
0000
0001
,
0000
0010
0000
0001
0000
0000
0000
0000
0011
0000
0000
0000
0001
0000
0000
0100
,
0000
0010
0000
1000
0000
0000
0000
0000
1000
0000
0000
0010
0000
0000
0100
0000
,
0000
0000
0000
0000
1001
0000
0000
0000
0001
0000
0000
0010
0000
0100
0000
0010
,
0000
0000
0000
0000
0011
0000
0000
0000
0001
0000
0000
0100
0000
0010
0000
0100
,
0000
0000
0000
0000
0101
0000
0000
0000
0001
0000
0000
0010
0000
0100
0000
0000
,
0110
0000
0000
0000
0001
0000
0010
0000
0100
0000
0000
0010
0000
0100
0000
0000
,
1000
0000
0000
0000
1100
0000
0000
0000
1000
0000
0000
0010
0000
0100
0000
0010
,
0000
0000
0000
0000
1010
0000
0000
0000
1000
0000
0000
0100
0000
0010
0000
0100
,
0000
0000
0000
0000
1100
0000
0000
0000
1000
0000
0000
0010
0000
0100
0000
0001
,
0000
0000
0000
0000
1000
0100
0000
0100
0010
0000
0010
0001
0000
0000
0000
0000
;

//--------------- dance-single - ----------------
#NOTES:
     dance-single:
     :
     Hard:
     12:
     0,0,0,0,0:
0000
0000
0000
0000
,
0000
0000
0000
0000
,
0000
0000
0000
0000
,
0000
0000
0000
0000
,
0000
0000
0000
0000
0000
0000
0000
0000
1000
0000
0000
1000
0000
0000
0001
0000
,
0200
0000
0000
0000
0000
0000
0000
0000
0310
0000
0000
0100
0000
0000
0001
0000
,
0020
0000
0200
0000
0000
0030
0000
0000
,
1000
1000
1000
0310
,
0100
0000
0000
0000
0000
0000
0000
0000
1000
0000
0000
1000
0000
0000
0100
0000
,
0010
0000
0000
0000
0000
0000
0001
0000
1000
0000
0000
1000
0000
0000
0001
0000
,
0200
0000
0020
0000
0000
0300
0000
0000
,
1000
1000
1000
0130
,
0001
0000
0000
0001
0100
0000
0001
0000
0000
0000
1000
0000
1001
0000
0000
0000
,
1000
0000
0000
1000
0100
0000
0010
0000
0000
0000
0100
0000
0010
0000
0001
0000
,
1001
0000
0000
0001
0010
0000
0001
0000
0000
0000
1000
0000
1001
0000
0000
0000
,
1000
0000
0000
1000
0010
0000
0100
0000
0000
0000
0001
0000
1000
0000
0001
0000
,
0101
0000
0000
0100
0010
0000
1000
0000
0000
0000
1000
0000
1100
0000
0000
0000
,
0100
0000
0000
0100
0010
0000
0100
0000
0000
0000
1000
0000
0001
0000
0100
0010
,
0100
0000
0000
0100
0001
0000
0100
0000
0000
0000
0010
0000
0110
0000
0000
0000
,
1000
0000
0000
1000
0010
0000
0100
0000
0000
0000
0001
0000
1001
0000
0000
0000
,
1000
0000
0000
1000
0010
1000
0000
0001
,
0000
0001
0000
2000
0000
0010
0000
3001
,
0100
0000
0000
0001
0010
0001
0000
0100
,
0000
1000
0000
0010
0000
0001
0000
1000
,
0100
0000
0000
0000
0100
0000
0000
0000
0100
0000
0000
0000
0100
0000
0100
0010
,
0000
0001
0000
0100
0000
0000
0000
0000
0100
0000
0000
0000
0100
0000
0100
0001
,
0000
0010
0000
0100
0000
0000
0000
0000
0100
0000
0000
0000
0100
0000
1000
0010
,
0000
0100
0000
0001
0000
1000
0000
0000
1000
0001
0000
0100
0010
0000
1000
0100
,
0000
1000
0000
0000
1000
0000
0000
0000
1000
0000
0000
0000
1000
0000
0010
0100
,
0000
0010
0000
0100
0001
0000
0000
0000
0001
0000
0000
0000
0001
0000
0010
0100
,
0000
0010
0000
0100
1000
0000
0000
0000
1000
0000
0000
0000
1000
0000
0001
0100
,
0000
0010
0000
0000
0010
0000
0000
0000
0010
0000
1000
0000
0001
0000
0010
0100
,
0000
1000
0100
0000
1000
0000
0010
0000
1000
0000
0100
0000
1000
0000
0100
0010
,
0000
0001
0000
0100
0001
0000
0100
0000
0001
0000
0010
0000
0100
0000
1000
0100
,
0000
0010
0000
0100
1000
0100
1000
0001
0010
0001
0010
0001
1000
0010
1000
0010
,
0200
0000
0000
0310
,
1001
0000
0001
0000
0011
0000
0000
0000
1000
0000
0000
0000
1000
0000
0010
0001
,
0000
0010
0000
0101
0000
0000
0000
0000
1001
0000
0000
0000
0001
0000
0010
1000
,
0000
0010
0000
1100
0000
0000
0000
0000
1001
0000
0000
0000
1000
0000
0100
0010
,
0000
0001
0000
0000
1001
0000
0000
0000
0001
0000
0001
0000
0100
0000
0100
0010
,
0000
1000
0000
0000
1100
0000
0000
0000
1001
0000
0000
0000
1000
0000
0100
0001
,
0000
0100
0000
0011
0000
0000
0000
0000
1001
0000
0000
0000
0001
0000
0100
1000
,
0000
0001
0000
0110
0000
0000
0000
0000
1001
0000
0000
0000
0001
0000
0100
1000
,
0000
0001
0000
0010
0000
1000
0000
0000
0010
0100
0000
0001
0010
0000
0100
0000
,
0000
0110
0000
0000
1100
0000
0000
0000
0100
0000
0010
1000
0000
0010
0000
0011
,
0000
0000
0001
0000
0100
0000
0010
0000
0100
0000
0010
0001
0000
0010
0000
1010
,
0000
0000
1000
0000
0100
0000
0010
0000
0100
0000
1000
0001
0000
0010
0000
0000
,
0110
0000
0010
0000
0001
0000
0010
0000
1000
0000
0010
0001
0000
0100
0000
0000
,
0110
0000
0100
0000
0010
0000
1000
0000
0010
0000
0001
0010
0000
1000
0000
1100
,
0000
0000
1000
0000
0100
0000
0010
0000
0100
0000
0001
0100
0000
1000
0000
1010
,
0000
0000
1000
0000
0010
0000
0001
0000
0010
0000
0100
0001
0000
1000
0000
0100
,
0000
0001
0000
0000
0001
0100
0000
1000
0010
0000
0100
0001
0000
0000
0000
0000
;
