#TITLE:Chromosphere;
#SUBTITLE:;
#ARTIST:Farius;
#TITLETRANSLIT:;
#SUBTITLETRANSLIT:;
#ARTISTTRANSLIT:;
#GENRE:Progressive Trance;
#CREDIT:darkanine;
#MUSIC:Chromosphere.ogg;
#BANNER:Chromosphere.png;
#BACKGROUND:Chromosphere-bg.png;
#CDTITLE:;
#SAMPLESTART:30.000;
#SAMPLELENGTH:22.500;
#SELECTABLE:YES;
#OFFSET:0.000;
#BPMS:0.000=128.000;
#STOPS:;
#BGCHANGES:0.000=./../../RandomMovies/edmixsupernova2.mp4=0.500=0=0=0=StretchNoLoop====,
16.000=./../../RandomMovies/edmixmosaic1.mp4=0.000=0=0=0=StretchNoLoop====,
32.000=./../../RandomMovies/edmixsupernova1.mp4=0.000=0=0=0=StretchNoLoop====,
64.000=./../../RandomMovies/edmixsphere1.mp4=0.000=0=0=0=StretchNoLoop====,
80.000=./../../RandomMovies/edmixconfetti1.mp4=0.000=0=0=0=StretchNoLoop====,
96.000=./../../RandomMovies/edmixglow1.mp4=0.450=0=0=0=StretchNoLoop====,
128.000=./../../RandomMovies/edmixwaves1.mp4=0.000=0=0=0=StretchNoLoop====,
144.000=./../../RandomMovies/edmixzoom1.mp4=0.000=0=0=0=StretchNoLoop====,
156.000=./../../RandomMovies/edmixlaser2.mp4=0.000=0=0=0=StretchNoLoop====,
161.000=./../../RandomMovies/edmixspace3.mp4=1.200=0=0=0=StretchNoLoop====,
224.000=./../../RandomMovies/edmixstars2.mp4=1.500=0=0=0=CrossFade====,
99999=-nosongbg-=1.000=0=0=0 // don't automatically add -songbackground-
;
#FGCHANGES:;

//--------------- dance-single - ----------------
#NOTES:
     dance-single:
     :
     Beginner:
     4:
     0,0,0,0,0:
0000
0000
0000
0000
,
0000
0000
0000
0000
,
0000
0000
0000
0000
,
0000
0000
0000
0000
,
0000
1000
0000
1000
,
0000
0001
0000
0001
,
0000
1000
0000
1000
,
0000
0001
0000
0100
,
0000
0010
0000
1000
,
0000
0001
0000
0010
,
0000
0100
0000
1000
,
0000
0001
0000
0100
,
0000
0010
0000
1000
,
0000
0100
0000
1000
,
0000
0001
0000
0010
,
0000
0001
0001
0000
,
0000
1000
1000
1000
,
0000
0010
0010
0010
,
0000
0100
0000
0001
,
0000
1000
1000
1000
,
0000
0001
0001
0001
,
0000
0010
0010
0010
,
0000
0001
0000
0100
,
0000
0010
0000
0010
,
0020
0000
2030
0000
,
3002
0000
0000
1003
,
2000
0000
3000
1000
,
0200
0000
0000
0310
,
0020
0000
0032
0000
,
2003
0000
0000
3001
,
0002
0000
0003
0001
,
0200
0010
0000
0310
,
0000
1000
1000
0000
,
0000
0001
0001
0000
,
0000
0100
0100
0000
,
0000
0010
0010
0000
,
0000
1000
1000
0000
,
0000
0001
0001
0000
,
0000
0100
0100
0000
,
0010
0010
0010
0000
,
0000
1001
0000
0001
,
0000
1000
1000
0001
,
0000
0010
0000
0001
,
0000
0010
0010
0001
,
0000
1000
0000
0010
,
0000
1000
1000
0010
,
0000
0100
0000
0001
,
0000
0100
0100
0001
,
0000
1000
0000
0001
,
0000
1000
0001
1000
,
0000
0010
0000
1000
,
0000
0010
1000
0010
,
0000
0100
0000
0001
,
0000
0100
0001
0100
,
0000
0001
0000
0010
,
0000
0100
0100
0000
,
2000
0000
0000
0000
,
3020
0000
0000
0000
,
0230
0000
0000
0000
,
0302
0000
0000
0000
,
2003
0000
0000
0000
,
3200
0000
0000
0000
,
0320
0000
0000
0000
,
0032
0000
0000
1003
;

//--------------- dance-single - ----------------
#NOTES:
     dance-single:
     :
     Easy:
     7:
     0,0,0,0,0:
0000
0000
0000
0000
,
0000
0000
0000
0000
,
0000
0000
0000
0000
,
0000
0000
0000
0000
,
1000
1001
0001
1001
,
0100
0110
0010
0110
,
0100
1001
0010
1001
,
0001
0110
1000
2000
,
3100
1000
0010
0010
,
0100
0001
0010
0010
,
0001
1000
0010
0010
,
1000
0100
0010
0010
,
0100
1000
0001
0001
,
0100
0001
1000
1000
,
0100
0010
0001
0001
,
1000
1000
2000
3000
,
1001
0000
0001
0000
1000
0001
1000
0000
,
0100
0000
1000
0000
0010
0100
0010
0000
,
1000
0000
0001
0000
0100
0001
0100
0000
,
0001
0000
0010
0000
0100
1000
0100
0000
,
1000
0000
0001
0000
0100
0001
0100
0000
,
0001
0000
1000
0000
0100
1000
0100
0000
,
1000
0000
0010
0000
0100
0010
0100
0000
,
0001
0001
0002
0003
,
2000
0000
0000
0000
3002
0000
0000
0203
,
0000
0000
0000
0000
0000
0302
0000
0000
,
2003
0000
0000
0000
0000
3020
0000
0230
,
0000
0000
0000
0000
,
0302
0000
0000
0000
2003
0000
0000
3200
,
0000
0000
0000
0000
0000
2300
0000
0000
,
3002
0000
0000
0000
0000
0000
0000
0203
,
0000
0000
0000
0310
,
1000
0100
0010
0001
,
1000
0010
0100
0001
,
1000
0001
0100
0010
,
1000
0100
0010
0001
,
1000
0010
1000
0010
,
0100
0001
0010
0001
,
1000
1000
0001
0001
,
0100
0100
0200
0300
,
0100
0000
1001
0000
0001
0010
0001
0000
,
0100
0000
1001
0000
1000
0010
1000
0000
,
0001
0100
0001
0000
1000
0100
1000
0000
,
0001
0000
1001
0000
1000
0001
1000
0000
,
0010
0000
0110
0000
0100
0001
0100
0000
,
0001
0000
0110
0000
1000
0100
1000
0000
,
0001
0010
0001
0000
1000
0010
1000
0000
,
0001
0000
0110
0000
1000
0001
1000
0000
,
0010
0000
1010
0000
1000
0001
1000
0000
,
0001
0000
0011
0000
0001
1000
0001
0000
,
0100
0010
0100
0000
0001
1000
0001
0000
,
0010
0000
0110
0000
1000
0001
1000
0000
,
0010
0000
1010
0000
1000
0100
1000
0000
,
0001
0000
0011
0000
0001
0100
0001
0000
,
1000
0010
1000
0000
0001
0010
0001
0000
,
0010
0010
0020
0030
,
0002
0000
0000
0000
0000
0000
0000
0023
,
0000
0000
0000
0000
,
0032
0000
0000
0000
0000
0000
0000
2003
,
0000
0000
0000
0000
,
3200
0000
0000
0000
0000
0000
0000
0320
,
0000
0000
0000
0000
,
0032
0000
0000
0000
0000
0000
0000
2003
,
0000
0000
0000
0000
0000
3000
0000
1000
;

//--------------- dance-single - ----------------
#NOTES:
     dance-single:
     :
     Medium:
     10:
     0,0,0,0,0:
0000
0000
0000
0000
,
0000
0000
0000
0000
,
0000
0000
0000
0000
,
0000
0000
0000
0000
,
0001
1000
0001
0000
0010
0001
1000
0000
,
0100
1000
0001
0000
0100
0001
1000
0000
,
0010
0100
0010
0000
1000
0100
0010
0000
,
0002
0000
0000
0000
1000
0000
0000
0000
0103
0000
0000
0000
0001
1000
0001
1000
,
0100
0000
0110
0000
0001
0010
0100
0000
,
1000
0000
0110
0000
0001
0100
0010
0000
,
1000
0000
0101
0000
1000
0100
0010
0000
,
0001
0000
1100
0000
0001
0100
0010
0000
,
1000
0010
0100
0000
0001
0010
0100
0000
,
1000
0001
0100
0000
0010
1000
0100
0000
,
0010
0001
1000
0001
0100
0010
2000
0000
,
0100
0000
0000
0000
3001
0000
0000
0000
1000
0001
0000
0100
0002
0000
0000
0000
,
0103
0000
2010
0000
3010
1000
0100
0000
,
0010
0000
0012
0000
0013
0001
0100
0000
,
0010
1000
0100
1000
0010
1000
0001
0000
,
0010
0001
0100
0000
0100
0001
1000
0000
,
0010
0000
0210
0000
1300
0100
0001
0000
,
0010
0000
0210
0000
0301
0100
1000
0000
,
0100
0010
1000
0010
0001
0010
0100
0000
,
0020
0000
0000
0000
0130
0000
0000
0000
0001
1000
0000
0001
0100
0000
0000
0000
,
0020
0000
0000
0000
2030
0000
0000
3200
,
0000
0000
0000
0000
0000
2300
0000
0000
,
3002
0000
0000
0000
0000
0203
0000
0320
,
0000
0100
0000
1000
,
2030
0000
0010
0000
3002
0000
1003
0200
,
0000
0000
0010
0000
0000
0310
0002
0000
,
2003
0100
0000
0010
,
0000
0100
3000
1001
,
1000
0000
0000
0000
0100
0000
0000
1000
0000
0010
0000
1000
0000
0000
0001
0000
,
0000
0000
1000
0000
0001
0000
0100
0001
0000
0010
0000
0001
0000
0000
1000
0000
,
0000
0000
0001
0000
0010
0000
0001
1000
0000
0010
0000
1000
0000
0000
0100
0000
,
0000
0000
1000
0000
0100
0000
1000
0001
0000
0010
0000
0001
0000
0000
1000
0000
,
0000
0000
0100
0000
1000
0000
0001
0010
0000
0100
0000
0010
0000
0000
0001
0000
,
0000
0000
1000
0000
0001
0000
0100
0010
0000
0100
0000
0010
0000
0000
1000
0000
,
0000
0000
0100
0000
0010
0000
0100
0010
0000
0001
0000
1000
0000
0000
0010
0000
,
0100
0000
0000
0000
0100
0000
0000
0000
0001
0100
0000
0001
2000
0000
0000
0000
,
3100
0000
1001
0000
0001
0100
0010
0000
,
1000
0001
0010
0001
0100
0010
1000
0000
,
1000
0010
0001
0000
0001
0010
1000
0000
,
1000
0100
0010
0001
0010
0100
1000
0000
,
0001
0000
1100
0000
0010
0001
0100
0000
,
0001
0000
1010
0000
0100
0001
0010
0000
,
0001
0010
1000
0000
1000
0010
0001
0000
,
0100
0010
0001
0010
1000
0100
0010
0000
,
0020
0000
0130
1000
0020
0000
0130
0002
,
1000
0000
0103
0000
0001
0020
1000
0000
,
0230
0000
1300
0000
0100
0010
0120
0000
,
1030
0010
0001
0100
1000
0000
0120
0000
,
2030
0000
0010
0000
3100
1000
0001
0100
,
0002
0000
1000
0000
0013
0001
2000
0000
,
3200
0000
0010
0000
0301
0100
1000
0010
,
0100
0000
0000
0000
1001
0000
0001
0000
1000
0010
0000
1000
0001
0000
0001
0000
,
0200
0000
0000
0000
0001
0000
0000
0001
0000
0000
0000
0010
0000
0000
0302
0000
,
0000
0000
0000
0000
0010
0000
0000
0010
0000
0000
0000
0100
0000
0000
2003
0000
,
0000
0000
0000
0000
0001
0000
0000
0001
0000
0000
0000
0010
0000
0000
3200
0000
,
0000
0000
0000
0000
0010
0000
0000
0010
0000
0000
0000
0001
0000
0000
0320
0000
,
0000
0000
0000
0000
0001
0000
0000
0001
0000
0000
0000
0100
0000
0000
0032
0000
,
0000
0000
0000
0000
0100
0000
0000
0100
0000
0000
0000
0010
0000
0000
2003
0000
,
0000
0000
0000
0000
0010
0000
0000
0010
0000
0000
0000
0001
0000
0000
3020
0000
,
0000
0000
0000
0000
0001
0000
0000
0001
0000
0000
0000
0130
0000
0000
0010
0000
;

//--------------- dance-single - ----------------
#NOTES:
     dance-single:
     :
     Hard:
     13:
     0,0,0,0,0:
0000
0000
0000
0000
,
0000
0000
0000
0000
,
0000
0000
0000
0000
,
0000
0000
0000
0000
,
0100
0000
0001
0000
1000
0000
0001
0010
0000
0001
0100
0001
1000
0000
0010
0100
,
0000
0010
0100
0010
1000
0000
0001
0010
0000
0100
0010
0100
1000
0000
0001
0010
,
0000
0010
0100
1000
0001
0000
0001
0100
0000
0100
0010
1000
0001
0000
0001
0010
,
0000
0010
0100
1000
0001
0000
0001
1000
0000
1000
0010
0100
0001
1000
0001
1000
,
0001
0000
0000
0000
1000
0000
0000
0100
0000
0000
0000
1000
0000
0000
0001
0000
,
0000
0000
0000
0000
1000
0000
0000
0100
0000
0010
0000
0001
0000
0000
1000
0000
,
0000
0000
0001
0000
1000
0000
0000
0100
0000
0010
0000
0001
0000
0000
1000
0000
,
0000
0000
0001
0000
0100
0000
0001
1000
0000
0010
0000
0100
0000
0000
0001
0000
,
1000
0000
0100
0000
0010
0000
0100
0010
0000
0001
0000
0100
0000
0000
0010
0000
,
1000
0000
0100
0000
0010
0000
0100
0010
0000
0001
0000
0100
0001
0000
0010
0000
,
0001
0000
0100
0000
0010
0000
1000
0001
0100
0010
0000
1000
0001
0000
0010
0000
,
0100
0000
0000
0000
0100
0000
0000
0000
0100
1000
0000
0001
0100
0010
0100
0010
,
0200
0000
0000
0000
0301
0000
1000
0001
1000
0010
0000
0010
0100
0000
0001
0000
,
1000
0000
0100
0000
1000
0000
0001
1000
0001
0010
0000
0010
0100
0000
1000
0000
,
0001
0000
0100
0000
0010
0000
0100
0001
0100
0010
0000
0010
1000
0000
0001
0000
,
0100
0000
0001
0000
1000
0000
0100
1000
0100
0010
0000
0010
0001
0000
1000
0000
,
0010
0000
0100
0000
0001
0000
0010
0001
1000
0010
0000
0010
0100
0000
0010
0000
,
1000
0000
0001
0000
1000
0000
0010
1000
0001
0010
0000
0010
0100
0000
0010
0000
,
0001
0000
0100
0000
0010
0000
0100
0001
1000
0100
0000
0100
0010
0000
0100
0000
,
1000
0000
0000
0000
1000
0000
0000
0000
1000
0010
0000
0001
0010
0000
0000
0000
,
0002
0000
0000
0000
0023
0000
0000
2030
,
0000
0000
0000
0000
0000
3002
0000
0000
,
0203
0000
0000
0000
0000
2300
0000
3200
,
0000
0010
0000
0310
,
0002
0000
1000
0000
0023
0000
0130
2000
,
0000
0000
0001
0000
0000
3002
1000
0000
,
0203
0000
0010
0000
0000
0300
1000
0200
,
0000
0000
0010
0000
0000
0300
0110
0000
,
0001
0000
0000
0000
1000
0000
0000
0100
0000
0010
0000
0100
0000
0000
1000
0000
,
0000
0000
0001
0000
1000
0000
0001
0100
0000
0010
0000
0100
0000
0000
0001
0000
,
0000
0000
1000
0000
0100
0000
1000
0100
0000
0010
0000
0100
0000
0000
1000
0000
,
0000
0000
0001
0000
1000
0000
0001
1000
0000
0010
0000
0100
0000
0000
0001
0000
,
0000
0000
1000
0000
0100
0000
0010
0001
1000
0001
0000
1000
0100
0000
0010
0000
,
0000
0000
0001
0000
0100
0000
0010
1000
0001
1000
0000
0001
0100
0000
0010
0000
,
1000
0010
1000
0010
0100
0001
0100
0001
0000
0010
0001
0010
0100
1000
0100
1000
,
0200
0000
0000
0000
0010
0000
0000
0000
0310
0001
0000
1000
0010
0100
0010
0100
,
0010
0000
0000
0000
1001
0000
0000
0001
0100
0010
0000
0010
1000
0000
0000
0000
,
0100
0000
1000
0000
0001
0000
0010
0001
0010
0100
0000
0100
1000
0000
0000
0000
,
1000
0000
0010
0000
0001
0000
0010
1000
0010
0100
0000
0100
0001
0000
0000
0000
,
0001
0000
0100
0000
1000
0000
0100
0010
0100
0001
0000
0001
1000
0000
0000
0000
,
0001
0000
1000
0000
0010
0000
0100
0001
0100
0010
0000
0010
1000
0000
0000
0000
,
0001
0000
1000
0000
0100
0000
0010
0001
0010
0100
0000
0100
1000
0000
0000
0000
,
0001
0000
0010
0000
1000
0000
0010
0001
0010
0100
0000
0100
1000
0000
0000
0000
,
1000
0000
0100
0000
0001
0000
0100
0010
0100
1000
0000
1000
0001
0000
0000
0000
,
0021
0000
0000
0000
0031
0000
0100
0001
2000
0000
0000
0000
3010
0000
0200
0000
,
0001
0000
0000
0000
0310
0000
0010
1000
0001
0000
0020
0000
0100
0000
0030
0000
,
0210
0000
0000
0000
0310
0000
0001
1000
0010
0000
0200
0000
1300
0000
0200
0000
,
0001
0000
0000
0000
0310
0000
0100
0001
0100
0010
0000
0010
1000
0000
0000
0000
,
2010
0000
0000
0000
3001
0000
1000
0010
0200
0000
0000
0000
0301
0000
0020
0000
,
0100
0000
0000
0000
0031
0000
0010
0001
1000
0000
0200
0000
0010
0000
0000
0000
,
2300
0000
0000
0000
3001
0000
0010
0100
0010
0000
0000
0000
0100
0000
0000
0000
,
1000
0000
0000
0000
1100
0000
0100
0000
1000
0010
0000
1000
0001
0100
0001
0010
,
0002
0000
0000
0000
0000
0000
0000
0023
,
0000
0001
0000
0000
,
0230
0000
0000
0000
0010
0000
0000
0000
0000
0000
0000
1000
0000
0000
2300
0000
,
0000
0000
0000
0000
0010
0000
0000
0001
0000
0000
0000
0001
0000
0000
0000
0000
,
3000
0000
1000
0000
0010
0000
0000
0100
0000
0000
0000
0001
0000
0000
0000
0000
,
0000
0000
0001
0000
0010
0000
0000
0100
0000
0010
0000
0001
0000
0000
0000
0000
,
0000
0000
0010
0000
0100
0000
0010
0100
0000
0010
0000
0001
0000
0000
0000
0000
,
0000
0000
0100
0000
0001
0000
0100
0001
0000
0010
0000
0100
0000
0000
2000
0000
,
3000
0000
0000
0000
;
