#VERSION:0.83;
#TITLE:Another You;
#SUBTITLE:;
#ARTIST:nanobii;
#TITLETRANSLIT:;
#SUBTITLETRANSLIT:;
#ARTISTTRANSLIT:;
#GENRE:Future Core;
#CREDIT:darkanine;
#MUSIC:Another You.ogg;
#BANNER:Another You.png;
#BACKGROUND:Another You-bg.png;
#CDTITLE:;
#SAMPLESTART:2.824;
#SAMPLELENGTH:26.647;
#SELECTABLE:YES;
#OFFSET:0.000;
#BPMS:0.000=170.000
,76.000=113.333
,84.000=100.000
,144.000=170.000
,272.000=141.667
,277.000=127.500
;
#STOPS:;
#SPEEDS:0.000=1.000=0.000=0;
#SCROLLS:0.000=0.000,
7.000=1.000
;
#TICKCOUNTS:0.000=4;
#TIMESIGNATURES:0.000=4=4;
#LABELS:0.000=Song Start;
#COMBOS:0.000=1;
#ORIGIN:;
#TAGS:;
#PREVIEWVID:;
#JACKET:Another You-jacket.png;
#CDIMAGE:;
#DISCIMAGE:;
#BGCHANGES:0.000=Another You.mp4=1.000=0=0=1=1=StretchNoLoop===,
99999.000=-nosongbg-=1.000=0=0=0=StretchNoLoop====
;
#FGCHANGES:;

//--------------- dance-single - ----------------
#NOTEDATA:;
#STEPSTYPE:dance-single;
#DESCRIPTION:;
#DIFFICULTY:Beginner;
#METER:2;
#RADARVALUES:0.12333,0.174129,0.016763,0.016763,0,103,101,2,2,0,0,0,0,0,0.12333,0.174129,0.016763,0.016763,0,103,101,2,2,0,0,0,0,0;
#CHARTNAME:;
#CHARTHASH:2364711317;
#BANNER:;
#CHARTSTYLE:;
#METERF:0.000000;
#LASTSECONDHINT:114.352951;
#CREDIT:;
#NOTES:
0000
0000
0000
0000
,
0000
0000
0000
0000
,
0000
0000
0000
0000
,
0000
0000
0000
0000
,
0010
0000
0000
0000
,
0010
0000
0000
0000
,
1000
0000
1000
0000
,
1000
0000
0000
0000
,
0001
0000
0001
0000
,
0001
0000
0000
0000
,
1000
0000
0000
0000
,
1000
0000
0000
0000
,
0001
0000
0000
0000
,
0001
0000
0000
0000
,
0010
0000
0010
0000
,
0010
0000
0000
0000
,
0100
0000
0000
0000
,
0000
0000
0000
0000
,
1001
0000
0000
0000
,
0000
0000
0000
0000
,
0000
0000
0000
0000
,
0000
1000
0000
1000
,
0000
0100
0000
0100
,
0000
0010
0000
0010
,
0000
0001
0000
1000
,
0000
0001
0000
0001
,
0000
0100
0000
0100
,
0000
0010
0000
0010
,
0000
1000
0000
0000
,
1000
0000
0000
0000
0100
0000
0000
0100
,
0000
0000
0000
0000
,
0001
0000
0000
0000
0100
0000
0000
0100
,
0000
0000
0000
0000
,
0010
0000
0000
0000
0001
0000
0000
0001
,
0000
0000
0000
0000
1000
0000
0000
0020
,
0000
0000
0000
0000
,
0030
0000
0000
0000
,
0000
0000
0000
0000
,
1000
0000
1000
0000
,
0001
0000
0001
0000
,
0010
0000
0010
0000
,
0010
0000
0010
0000
,
0100
0000
0100
0000
,
0000
0000
0000
0000
,
1000
0000
0100
0000
,
0001
0000
0100
0000
,
0010
0000
1000
0000
,
0010
0000
0001
0000
,
0100
0000
0010
0000
,
1000
0000
0010
0000
,
0100
0000
0001
0000
,
0010
0000
0010
0000
,
1001
0000
1000
0000
,
0001
0000
0001
0000
,
0100
0000
0100
0000
,
0200
0000
0300
0000
,
0010
0000
1000
0000
,
0100
0000
0100
0000
,
0010
0000
0001
0000
,
0100
0000
0100
0000
,
0010
0000
1000
0000
,
0001
0000
1000
0000
,
0100
0000
0100
0000
,
0100
0000
0000
0000
,
0010
0000
0001
0000
,
1000
0000
0100
0000
,
0010
0000
1000
0000
,
0001
0000
0100
0000
,
0100
0000
0000
0000
,
0000
1000
0000
0000
;

//--------------- dance-single - ----------------
#NOTEDATA:;
#STEPSTYPE:dance-single;
#DESCRIPTION:;
#DIFFICULTY:Easy;
#METER:5;
#RADARVALUES:0.237081,0.291001,0.125725,0.041908,0.004191,198,183,15,5,0,0,0,0,0,0.237081,0.291001,0.125725,0.041908,0.004191,198,183,15,5,0,0,0,0,0;
#CHARTNAME:;
#CHARTHASH:3854911581;
#BANNER:;
#CHARTSTYLE:;
#METERF:0.000000;
#LASTSECONDHINT:114.705894;
#CREDIT:;
#NOTES:
0000
0000
0000
0000
,
0000
0000
0000
0000
,
0010
0010
0000
1001
,
0000
0110
0000
1000
,
1000
1000
0000
0011
,
0000
1010
0000
0001
,
0001
0001
0000
1100
,
0000
0101
0000
0010
,
0010
0010
0000
0110
,
0000
1001
0000
0000
,
1000
0010
0000
0010
,
0001
0010
0000
0010
,
1000
0100
0000
0100
,
0001
0100
0000
0100
,
1000
1000
0000
0001
,
1001
0001
0000
0010
,
0110
0010
0000
0100
,
0100
0000
0000
0000
,
1001
0000
0000
0000
,
0000
0000
0000
0000
,
0000
0000
0000
0000
,
1000
0100
0001
0100
,
1000
0010
0001
0010
,
1000
1000
0001
0001
,
0100
0100
0100
0000
,
0001
0010
0010
0000
,
1000
0010
0010
0001
,
0100
0100
1000
0000
,
0200
0000
0000
0310
0000
0000
0000
0000
,
1000
1000
0001
0001
,
0010
0100
0010
0010
,
0001
0001
1000
1000
,
0010
0010
0100
0001
,
0010
0001
0100
1000
,
0010
1000
0100
0001
,
2002
0000
3003
0000
,
1000
1000
1000
0000
,
0001
0001
0001
0000
,
0010
0010
0000
0010
,
0000
0010
0000
0010
,
0100
0100
0000
0100
,
0000
0100
0000
0100
,
1000
1000
0001
0001
,
0000
0000
0000
0000
,
1000
1000
0100
0000
,
0001
0001
0100
0000
,
0010
0010
1000
0000
,
0010
0010
0001
0000
,
1000
0100
1000
0000
,
0001
0100
0001
0000
,
1000
0010
1000
0000
,
0001
0010
0010
0000
,
0001
0000
1001
0000
,
0010
0000
0110
0000
,
0100
0000
1001
0000
,
1000
1000
1000
0000
,
0001
0001
0001
0000
,
1000
1000
0100
0000
,
0010
0010
0010
0000
,
0001
0100
0010
0000
,
1000
1000
0010
0000
,
0100
0100
0100
0000
,
0001
0001
0010
0000
,
0100
0100
0100
0000
,
1000
1000
0000
0001
,
0000
0010
0010
0000
,
0000
0100
0000
1000
,
0000
0001
0001
0000
,
2000
0000
0000
0000
0000
3100
0000
0000
,
0000
0000
0000
0000
0002
0000
0000
0003
0000
0000
0000
0000
0000
0000
0000
0000
;

//--------------- dance-single - ----------------
#NOTEDATA:;
#STEPSTYPE:dance-single;
#DESCRIPTION:;
#DIFFICULTY:Medium;
#METER:10;
#RADARVALUES:0.40711,0.465602,0.092198,0.016763,0.016763,340,329,11,2,0,0,0,0,0,0.40711,0.465602,0.092198,0.016763,0.016763,340,329,11,2,0,0,0,0,0;
#CHARTNAME:;
#CHARTHASH:712951485;
#BANNER:;
#CHARTSTYLE:;
#METERF:0.000000;
#LASTSECONDHINT:114.705894;
#CREDIT:;
#NOTES:
0000
0000
0000
0000
,
0000
0000
0000
0000
,
1000
0010
1000
0000
0001
0010
0001
0000
,
1000
0010
1000
0000
0001
0010
0001
0000
,
1000
0100
1000
0000
0001
0100
0001
0000
,
1000
0100
1000
0000
0001
0100
0001
0000
,
1000
0010
0100
0000
0001
0010
0100
0000
,
1000
0010
0100
0000
0001
0010
0100
0000
,
1000
0100
1000
0000
1000
0001
1000
0000
,
0100
0100
0100
0000
,
1000
0010
1000
0000
0010
0001
0010
0000
,
1000
0010
1000
0000
0010
0001
0010
0000
,
0100
1000
0100
0000
0001
0100
0001
0000
,
0100
1000
0100
0000
0001
0100
0001
0000
,
0010
0001
0100
0000
0010
1000
0100
0000
,
0010
0001
0100
0000
0010
1000
0100
0000
,
1000
0100
0010
0001
,
0200
0000
0000
0310
,
1001
0000
0000
0010
0000
0100
0000
1000
,
0000
0000
0000
0000
,
0000
0000
0000
0000
,
0001
0000
1000
1000
,
0010
1000
0000
0100
0000
1000
0100
0010
,
0001
0001
0000
0010
0000
0001
0000
0100
,
0000
0010
0000
1000
0000
1000
0000
0001
,
0000
0000
0000
0100
0010
1000
0001
0001
,
0000
0000
0000
1000
0100
0020
0000
0031
,
0000
0010
0000
0100
0000
0000
0000
0000
,
1010
0000
0000
0101
0000
0000
0000
0000
,
1000
0000
0100
0010
0011
0000
0100
0110
,
0000
0000
0000
1000
,
0001
0000
0010
0100
1100
0000
0010
0110
,
0000
0000
0000
0000
0000
0000
0001
1000
,
0010
0000
0100
0001
0000
1000
0000
0100
,
0000
0000
0100
0000
0000
0000
1000
0000
0100
0000
0000
0010
0000
0000
0001
0000
,
0000
0000
0000
0000
,
0000
0001
0000
0001
0000
1000
0000
1000
,
0000
0010
0000
0010
0000
0100
0000
0100
,
0000
0001
0000
0010
0000
1000
0000
0010
,
0000
0001
0000
0100
0000
1000
0000
0100
,
0000
0010
0000
0010
0000
0100
0000
0100
,
0000
0001
0000
0001
0000
1000
0000
1000
,
0000
0010
0000
0010
0000
0010
0010
0010
,
0000
0000
0000
0000
,
1000
0100
1000
0100
0010
0000
0010
0000
,
0001
0100
0001
0100
0010
0000
0010
0000
,
1000
0001
1000
0001
0100
0000
0100
0000
,
0001
1000
0001
1000
0100
0010
0100
0000
,
1000
0100
0010
0100
1000
0000
1000
0000
,
0001
0100
0010
0100
0001
0000
0001
0000
,
1000
0001
0010
0100
1000
0000
1000
0000
,
0001
1000
0010
0100
0001
1000
0001
0000
,
1000
0100
0010
0000
0010
0100
1000
0000
,
1000
0100
0010
0000
0010
0001
1000
0000
,
0001
0001
0100
0010
,
1000
0000
0010
0000
1000
0000
0010
0000
0100
0000
0000
0001
0000
0000
0000
0000
,
0001
0010
0001
1000
0010
1000
0001
0010
,
0001
1000
0010
1000
0100
0000
0000
0000
,
1000
0010
1000
0001
0010
0001
1000
0010
,
1000
0001
0010
0001
0100
0000
0000
0000
,
0001
0100
0010
1000
0000
0100
0010
0001
,
0000
0100
0010
1000
0000
0100
0010
0001
,
1000
0001
0100
0001
0010
0001
0100
0001
,
1000
0001
1000
0100
0010
0000
0100
0100
,
1000
0100
1000
0100
0010
0001
0010
0001
,
0100
1010
0101
0000
,
0001
0100
0001
0100
0010
1000
0010
0100
,
0001
0011
1100
0000
,
1000
0000
0000
0000
0000
0010
0000
0000
0000
0000
0100
0000
0000
0000
0000
0000
,
0000
0000
0000
0000
0001
0000
0000
1000
0000
0000
0000
0000
0000
0000
0000
0000
;

//--------------- dance-single - ----------------
#NOTEDATA:;
#STEPSTYPE:dance-single;
#DESCRIPTION:;
#DIFFICULTY:Hard;
#METER:13;
#RADARVALUES:0.512479,0.526159,0.075435,0.284977,0.113153,428,419,9,34,0,0,0,0,0,0.512479,0.526159,0.075435,0.284977,0.113153,428,419,9,34,0,0,0,0,0;
#CHARTNAME:;
#CHARTHASH:1800169895;
#BANNER:;
#CHARTSTYLE:;
#METERF:0.000000;
#LASTSECONDHINT:115.294128;
#CREDIT:;
#NOTES:
0000
0000
0000
0000
,
0000
0000
0000
0000
,
1000
0010
0100
0001
0000
0010
0100
1000
,
0000
0010
0100
0001
0000
0010
0100
1000
,
0001
1000
0100
0010
0010
0001
0100
0010
,
0010
1000
0100
0010
0010
0001
0010
0100
,
1000
0010
1000
0100
0000
0010
0001
0100
,
0000
0010
1000
0100
0000
0010
0001
0100
,
0010
1000
0001
0100
0001
1000
0001
0100
,
0010
1000
0100
1000
0010
0100
0000
0000
,
0001
1000
0010
0001
0000
0001
0010
1000
,
0000
1000
0010
0001
0000
0001
0010
1000
,
0001
0010
0100
1000
1000
0010
0100
0001
,
0001
0010
0100
1000
1000
0010
0100
0001
,
1000
0001
0010
1000
0000
1000
0010
0001
,
0000
0001
0010
1000
0000
1000
0020
0000
,
0031
0100
1000
0100
,
0010
0010
0100
0100
0001
0001
1000
0000
,
2001
0000
0000
0010
0000
3001
0000
0100
,
0000
0000
0000
0000
,
0000
0000
0000
0000
,
2000
3010
0002
0013
,
2000
0010
0000
3100
0000
1000
0100
0010
,
0002
0100
0103
0000
2000
0001
3001
0000
,
0020
0100
0130
0002
0000
1000
1003
0000
,
0010
0000
1000
0000
1000
0000
0002
0000
0100
0000
0000
0013
0000
0000
2000
0000
,
0000
3001
0001
0010
1000
0010
0010
0001
,
0002
1000
0103
0020
0000
0000
0130
0000
,
0011
0000
1000
1010
0000
0010
0010
0100
,
0002
0000
0013
0100
2000
0000
3010
0100
,
0000
0000
0001
0000
0001
0000
0100
0000
0002
0000
0000
0013
0000
0000
0100
0000
,
2000
0000
0001
0000
3001
0000
0100
0000
0020
0000
0000
1030
0000
0000
0102
0000
,
0000
0000
1000
0000
1003
0000
0100
0000
2000
0000
0000
3010
0000
0000
0100
0000
,
0002
0000
0010
0000
0013
0000
0100
0000
2000
0000
0000
3010
0000
0000
0002
0000
,
0000
0000
0010
0000
0013
0000
0200
0000
0001
0000
0000
0010
0000
0000
1300
0000
,
0000
0000
0000
0000
,
1000
1000
0001
0001
,
1000
0010
1000
0000
0001
0010
0001
0000
,
1000
0100
1000
0100
0000
0100
0001
0100
,
0000
0100
1000
0100
0000
0100
0010
0100
,
1000
0010
1000
0010
0000
0001
0010
0001
,
0000
0100
0001
0100
0000
1000
0100
1000
,
0001
0001
1000
1000
0010
0010
0010
0100
,
0000
0000
0001
0000
0010
0000
0100
0000
2000
3000
0000
0000
2000
3000
0000
0000
,
1000
0000
0010
0000
0100
0000
0001
0000
1000
0000
0100
1000
0100
0000
0010
0000
,
0000
0000
0010
0000
0100
0000
1000
0000
0001
0000
0100
0001
0100
0000
0010
0000
,
0000
0000
0010
0000
0100
0000
0001
0000
0010
0000
0100
0010
0100
0000
1000
0000
,
0000
0000
1000
0000
0100
0000
0010
0000
0001
0000
1000
0010
0000
0100
0000
0001
,
0000
0000
0001
0000
0100
0000
0010
0000
1000
0000
0100
0010
0000
0000
0011
0000
,
0000
0000
0010
0000
0001
0000
1000
0000
0010
0000
0100
0010
0000
0000
1010
0000
,
0000
0000
1000
0000
0001
0000
0100
0000
0010
0000
1000
0100
0000
0000
0110
0000
,
0000
0000
0100
0000
0001
0000
0100
0000
1000
0000
0010
0001
0000
1000
0000
0100
,
0000
0000
0010
0000
0001
0000
0010
0000
0100
0000
0000
0010
0000
0000
1000
0000
,
0000
0000
0100
0000
0001
0000
0100
0000
0010
0000
0000
0001
0000
0000
0100
0000
,
0010
0010
1000
0001
,
0010
0000
0100
0000
0010
0000
0001
0000
1000
0000
0100
0010
0000
0001
0000
0001
,
1000
0010
0100
0010
0001
0010
1000
0001
,
1000
0100
0001
0100
2000
0000
3001
0000
,
0001
0010
0100
0010
1000
0010
0001
1000
,
0001
0100
1000
0100
0020
0000
1030
0000
,
1000
0001
0010
1000
0000
1000
0010
0001
,
0000
0001
0010
1000
0000
1000
0010
0001
,
1000
0001
0100
1000
0100
0001
1000
0100
,
0010
0000
0110
0000
1001
0000
1000
1000
,
0001
0010
0100
1000
0010
0100
1000
0100
,
0010
1000
0100
0010
0002
0000
1003
0000
,
1000
0010
0100
0001
0010
0100
0001
0100
,
0010
0001
0100
0010
2000
0000
3000
0000
,
0002
0000
0000
0000
0000
0023
0000
0000
0000
0000
0230
0000
0000
0000
0000
0000
,
0000
0000
0000
0000
1300
0000
0000
0002
0000
0000
0000
0000
0003
0000
0000
0000
;

//--------------- dance-single - ----------------
#NOTEDATA:;
#STEPSTYPE:dance-single;
#DESCRIPTION:;
#DIFFICULTY:Challenge;
#METER:13;
#RADARVALUES:0.438241,0.469373,0.058672,0.30174,0.046099,366,359,7,36,120,0,0,0,0,0.438241,0.469373,0.058672,0.30174,0.046099,366,359,7,36,120,0,0,0,0;
#CHARTNAME:;
#CHARTHASH:600707263;
#BANNER:;
#CHARTSTYLE:;
#METERF:0.000000;
#LASTSECONDHINT:115.764717;
#CREDIT:;
#NOTES:
0000
0000
0000
0000
,
0000
0000
0000
0000
,
1000
0001
1000
0010
MMMM
0001
1000
0010
,
MMMM
0001
1000
0010
MMMM
0001
1000
0010
,
1000
0001
0010
0100
MMMM
0001
0010
0100
,
MMMM
0000
0001
0000
0010
0000
0100
0000
1000
0000
0000
0001
0000
0000
0100
0000
,
0010
1000
0001
0100
MMMM
1000
0001
0100
,
MMMM
1000
0001
0100
MMMM
1000
0001
0100
,
0010
1000
0010
0100
0001
1000
0001
0010
,
0100
0100
0100
MMMM
,
1000
0100
0010
0001
MMMM
0100
0010
0001
,
MMMM
0100
0010
0001
MMMM
0100
0010
0001
,
0100
0001
1000
0010
MMMM
0001
1000
0010
,
MMMM
0001
1000
0010
MMMM
0001
1000
0010
,
0100
0001
0010
0100
MMMM
0001
0010
0100
,
MMMM
0001
0010
0100
MMMM
0001
0010
0100
,
2000
3200
0320
0032
,
0203
0000
0000
0320
0000
0000
2030
0000
,
3001
0000
0000
1000
0000
0010
0000
0100
,
0000
0000
0000
0000
,
0000
0000
0000
0000
,
2000
0100
0000
3100
,
0020
0000
0100
0200
0330
1000
0100
0010
,
0002
0000
1000
1000
0000
0000
0013
0000
,
0200
0000
0310
0002
0000
0000
0103
0000
,
2000
0000
0010
0000
0010
0000
0000
0000
0001
0000
0000
0001
3000
0000
0002
0000
,
0000
0010
0013
0000
0100
1000
1000
0010
,
0200
0000
0301
2000
0000
0000
3100
0000
,
0012
0003
0000
2010
0000
0000
3001
0000
,
2000
0000
3001
0010
0200
0000
1300
0002
,
0000
0000
0103
0000
0100
0000
0010
0000
2000
0000
0000
0010
0000
0000
3001
0000
,
0200
0000
0000
0000
0301
0000
1000
0000
0020
0000
0000
1000
0000
0000
0230
0000
,
0000
0000
0310
0000
0010
0000
1000
0000
0200
0000
0000
0010
0300
0000
1000
0000
,
0002
0000
0000
0000
0013
0000
0100
0000
2000
0000
0000
0010
0000
0000
3200
0000
,
0000
0000
0000
0000
0000
0000
0320
0000
1000
0000
0000
0100
0000
0000
0031
0000
,
0000
0000
0000
0000
,
0001
0001
0100
0100
,
0010
0000
0010
0000
1000
0001
1000
0000
,
1000
1000
0100
0100
,
0010
0000
0010
0000
0001
1000
0001
0000
,
0001
0000
0100
0001
0000
1000
0100
1000
,
0000
0001
0010
0001
0000
1000
0010
1000
,
0001
0001
1000
1000
0001
1000
0001
1000
,
0000
0000
0000
0000
MMMM
0000
0000
0000
0020
0030
0000
0000
0020
0030
0000
0000
,
1001
0000
1000
0100
0001
0100
0010
0100
,
1000
0000
0001
0100
1000
0100
0010
0100
,
0001
0000
1000
0010
0001
0000
0010
1000
,
0100
0000
0001
0100
1000
0010
0100
0001
,
1000
0000
0001
0010
1000
0010
0100
0010
,
0001
0000
1000
0010
0001
0010
0100
0010
,
1000
0000
0001
0010
1000
0000
0010
0001
,
0100
0000
1000
0100
0001
0000
MMMM
0000
,
1000
0100
0010
0100
0000
0100
0001
0100
,
0000
0100
1000
0100
0000
0100
0001
0000
,
0110
1000
0110
0001
,
1000
1000
0001
0001
1001
0000
MMMM
0000
,
1000
0010
0001
0010
1000
0001
0100
1000
,
0100
0010
0001
0010
1000
0000
MMMM
0000
,
0001
0010
1000
0010
0001
1000
0100
0010
,
0100
0001
0100
0010
0001
0000
MMMM
0000
,
1000
0001
0010
0100
MMMM
0001
0010
0100
,
MMMM
0001
0010
0100
MMMM
0001
0010
0100
,
1000
1000
0010
0001
,
0010
0000
0100
0000
0001
0000
MMMM
MMMM
,
1000
0100
0001
0100
0010
1000
0010
0001
,
0010
0100
1000
0001
1000
0000
MMMM
0000
,
0001
0100
1000
0100
0010
1000
0010
0001
,
0010
0100
0010
1000
0001
0000
MMMM
0000
,
1020
0000
0000
0000
0000
0001
0000
0000
0000
0000
0230
0000
0000
0000
0000
0000
,
0000
0000
0000
0000
0301
0000
0000
2000
0000
0000
0000
0000
0000
0000
0000
0000
,
3000
0000
0000
0000
;
