#VERSION:0.83;
#TITLE:MAID OF FIRE;
#SUBTITLE:;
#ARTIST:NIKO;
#TITLETRANSLIT:;
#SUBTITLETRANSLIT:;
#ARTISTTRANSLIT:;
#GENRE:;
#CREDIT:;
#MUSIC:MAID OF FIRE.ogg;
#BANNER:MAID OF FIRE.png;
#BACKGROUND:MAID OF FIRE-bg.png;
#JACKET:MAID OF FIRE-jacket.png;
#DISCIMAGE:;
#CDIMAGE:;
#SELECTABLE:YES;
#LYRICSPATH:;
#CDTITLE:;
#SAMPLESTART:40.671;
#SAMPLELENGTH:11.852000000000004;
#OFFSET:0.81;
#BPMS:0.000000=162.000000;
#STOPS:;
#WARPS:;
#DELAYS:;
#SPEEDS:0.000000=1.000000=0.000000=0;
#SCROLLS:0.000000=1.000000;
#TICKCOUNTS:;
#TIMESIGNATURES:0.000000=4=4;
#LABELS:;
#COMBOS:;
#FAKES:;
#BGCHANGES:;
#FGCHANGES:;
#ATTACKS:;
#KEYSOUNDS:;

//---------------dance-single - ---------------
#NOTEDATA:;
#CHARTNAME:Play this chart at your own risk;
#CHARTSTYLE:Keyboard;
#CREDIT:from "Puritanical P**** Pack";
#STEPSTYPE:dance-single;
#DESCRIPTION:;
#DIFFICULTY:Challenge;
#METER:20;
#METERF:20;
#RADARVALUES:0,0,0,0,0;
#NOTES:
// measure 0
0000
0000
0000
0000
0000
0000
0000
0000
0000
0000
0000
0000
0010
0010
0010
0010
,  // measure 1
0110
0000
1010
0000
0110
0101
0000
0101
,  // measure 2
0110
0000
1010
0000
1010
1100
0000
0000
,  // measure 3
0110
0000
0010
0100
1100
0010
0010
0100
1100
0010
0010
0100
1010
0010
0010
0100
,  // measure 4
0011
0000
0100
0001
0011
0100
0010
0100
1100
0010
0010
0100
0011
0010
0010
0100
,  // measure 5
1001
0010
0100
0001
1010
0100
0001
0010
1100
0001
0010
1000
0011
1000
0100
0010
,  // measure 6
1001
0000
0001
0010
1000
0001
0000
0010
1000
0001
0010
0100
1010
0010
0010
0100
,  // measure 7
0011
0000
0010
0100
1100
0010
0010
0100
1100
0010
0010
0100
0011
0001
0001
0100
,  // measure 8
0011
0000
0100
0001
1001
0100
0010
0100
1100
0010
0010
0100
0011
0010
0010
0100
,  // measure 9
1001
0010
1000
0001
0110
1000
0001
0010
1100
0001
0010
0100
0011
1000
0100
0010
,  // measure 10
1001
0000
0001
0100
1000
0001
0000
0100
1000
0001
0010
0100
2001
0000
0000
0000
,  // measure 11
3011
0000
0100
0000
1001
0100
0010
1000
0001
0100
0010
0000
1001
0010
0100
0001
,  // measure 12
1010
0100
0010
0000
1001
0100
0010
0001
1000
0001
0100
0001
1100
0010
0100
0001
,  // measure 13
1100
0001
1100
0010
1001
0100
1001
0010
,  // measure 14
1001
0100
0010
1000
0011
0100
0010
1000
0101
0010
0100
1000
0001
0001
0001
0001
,  // measure 15
1001
0000
0010
0000
0101
1000
0010
0100
0011
0100
0010
0000
1001
0010
0100
0001
,  // measure 16
1010
0100
0010
0000
1001
0100
0010
0001
1000
0001
0100
0010
1100
0001
0100
0010
,  // measure 17
1100
0001
1100
0010
1001
0100
1010
0100
,  // measure 18
1001
0100
0010
1000
0011
0100
0010
1000
0010
0010
0010
0010
0010
0010
0010
0010
,  // measure 19
1001
0010
0100
1000
0011
0100
0010
1000
0011
0100
0001
1000
0101
0010
0001
1000
,  // measure 20
0011
0100
0010
1000
0011
0100
0001
1000
0101
0010
0100
1000
0011
0100
0010
1000
,  // measure 21
0101
0010
0100
1000
0101
0010
0100
0010
0101
1000
0100
0010
0101
1000
0010
0100
,  // measure 22
0011
1000
0100
0010
0101
1000
0010
0100
1001
0010
0100
1000
0001
0001
0001
0001
,  // measure 23
1001
0010
0100
1000
0011
0100
0001
1000
0011
0100
0010
1000
0101
0010
0100
1000
,  // measure 24
0011
0100
0010
1000
0011
0100
0010
1000
0101
0010
0001
1000
0011
0100
0001
1000
,  // measure 25
0101
0010
0100
1000
0011
0100
0010
1000
0101
0010
0001
0100
0011
1000
0001
0100
,  // measure 26
0011
1000
0001
0010
0101
1000
0001
0100
0011
1000
0010
0100
0011
0100
0010
0000
,  // measure 27
1100
0010
0101
0000
0010
0100
0011
0000
0000
0000
0110
0000
0110
0000
0101
0000
,  // measure 28
1010
0000
0100
0010
1100
0000
0010
0100
0011
0000
0100
0010
1001
0001
0000
0001
,  // measure 29
1001
0000
0001
0010
0101
0000
1000
1000
0010
0001
0001
0001
1010
0010
0000
0010
,  // measure 30
1010
0000
0010
1000
0011
0000
0100
0001
1100
0000
0010
1000
0001
0001
0001
0001
,  // measure 31
0001
0000
0100
0010
1001
0000
0010
0100
0001
0001
0001
0001
0001
0001
0001
0001
,  // measure 32
1001
0000
0100
0010
1100
0000
0010
0100
0011
0000
0100
0010
0101
0001
0000
0001
,  // measure 33
0101
0000
0001
0010
0101
0100
0000
0100
0001
0010
0010
0010
1001
0001
0010
0010
,  // measure 34
0110
0000
0010
1000
0011
0000
0100
0001
0110
0000
0010
1000
0110
0000
0001
0001
,  // measure 35
0001
0000
0100
0010
1001
0000
0010
0100
1001
0000
1001
0000
0001
0001
0001
0001
,  // measure 36
1001
0000
0100
0010
1001
0000
0010
0100
1001
0000
0100
0010
1001
0001
0000
0001
,  // measure 37
1001
0000
0001
0010
1100
1000
0000
1000
0010
0100
0100
0100
1010
0010
0000
0010
,  // measure 38
1010
0000
0010
1000
0011
0000
0100
0001
1100
0000
0010
1000
0001
0001
0001
0001
,  // measure 39
0001
0000
0100
0010
1100
0000
0010
0100
0001
0001
0001
0001
0001
0001
0001
0001
,  // measure 40
1001
0000
0100
0010
1001
0000
0010
0100
0011
0000
0100
0010
1001
0001
0000
0001
,  // measure 41
1001
0000
0001
0010
0101
0100
0000
0100
0011
0100
0010
0000
1001
0001
0010
0010
,  // measure 42
0110
0000
0010
0100
1001
0000
0010
0100
0011
0000
0100
0010
1001
0000
0010
0100
,  // measure 43
1010
0000
0100
0010
1001
0000
1000
0001
0110
0000
0000
0000
0110
0000
0110
0000
,  // measure 44
1001
0000
0001
0100
1100
0001
0001
0100
1100
0001
0001
0100
0011
0001
0001
0100
,  // measure 45
0011
0000
0100
0001
1001
0100
0010
0100
1100
0010
0010
0100
0011
0010
0010
1000
,  // measure 46
0101
0010
0100
0001
1010
0100
0001
0100
1010
0001
0100
1000
0011
1000
0100
0010
,  // measure 47
1001
0000
0001
0010
1000
0001
0000
0010
1000
0001
0010
0100
1010
0000
1000
0000
,  // measure 48
1001
0000
0001
1000
1100
0001
0001
1000
1100
0001
0001
1000
0011
0001
0001
0100
,  // measure 49
0011
0000
0100
0001
0011
0100
0010
0100
0101
0010
0010
0100
0011
0010
0010
0100
,  // measure 50
1001
0010
0100
0001
1010
0100
0001
0010
1100
0001
0010
0100
0011
1000
0100
0010
,  // measure 51
1001
0000
0001
0100
0000
0001
0000
1000
0000
0001
0010
0100
2000
0000
0000
0000
,  // measure 52
3011
1001
0000
0000
0011
1001
0000
0000
0011
1001
0000
0000
0011
1001
0000
0000
,  // measure 53
1001
0000
0000
0000
;
