#TITLE:JALLA;
#SUBTITLE:;
#ARTIST:Antigoni;
#MUSIC:JALLA.ogg;
#BANNER:JALLA.png;
#BACKGROUND:JALLA-bg.png;
#LYRICSPATH:;
#CDTITLE:;
#SAMPLESTART:99.597;
#SAMPLELENGTH:17.851;
#OFFSET:2.48;
#BPMS:0.000000=84.000000,
9.916667=80.000000,
15.000000=60.000000,
18.000000=41.500000,
20.000000=121.000000,
160.000000=60.500000,
176.000000=121.000000
;
#STOPS:;
#TIMESIGNATURES:0.000000=4=4;
#BGCHANGES:;
#FGCHANGES:;
#ATTACKS:;
#SPEEDS:0.000000=1.000000=0.000000=0;
#SCROLLS:0.000000=1.000000;
#KEYSOUNDS:;

//---------------dance-single - ---------------
#NOTES:
     dance-single:
     :
     Beginner:
     5:
     0,0,0,0,0:
// measure 0
0000
0000
0000
0000
,  // measure 1
0000
2002
0000
0000
0000
0000
0000
0000
0000
0000
0000
0000
0000
0000
0000
0000
0000
0000
0000
0000
0000
0000
0000
0000
0000
0000
0000
0000
0000
0000
0000
0000
0000
0000
0000
0000
0000
0000
0000
0000
0000
0000
0000
0000
0000
0000
0000
0000
,  // measure 2
3003
0000
0000
0000
0000
0000
0000
0000
0000
0000
0000
0000
0000
0000
0000
0000
0000
0000
0000
0000
0000
0000
0000
0220
0000
0000
0000
0000
0000
0000
0000
0000
0000
0000
0000
0000
0000
0000
0000
0000
0000
0000
0000
0000
0000
0000
0000
0000
,  // measure 3
0000
0000
0000
0330
,  // measure 4
0000
2002
0000
0000
0000
0000
0000
0000
0000
0000
0000
0000
0000
0000
0000
0000
0000
0000
0000
0000
0000
0000
0000
0000
0000
0000
0000
0000
0000
0000
0000
0000
0000
0000
0000
0000
3003
0000
0000
0000
0000
0000
0000
0000
0000
0000
0000
0000
,  // measure 5
0220
0000
0000
0330
,  // measure 6
0000
0100
0100
0000
,  // measure 7
0001
0000
1000
1000
,  // measure 8
1000
0000
0010
0000
,  // measure 9
0100
0000
0001
0000
,  // measure 10
1001
1001
1001
0000
,  // measure 11
0110
0110
0110
0000
,  // measure 12
1010
1010
1010
0000
,  // measure 13
0101
0101
0101
0000
,  // measure 14
2000
3000
1000
0000
,  // measure 15
0002
0003
0001
0000
,  // measure 16
0020
0030
0010
0000
,  // measure 17
0200
0300
0100
0000
,  // measure 18
1000
1000
1000
0000
,  // measure 19
0010
0010
0010
0000
,  // measure 20
1000
1000
1000
0000
,  // measure 21
0200
0000
0300
0000
,  // measure 22
0220
0000
0330
0000
,  // measure 23
1001
0000
1001
1001
,  // measure 24
2002
0000
3003
0000
,  // measure 25
0220
0330
0110
0110
,  // measure 26
0110
0000
0010
0000
,  // measure 27
1000
0000
0001
0000
,  // measure 28
0010
0000
0010
0000
,  // measure 29
0220
0330
0220
0330
,  // measure 30
0110
0110
0110
0000
,  // measure 31
1001
0000
1000
1000
,  // measure 32
1000
0000
0001
0000
,  // measure 33
1001
0000
1000
1000
,  // measure 34
1000
0000
0001
1000
,  // measure 35
1000
1000
1000
0000
,  // measure 36
0100
0100
0100
0000
,  // measure 37
0010
0010
0010
0000
,  // measure 38
0001
0001
0001
0000
,  // measure 39
2000
0000
3000
1001
,  // measure 40
2000
0000
3200
0000
,  // measure 41
0302
0000
0023
0000
,  // measure 42
0032
0000
0203
0000
,  // measure 43
2300
0000
3020
0030
,  // measure 44
0220
0000
0000
0000
,  // measure 45
0000
0330
0110
0000
,  // measure 46
0100
0100
0100
0000
,  // measure 47
0001
0000
1001
1001
,  // measure 48
1000
1000
1000
0000
,  // measure 49
0010
0000
0110
0110
,  // measure 50
0010
0010
0010
0000
,  // measure 51
1000
1000
1000
0000
,  // measure 52
0001
0000
1000
1001
;

//---------------dance-single - ---------------
#NOTES:
     dance-single:
     :
     Easy:
     7:
     0,0,0,0,0:
// measure 0
0000
0000
0000
0000
,  // measure 1
0000
2002
0000
0000
0000
0000
0000
0000
0000
0000
0000
0000
0000
0000
0000
0000
0000
0000
0000
0000
0000
0000
0000
0000
0000
0000
0000
0000
0000
0000
0000
0000
0000
0000
0000
0000
0000
0000
0000
0000
0000
0000
0000
0000
0000
0000
0000
0000
,  // measure 2
3003
0000
0000
0000
0000
0000
0000
0000
0000
0000
0000
0000
0000
0000
0000
0000
0000
0000
0000
0000
0000
0000
0000
0220
0000
0000
0000
0000
0000
0000
0000
0000
0000
0000
0000
0000
0000
0000
0000
0000
0000
0000
0000
0000
0000
0000
0000
0000
,  // measure 3
0000
0000
0000
0330
,  // measure 4
0000
2002
0000
0000
0000
0000
0000
0000
0000
0000
0000
0000
0000
0000
0000
0000
0000
0000
0000
0000
0000
0000
0000
0000
0000
0000
0000
0000
0000
0000
0000
0000
0000
0000
0000
0000
3003
0000
0000
0000
0000
0000
0000
0000
0000
0000
0000
0000
,  // measure 5
0220
0000
0000
0000
,  // measure 6
0330
0100
0010
1000
,  // measure 7
0001
0010
0100
0010
,  // measure 8
0011
0010
0100
1000
,  // measure 9
0010
0100
0001
0010
,  // measure 10
0110
0010
0110
0100
,  // measure 11
1100
1000
1100
0100
,  // measure 12
0110
0010
0110
0010
,  // measure 13
0011
0001
0011
0010
,  // measure 14
0200
2300
3020
0230
,  // measure 15
0302
0023
1000
0230
,  // measure 16
2300
3020
0230
0302
,  // measure 17
0023
0230
1000
0320
,  // measure 18
0031
0100
0010
1000
,  // measure 19
0010
0100
0010
1000
,  // measure 20
0100
0010
0001
0010
,  // measure 21
0200
0000
1300
0010
,  // measure 22
0220
0330
0202
0303
,  // measure 23
2002
3003
1001
0110
,  // measure 24
0022
0033
2200
3300
,  // measure 25
2020
3030
0101
1001
,  // measure 26
1100
0100
0010
0001
,  // measure 27
0100
0010
1000
0010
,  // measure 28
0100
0001
0010
0100
,  // measure 29
2000
3001
0002
1003
,  // measure 30
1001
0110
1001
1000
,  // measure 31
1010
0010
0100
0001
,  // measure 32
0101
0001
0010
0100
,  // measure 33
0110
0100
1000
0010
,  // measure 34
1010
0010
0100
0001
,  // measure 35
1000
0100
0001
0100
,  // measure 36
1000
0010
1010
0101
,  // measure 37
0001
0100
1000
0100
,  // measure 38
0001
0010
0011
2100
,  // measure 39
3002
0000
0103
0101
,  // measure 40
0002
2003
3200
0320
,  // measure 41
0230
2300
3020
0230
,  // measure 42
0302
2003
3020
0230
,  // measure 43
0302
0000
0023
0000
0230
0000
2300
3000
,  // measure 44
2002
0000
0000
0000
,  // measure 45
0000
0000
3003
0000
,  // measure 46
1000
0100
0010
0001
,  // measure 47
0100
0010
1010
0101
,  // measure 48
0001
0010
0100
1000
,  // measure 49
0010
0100
0110
1001
,  // measure 50
1000
0100
0010
0001
,  // measure 51
0100
0010
1000
0001
,  // measure 52
0010
0000
0100
0000
1000
0000
0001
0100
;

//---------------dance-single - ---------------
#NOTES:
     dance-single:
     :
     Medium:
     11:
     0,0,0,0,0:
// measure 0
0000
0000
0000
0000
,  // measure 1
0000
2002
0000
0000
0000
0000
0000
0000
0000
0000
0000
0000
0000
0000
0000
0000
0000
0000
0000
0000
0000
0000
0000
0000
0000
0000
0000
0000
0000
0000
0000
0000
0000
0000
0000
0000
0000
0000
0000
0000
0000
0000
0000
0000
0000
0000
0000
0000
,  // measure 2
3003
0000
0000
0000
0000
0000
0000
0000
0000
0000
0000
0000
0000
0000
0000
0000
0000
0000
0000
0000
0000
0000
0000
0220
0000
0000
0000
0000
0000
0000
0000
0000
0000
0000
0000
0000
0000
0000
0000
0000
0000
0000
0000
0000
0000
0000
0000
0000
,  // measure 3
0000
0000
0000
0330
,  // measure 4
0000
2002
0000
0000
0000
0000
0000
0000
0000
0000
0000
0000
0000
0000
0000
0000
0000
0000
0000
0000
0000
0000
0000
0000
0000
0000
0000
0000
0000
0000
0000
0000
0000
0000
0000
0000
3003
0000
0000
0000
0000
0000
0000
0000
0000
0000
0000
0000
,  // measure 5
0220
0000
0000
0000
,  // measure 6
0330
0000
0100
0010
1000
0000
1000
0001
,  // measure 7
0010
0002
0003
0010
0001
0100
0010
0100
,  // measure 8
0001
0000
0010
0100
1000
0000
1000
0001
,  // measure 9
0100
0020
0030
0010
0100
0001
1000
0000
,  // measure 10
1000
0100
0001
0100
2000
0000
3001
0000
,  // measure 11
0001
0100
1000
0100
0002
0000
1003
0000
,  // measure 12
1000
0010
0001
0010
2000
0000
3001
0000
,  // measure 13
0001
0010
1000
0010
0002
0000
0103
0001
,  // measure 14
1000
0000
0100
1000
0001
0000
0100
0010
,  // measure 15
1000
0000
0001
0020
0030
0000
0010
0001
,  // measure 16
0100
0000
0100
0001
1000
0000
0100
1000
,  // measure 17
0010
0000
0100
0020
0030
0000
1000
0010
,  // measure 18
0100
0000
0100
0001
1000
0000
0100
0010
,  // measure 19
0001
0000
1000
0020
0000
0000
0030
0000
,  // measure 20
0100
0100
0001
0001
1000
1000
0100
0100
,  // measure 21
2000
0000
0000
0000
3000
0000
0000
0000
0100
0000
0000
1000
0000
0000
0001
0000
,  // measure 22
0100
0010
0000
0100
0010
0000
1000
0100
,  // measure 23
0010
0001
0000
0000
0011
0000
1100
0000
,  // measure 24
0001
0100
0000
0001
0100
0000
0010
1000
,  // measure 25
0100
0010
0000
0000
0011
0000
1100
0000
,  // measure 26
0001
0000
0100
0000
0010
0100
0001
0000
,  // measure 27
1000
0000
0100
0000
0010
0100
1000
0000
,  // measure 28
0001
1000
0000
0010
0100
0000
0001
1000
,  // measure 29
0200
0310
0020
0130
,  // measure 30
0110
0100
1100
1000
1001
0001
0000
0100
,  // measure 31
0220
0000
0330
0100
0010
1000
0001
0010
,  // measure 32
0220
0000
0330
0000
0100
1000
0001
0100
,  // measure 33
0202
0000
0303
0100
0001
0010
0100
1000
,  // measure 34
2020
0000
3030
0000
1000
0100
0001
0100
,  // measure 35
1000
0010
0000
0100
0001
0000
0001
0010
,  // measure 36
0100
0020
0030
0000
0011
0000
1100
0000
,  // measure 37
0001
0100
0000
0010
1000
0000
1000
0001
,  // measure 38
0100
0020
0030
0000
1010
0000
0101
0000
,  // measure 39
2000
0000
3100
0110
,  // measure 40
0001
0010
0100
0010
0001
1000
0010
0100
,  // measure 41
0010
0000
1000
0000
0100
0000
0010
0000
0002
0020
0000
0000
0000
0000
0033
0000
,  // measure 42
0201
0000
0002
0303
1020
0000
2000
3030
,  // measure 43
2100
0000
0200
3300
0022
0000
0000
0033
,  // measure 44
2002
0000
0000
0000
,  // measure 45
0000
0000
3003
1000
0001
0000
0000
0000
,  // measure 46
1000
0010
0000
0100
0001
0000
0010
0100
,  // measure 47
1000
0002
0003
0000
1001
0000
0110
0000
,  // measure 48
0100
1000
0000
0001
0010
0000
0100
1000
,  // measure 49
0001
0200
0300
0000
0110
0000
1001
0000
,  // measure 50
1000
1000
0001
0000
0001
0001
0100
0000
,  // measure 51
0100
0010
1000
0000
0100
0010
0001
0000
,  // measure 52
1000
0010
0000
0100
0001
0000
1000
1001
;

//---------------dance-single - ---------------
#NOTES:
     dance-single:
     :
     Hard:
     15:
     0,0,0,0,0:
// measure 0
0000
0000
0000
0000
,  // measure 1
0000
2002
0000
0000
0000
0000
0000
0000
0000
0000
0000
0000
0000
0000
0000
0000
0000
0000
0000
0000
0000
0000
0000
0000
0000
0000
0000
0000
0000
0000
0000
0000
0000
0000
0000
0000
0000
0000
0000
0000
0000
0000
0000
0000
0000
0000
0000
0000
,  // measure 2
3003
0000
0000
0000
0000
0000
0000
0000
0000
0000
0000
0000
0000
0000
0000
0000
0000
0000
0000
0000
0000
0000
0000
0220
0000
0000
0000
0000
0000
0000
0000
0000
0000
0000
0000
0000
0000
0000
0000
0000
0000
0000
0000
0000
0000
0000
0000
0000
,  // measure 3
0000
0000
0000
0330
,  // measure 4
0000
0202
0000
0000
0000
0000
0000
0000
0000
0000
0000
0000
0000
0000
0000
0000
0000
0000
0000
0000
0000
0000
0000
0000
0000
0000
0000
0000
0000
0000
0000
0000
0000
0000
0000
0000
0303
0000
0000
0000
0000
0000
0000
0000
0000
0000
0000
0000
,  // measure 5
2020
0000
0000
0000
,  // measure 6
3030
0000
0000
0000
1000
0000
0100
0000
0020
0000
0000
0000
0031
0000
0010
0100
,  // measure 7
2000
3001
0000
1000
0010
0100
0010
1000
,  // measure 8
1001
0000
0000
0000
0001
0000
0100
0010
2000
0000
0000
0000
3001
0000
0001
0100
,  // measure 9
0020
0130
0000
0100
0001
0010
0100
1000
,  // measure 10
1100
1000
1001
0001
0201
0000
0301
0000
,  // measure 11
0101
0001
0011
0010
0210
0000
0310
0000
,  // measure 12
0110
1100
1001
0101
2010
0000
3100
0000
,  // measure 13
1001
0001
0010
0100
2000
0000
3001
0100
,  // measure 14
2000
0000
3100
0001
2000
0000
3100
0010
,  // measure 15
0002
0000
0203
0320
0000
0000
1030
0010
,  // measure 16
0200
0000
0301
1000
0200
0000
1300
0010
,  // measure 17
0002
0000
0023
2030
0000
0000
3100
0010
,  // measure 18
0011
0000
0011
0001
0101
0000
0101
0100
,  // measure 19
0110
0000
0110
0010
1010
0000
1010
1000
,  // measure 20
0100
0001
0100
1000
0001
0100
1000
0100
,  // measure 21
0002
0000
0000
0000
0003
0000
0000
0000
1000
0000
0000
0001
0000
0000
0010
0000
,  // measure 22
0012
0020
0033
0210
0020
0330
0100
1000
,  // measure 23
2010
0000
0020
0000
3030
0000
0000
0000
1000
0100
0001
0000
0001
0100
1000
0000
,  // measure 24
2010
0020
3030
0012
0020
0033
0001
0100
,  // measure 25
0210
0000
0020
0000
0330
0000
0000
0000
0100
0010
1000
0000
0100
0010
0001
0000
,  // measure 26
1000
0100
0010
0001
0100
0010
1000
0001
,  // measure 27
0010
0100
1000
0100
0010
0001
1000
0010
,  // measure 28
0200
0302
0000
2003
3020
0000
0130
0010
,  // measure 29
2000
3001
0002
1003
,  // measure 30
1001
0110
1001
0110
0011
2100
3000
0100
,  // measure 31
0220
0330
0000
0010
0001
0000
0100
0000
0110
0000
0010
0000
1010
0000
1000
0000
,  // measure 32
2002
3003
0000
0001
1000
0000
0100
0000
0001
0100
1000
0100
0002
0000
0103
0000
,  // measure 33
0220
0330
0000
0100
1000
0000
0001
0000
1001
0000
1000
0000
1010
0000
0010
0000
,  // measure 34
0220
0330
0000
0100
0001
0000
1000
0000
0100
0010
0001
0010
0200
0000
1300
0000
,  // measure 35
1000
0000
0010
0100
0001
0000
0010
0100
1000
0000
0001
0100
0010
0000
1000
0010
,  // measure 36
0100
0000
0001
1000
0100
0000
0010
0000
0001
0010
0100
0000
1000
0010
0100
0000
,  // measure 37
0001
0000
1000
0100
0010
0000
0001
0010
0100
0000
1000
0001
0100
0000
0010
1000
,  // measure 38
0001
0000
0010
0100
1000
0000
0001
0000
0100
0010
1000
0000
0100
0010
0001
0000
,  // measure 39
2000
0000
0000
0001
3200
0300
0110
0000
,  // measure 40
0010
0000
0001
0000
0100
0000
0010
0000
1000
0000
1000
0010
0100
0000
0001
0000
0010
0000
0100
0000
1000
0000
0001
0000
0100
0000
0010
0100
0001
0000
1000
0000
,  // measure 41
0100
0000
0001
0000
0100
0000
1000
0000
0001
0000
0100
1000
0100
0000
0001
0000
2000
0000
0200
0000
0000
0000
0000
0000
0000
0000
0000
0000
3300
0000
0000
0000
,  // measure 42
0110
0110
0000
0011
0022
0000
0033
0000
1001
1001
0000
1010
2020
0000
3030
0000
,  // measure 43
0110
0110
0000
0101
0202
0000
0303
0000
1001
2002
0000
0000
0000
0000
3003
0000
,  // measure 44
0110
0220
0000
0000
0000
0000
0000
0000
,  // measure 45
0000
0000
0330
0100
0010
0000
1000
0010
,  // measure 46
0100
0000
0001
1000
0100
0000
0010
0001
0100
0000
1000
0100
0001
0000
0010
0100
,  // measure 47
1000
0000
0001
0100
0010
0000
1000
0000
0001
0010
0100
0000
1000
0010
0100
0000
,  // measure 48
0001
0000
0010
0100
1000
0000
0001
0100
1000
0000
0100
0001
1000
0000
0100
0010
,  // measure 49
0001
0000
0100
0010
1000
0000
0001
0000
1000
0100
0001
0000
0001
0100
1000
0000
,  // measure 50
0002
0203
0320
2030
3001
0010
1000
0010
,  // measure 51
0002
0203
2300
3200
0301
1000
0010
0100
,  // measure 52
0110
0220
0330
0101
0202
0303
1001
2200
,  // measure 53
3300
0000
0000
0000
;

//---------------dance-double - 2 players only---------------
#NOTES:
     dance-double:
     2 players only:
     Edit:
     10:
     0,0,0,0,0:
// measure 0
00000000
00000000
00000000
00000000
,  // measure 1
00000000
00000000
00000000
00000000
10002002
00000000
00000000
00000000
00000000
00000000
00000000
00000000
00000000
00000000
00000000
00000000
00000000
00000000
00000000
00000000
00000000
00000000
00000000
00000000
00000000
00000000
00000000
00000000
00000000
00000000
01000000
00000000
00000000
00000000
00000000
00000000
00000000
00000000
00000000
00000000
00000000
00000000
00000000
00000000
00000000
00000000
00000000
00000000
00100000
00000000
00000000
00000000
00000000
00000000
00000000
00000000
00000000
00000000
00000000
00000000
00000000
00000000
00000000
00000000
00000000
00000000
00000000
00000000
00000000
00000000
00000000
00000000
00000000
00000000
00000010
00000000
00000000
00000000
00000000
00000000
00000000
00000000
00000000
00000000
00000000
00000000
00000000
00000000
00000000
00000000
00000000
00000000
00000000
00000000
00000000
00000000
00100000
00000000
00000000
00000000
00000000
00000000
00000000
00000000
00000000
00000000
00000000
00000000
00000000
00000000
00000000
00000000
00000000
00000000
00000000
00000000
00000000
00000000
00000000
00000000
00000000
01000000
00000000
00000000
00000000
00000000
00000000
00000000
00000000
00000000
00000000
00000000
00000000
00000000
00000000
00000000
00000000
00000000
00000000
00000000
00000000
00000000
00000000
00000000
00000000
00000000
20000000
00000000
00000000
00000000
00000000
00000000
00000000
00000000
00000000
00000000
00000000
00000000
00000000
00000000
00000000
00000000
00000000
00000000
00000000
00000000
00000000
00000000
00020000
00000000
00000000
00000000
00000000
00000000
00000000
00000000
00000000
00000000
00000000
00000000
00000000
00000000
00000000
00000000
00000000
00000000
00000000
00000000
00000000
00000000
00000000
00000000
,  // measure 2
30033003
00000000
00000000
00000000
00000000
00000000
00000000
00000000
00000000
00000000
00000000
00000000
00000000
00000000
00000000
00000000
00000000
00000000
00000000
00000000
00000000
00000000
00000000
00000000
00000000
00000000
00000000
00000000
00000000
00000000
00000000
00000000
00000000
00000000
00000000
00000000
00000000
00000000
00000000
00000000
00000000
00000000
00000000
00000000
00000000
00000000
00000000
02200001
00000000
00000000
00000000
00000000
00000000
00000000
00000000
00000000
00000000
00000000
00000000
00000100
00000000
00000000
00000000
00000000
00000000
00000000
00000000
00000000
00000000
00000000
00000000
00000000
00010000
00000000
00000000
00000000
00000000
00000000
00000000
00000000
00000000
00000000
00000000
00000000
00000100
00000000
00000000
00000000
00000000
00000000
00000000
00000000
00000000
00000000
00000000
00000000
,  // measure 3
00000000
00000000
00000000
00000000
00000000
00000001
00000000
00000000
00000000
00000000
00000000
00000000
00000000
00000000
00000000
00000000
00000000
00000010
00000000
00000000
00000000
00000000
00000000
00000000
00000000
00000000
00000000
00000000
00000000
00000000
00000000
00000200
00000000
00000000
00000000
00000000
00000000
00000000
00000000
00000000
00000000
00000000
00000000
00000000
00000000
00000000
00000000
00000000
00002000
00000000
00000000
00000000
00000000
00000000
00000000
00000000
00000000
00000000
00000000
00000000
00000000
00000000
00000000
00000000
00000000
00000000
00000000
00000000
00000000
00000000
00000000
00000000
00000000
00000000
00000000
00000000
00003300
03300000
00000000
00000000
00000000
00000000
00000000
00000000
00000000
00000000
00000000
00000000
00000000
00000000
00000000
00000000
00000000
00000000
00000000
00000000
,  // measure 4
00000000
00000000
20200022
00000000
00000000
00000000
00000000
00000000
00000000
00000000
00000000
00000000
00000000
00000000
00000000
00000000
00000000
00000000
00000000
00000000
00000000
00000000
00000000
00000000
00000000
00000000
00000000
00000000
00000000
00000000
00000000
00000000
00000000
00000000
00000000
00000000
00000000
00000000
00000000
00000000
00000000
00000000
00000000
00000000
00000000
00000000
00000000
00000000
00000000
00000000
00000000
00000000
00000000
00000000
00000000
00000000
00000000
00000000
00000000
00000000
00000000
00000000
00000000
00000000
00000000
00000000
00000000
00000000
00000000
00000000
00000000
00000000
00000000
00000000
00000000
00000000
00000000
00000000
00000000
00000000
00000000
30300033
00000000
00000000
00000000
00000000
00000000
00000000
00000000
00000000
00000000
00000000
00000000
00000000
00000000
00000000
,  // measure 5
00222020
00000000
00000000
00000000
,  // measure 6
00333030
00000000
00100010
10000001
01000100
00000000
00100010
01000100
,  // measure 7
10000001
00011000
00000000
00011000
01000100
00100010
10000001
00100010
,  // measure 8
01100110
00000000
00100010
01000100
00011000
00000000
00000000
00011000
,  // measure 9
10000001
01000100
00000000
01000100
10000001
00100010
01000100
00011000
,  // measure 10
10011001
01100110
10011001
01100110
,  // measure 11
10101010
01010101
10101010
01010101
,  // measure 12
00011000
01000100
10000001
01000100
00022000
00000000
10033001
00000000
,  // measure 13
10000001
00100010
01000100
00100010
20000002
00000000
30010013
00100010
,  // measure 14
00020022
00000000
10030000
00010000
00200000
00000000
01300000
10000000
,  // measure 15
00001000
00010000
00000200
02000000
00000033
00000000
00000010
00000001
,  // measure 16
00002000
00000000
00003010
00001000
00000002
00000000
00001003
00000010
,  // measure 17
00010000
00001000
00200000
00000020
00000000
03000300
01000000
00300130
,  // measure 18
01200120
00300030
01100110
00000000
02100210
03000300
01100110
00000000
,  // measure 19
00200120
01300030
00120010
20000000
00200020
00300030
00100010
00000010
,  // measure 20
00001000
00000001
00000010
00001000
00000010
00000100
01000000
30030200
,  // measure 21
02200020
00000000
00000000
00000000
03300330
00000000
00000000
00000000
00100010
00000000
00000000
00010001
00000000
00000000
01000100
00000000
,  // measure 22
02010201
00020002
03030303
01000100
00200020
00000000
10301030
00100010
,  // measure 23
02010201
00020002
03030303
00000000
20020000
30030000
00002002
00003003
,  // measure 24
20012001
00020002
30033003
10001000
00200020
00000000
00310031
00100010
,  // measure 25
02100210
00200020
03300330
00000000
00002002
00003003
20020000
30030000
,  // measure 26
10000001
01000100
00011000
01000100
10000001
00100010
00011000
00100010
,  // measure 27
10000001
01000100
00100010
00011000
00100010
01000100
10000001
00011000
,  // measure 28
02000200
03100310
00000000
20000002
30200023
00000000
01300130
00100010
,  // measure 29
20000002
30100013
00022000
00133010
,  // measure 30
01100110
01000100
01011100
00011000
10011001
10000001
01000100
00100010
,  // measure 31
01100110
00000000
01000100
10000001
00100010
01000100
00011000
00100010
,  // measure 32
00111010
00000000
00000000
00000000
00011000
00000000
00100010
00000000
01000100
00100010
01000100
00100010
01000100
00000000
10000001
00000000
,  // measure 33
10011001
00000000
00011000
01000100
00100010
10000001
00100010
01000100
,  // measure 34
01011100
00000000
00000000
00000000
00011000
00000000
10000001
00000000
01000100
00100010
01000100
00100010
01000100
00000000
10000001
00000000
,  // measure 35
01000100
00100010
00011000
00100010
10000001
00100010
01000100
10000001
,  // measure 36
00100010
01000100
00011000
10000001
20020000
30030000
00002002
00003003
,  // measure 37
10011001
10000001
00100010
01000100
10000001
01000100
00011000
00100010
,  // measure 38
01000100
10000001
00100010
01000100
02200000
03300000
00000220
00000330
,  // measure 39
00000000
00000000
00000000
00000000
00010001
00100010
02000200
00000000
00000000
03100310
00000000
00000000
,  // measure 40
20200020
32000000
03020000
00032000
00003200
00000302
00020003
00030230
02300020
00020030
00032000
00203000
20300000
30200000
00302000
00020300
,  // measure 41
03000200
02000300
03000200
00000320
00000032
00000203
00000320
00033200
00020000
02000000
00000000
00000000
00000000
00000000
03030330
00000000
,  // measure 42
22002020
33003030
00220202
00330303
,  // measure 43
20200022
30300033
02022200
03033300
,  // measure 44
20M22MM2
00M000M0
00M00MM0
0M000MM0
00000000
00000000
0M000M00
0M000M00
0M000M00
0MM00MM0
00000000
00000000
0MM00000
00M00000
0MM00000
0MM00000
,  // measure 45
00000000
00000000
30033003
10001000
00010001
00000000
00000000
00000000
,  // measure 46
10000001
01000100
00100010
01000100
10000001
00100010
01000100
00100010
,  // measure 47
10000001
01000100
00011000
01000100
22000002
33000003
20000202
30000303
,  // measure 48
10000001
00011000
00100010
01000100
10000001
00100010
00011000
00100010
,  // measure 49
01000100
00011000
00100010
01000100
02200200
03300300
02000220
03000330
,  // measure 50
01000100
10000001
00100010
01000100
00011000
00100010
10000001
00100010
,  // measure 51
01000100
10000001
00100010
01000100
00011000
00100010
01000100
00100010
,  // measure 52
00011000
01000100
00100010
10000001
01000100
00100010
00111010
11000101
;
