#VERSION:0.83;
#TITLE:what i want (EURO MIX);
#SUBTITLE:;
#ARTIST:T.R.S;
#TITLETRANSLIT:;
#SUBTITLETRANSLIT:;
#ARTISTTRANSLIT:;
#GENRE:;
#CREDIT:;
#MUSIC:what i want (EURO MIX).ogg;
#BANNER:;
#BACKGROUND:;
#JACKET:;
#DISCIMAGE:;
#CDIMAGE:;
#SELECTABLE:YES;
#LYRICSPATH:;
#CDTITLE:;
#SAMPLESTART:38.413;
#SAMPLELENGTH:17.266000000000005;
#OFFSET:-0.427;
#BPMS:0.000000=139.000000;
#STOPS:;
#WARPS:;
#DELAYS:;
#SPEEDS:0.000000=1.000000=0.000000=0;
#SCROLLS:0.000000=1.000000;
#TICKCOUNTS:;
#TIMESIGNATURES:0.000000=4=4;
#LABELS:;
#COMBOS:;
#FAKES:;
#BGCHANGES:;
#FGCHANGES:;
#ATTACKS:;
#KEYSOUNDS:;

//---------------dance-single - ---------------
#NOTEDATA:;
#CHARTNAME:;
#CHARTSTYLE:;
#CREDIT:;
#STEPSTYPE:dance-single;
#DESCRIPTION:;
#DIFFICULTY:Beginner;
#METER:3;
#METERF:3;
#RADARVALUES:0,0,0,0,0;
#NOTES:
// measure 0
0000
0000
0000
0000
,  // measure 1
0000
0000
0000
0000
,  // measure 2
1001
0000
0000
0000
,  // measure 3
1000
1000
1000
1000
,  // measure 4
1001
0000
0000
0000
,  // measure 5
0220
0000
0330
0000
,  // measure 6
1000
1000
1000
0000
,  // measure 7
0001
0001
0001
0000
,  // measure 8
0010
0010
0010
0000
,  // measure 9
0100
0100
0100
0000
,  // measure 10
1000
1000
1000
0000
,  // measure 11
0001
0001
0001
0000
,  // measure 12
0100
0100
0100
0000
,  // measure 13
0110
0110
0110
0000
,  // measure 14
1000
0000
0010
0000
,  // measure 15
0100
0000
0010
0000
,  // measure 16
1000
0000
0001
0000
,  // measure 17
0010
0000
0100
0000
,  // measure 18
0010
0000
0001
0000
,  // measure 19
0100
0000
0010
0000
,  // measure 20
1000
0000
0001
0000
,  // measure 21
0110
0000
1001
0000
,  // measure 22
1000
1000
1000
0000
,  // measure 23
0001
0001
0001
0000
,  // measure 24
0010
0010
0010
0000
,  // measure 25
0100
0100
0100
0000
,  // measure 26
1000
1000
1000
0000
,  // measure 27
0001
0001
0001
0000
,  // measure 28
1001
0000
0000
1001
,  // measure 29
1001
0000
0000
0000
,  // measure 30
0110
0000
0000
0110
,  // measure 31
0110
0000
0000
0000
,  // measure 32
0100
0100
0100
0000
,  // measure 33
0001
0001
0001
0000
,  // measure 34
0010
0010
0010
0000
,  // measure 35
1000
1000
1000
0000
,  // measure 36
0010
0010
0010
0000
,  // measure 37
0110
0110
0110
0000
,  // measure 38
0100
0100
0100
0000
,  // measure 39
1001
1001
1001
0000
,  // measure 40
1000
1000
1000
0000
,  // measure 41
0001
0001
0001
0000
,  // measure 42
0010
0010
0010
0000
,  // measure 43
0001
0001
0001
0000
,  // measure 44
0100
0100
0100
0000
,  // measure 45
0010
0010
0010
0000
,  // measure 46
1000
1000
1000
0000
,  // measure 47
0001
0001
0001
0000
,  // measure 48
1001
0000
0000
0000
;

//---------------dance-single - ---------------
#NOTEDATA:;
#CHARTNAME:;
#CHARTSTYLE:;
#CREDIT:;
#STEPSTYPE:dance-single;
#DESCRIPTION:;
#DIFFICULTY:Easy;
#METER:6;
#METERF:6;
#RADARVALUES:0,0,0,0,0;
#NOTES:
// measure 0
0000
0000
0000
0000
,  // measure 1
0000
0000
0000
0000
,  // measure 2
1000
0100
0001
0100
,  // measure 3
0010
0001
0100
0010
,  // measure 4
1000
0100
0010
0001
,  // measure 5
0200
0001
0010
1000
,  // measure 6
0310
1000
0001
0010
,  // measure 7
0100
0010
0001
0010
,  // measure 8
0100
1000
0001
0100
,  // measure 9
0010
1000
0001
0010
,  // measure 10
0100
1000
0001
0100
,  // measure 11
0010
1000
0100
0010
,  // measure 12
0001
0100
1000
0100
,  // measure 13
0101
0101
1010
1010
,  // measure 14
1000
0100
0001
0100
,  // measure 15
1000
0010
0001
0010
,  // measure 16
1000
0010
0100
0001
,  // measure 17
0010
1000
0010
0001
,  // measure 18
0100
1000
0100
0001
,  // measure 19
0010
0100
1000
0001
,  // measure 20
0100
1000
0100
0010
,  // measure 21
1010
0101
0011
1100
,  // measure 22
1000
0010
0100
0010
,  // measure 23
1000
0001
0010
0100
,  // measure 24
1000
0010
0100
0010
,  // measure 25
1000
0100
0001
0100
,  // measure 26
1000
0001
0100
0010
,  // measure 27
1000
0001
0010
0100
,  // measure 28
2200
0000
3300
1100
,  // measure 29
0022
0000
0000
0033
,  // measure 30
0202
0000
0303
0101
,  // measure 31
2020
0000
0000
3030
,  // measure 32
1000
1000
1000
0100
,  // measure 33
0010
0010
0010
0001
,  // measure 34
0100
0100
0100
0010
,  // measure 35
1010
0010
0110
0100
,  // measure 36
0001
0001
0001
0010
,  // measure 37
0110
0110
0110
0100
,  // measure 38
1000
1000
1000
0010
,  // measure 39
1010
1010
1010
1000
,  // measure 40
0001
0010
0100
0010
,  // measure 41
0001
1000
0010
1000
,  // measure 42
0001
0100
1000
0100
,  // measure 43
0001
1000
0100
0010
,  // measure 44
0100
1000
0001
0100
,  // measure 45
0010
0100
0001
0010
,  // measure 46
1000
0010
0100
1000
,  // measure 47
0010
0100
0001
1000
,  // measure 48
1001
0000
0000
0000
;

//---------------dance-single - ---------------
#NOTEDATA:;
#CHARTNAME:;
#CHARTSTYLE:;
#CREDIT:;
#STEPSTYPE:dance-single;
#DESCRIPTION:;
#DIFFICULTY:Medium;
#METER:11;
#METERF:11;
#RADARVALUES:0,0,0,0,0;
#NOTES:
// measure 0
0000
0000
0000
0000
,  // measure 1
0000
0000
0000
0000
,  // measure 2
1000
0000
0100
0000
0010
0001
0100
0000
,  // measure 3
0001
0000
0100
0000
0010
1000
0100
0000
,  // measure 4
1000
0000
0010
0000
0100
0001
0010
0000
,  // measure 5
0200
1000
0001
0010
,  // measure 6
1300
1000
0000
1000
0002
0000
0103
0000
,  // measure 7
0100
0010
1000
0001
,  // measure 8
0010
0010
0000
0010
0200
0000
1300
0000
,  // measure 9
0001
0100
1000
0100
,  // measure 10
0001
0001
0000
0001
0020
0000
0130
0000
,  // measure 11
0100
1000
0010
0100
,  // measure 12
1000
1000
0000
0100
0002
0000
1003
0000
,  // measure 13
1001
0000
1100
0000
1001
0000
0011
0000
0000
0110
0000
0000
,  // measure 14
0100
0000
1000
0000
0001
0100
0010
0000
,  // measure 15
1000
0000
0010
0000
0100
0001
0010
0000
,  // measure 16
1000
0000
0010
0000
0100
1000
0001
0000
,  // measure 17
0100
1000
0100
0001
,  // measure 18
0010
0000
0100
0000
1000
0010
0100
0000
,  // measure 19
1000
0000
0100
0000
0010
1000
0001
0000
,  // measure 20
0010
0010
0100
0100
1000
0001
1000
0001
,  // measure 21
0100
1000
0100
0010
1000
0001
0010
0000
,  // measure 22
0010
0000
0001
0000
0100
0010
0100
0000
,  // measure 23
0001
0000
1000
0000
0100
1000
0100
0000
,  // measure 24
1000
0000
0010
0000
0100
0010
0100
0000
,  // measure 25
0001
0000
1000
0000
0100
1000
0100
0000
,  // measure 26
0010
0000
0001
0000
0100
0001
0100
0000
,  // measure 27
0010
0000
1000
0000
0100
1000
0100
0000
,  // measure 28
2100
0001
3100
1100
,  // measure 29
0012
0100
1000
0103
,  // measure 30
2010
0100
3001
1010
,  // measure 31
0102
1000
0010
0103
,  // measure 32
0001
0000
0000
0100
0000
0000
0010
0000
0000
0100
0000
0000
0001
0000
0000
0000
,  // measure 33
1000
0000
0000
0100
0000
0000
0010
0000
0000
0100
0000
0000
1000
0000
0000
0000
,  // measure 34
0001
0000
0000
0100
0000
0000
1000
0000
0000
0100
0000
0000
0001
0000
0000
0000
,  // measure 35
1100
0000
0000
0100
0000
0000
0101
0000
0000
0100
0000
0000
1100
0000
0000
0000
,  // measure 36
1000
0000
0000
0010
0000
0000
0001
0000
0000
0010
0000
0000
1000
0000
0000
0000
,  // measure 37
1010
0000
0000
1010
0000
0000
0101
0000
0000
0101
0000
0000
0001
0000
0000
0000
,  // measure 38
0010
0000
0000
0100
0000
0000
1000
0000
0000
0001
0000
0000
0010
0000
0000
0000
,  // measure 39
0011
0000
0000
0011
0000
0000
1100
0000
0000
1100
0000
0000
1001
0000
0000
0000
,  // measure 40
1000
0000
0010
0000
0100
0001
0010
0000
,  // measure 41
0001
0000
0100
0000
0010
1000
0001
0000
,  // measure 42
0010
0000
1000
0000
0010
0100
1000
0000
,  // measure 43
0001
0000
0100
0000
1000
0100
0010
0000
,  // measure 44
1000
0000
0001
0000
0010
0001
0100
0000
,  // measure 45
1000
0000
0100
0000
0010
1000
0001
0000
,  // measure 46
0010
0000
1000
0000
0010
0100
1000
0000
,  // measure 47
0001
0000
0100
0000
1000
0100
0001
0000
,  // measure 48
1001
0000
0000
0000
;

//---------------dance-single - ---------------
#NOTEDATA:;
#CHARTNAME:;
#CHARTSTYLE:;
#CREDIT:;
#STEPSTYPE:dance-single;
#DESCRIPTION:;
#DIFFICULTY:Hard;
#METER:14;
#METERF:14;
#RADARVALUES:0,0,0,0,0;
#NOTES:
// measure 0
0000
0000
0000
0000
,  // measure 1
0000
0000
0000
0000
,  // measure 2
1000
0100
0010
0100
1000
0100
0010
0100
,  // measure 3
1000
0001
0100
0001
1000
0001
0100
0001
,  // measure 4
1000
0100
0010
0001
0100
0010
1000
0002
,  // measure 5
0000
0000
0100
0000
1000
0000
0010
0000
0100
0000
0013
0000
,  // measure 6
0011
0010
0100
1000
1001
1000
0100
0010
,  // measure 7
0001
0100
0010
0000
1010
0000
0010
0000
0011
0000
0010
0000
0110
0000
0100
0000
,  // measure 8
0101
0001
1000
0100
0110
0010
0011
0010
,  // measure 9
0001
0100
0010
0000
1000
0100
0010
0000
0010
0100
1000
0000
0010
0100
0001
0000
,  // measure 10
0101
1001
1000
0100
0110
0010
0011
0010
,  // measure 11
0100
1000
0001
0000
0100
0010
1000
0000
0001
0010
0100
0000
1000
0001
0100
0000
,  // measure 12
0101
0110
0010
1000
1010
1001
0101
1001
,  // measure 13
1100
0000
0101
0000
1100
0000
1001
0000
0000
0110
0000
0000
,  // measure 14
1000
0000
0100
0000
0010
0000
0100
2000
0000
0000
3001
0000
0100
0000
0010
0200
,  // measure 15
0000
0020
0000
0000
0000
0000
0330
0000
,  // measure 16
0100
0010
1000
0010
0100
0001
0010
0100
,  // measure 17
1100
0000
0100
1000
0001
0000
0100
0000
0101
0000
0100
0010
1000
0000
1010
0000
,  // measure 18
1000
0000
0001
0000
0010
0000
0001
0200
0000
0000
1300
0000
0100
0000
0010
2000
,  // measure 19
0000
0002
0000
0000
0000
0000
3003
0000
,  // measure 20
1000
0100
0001
0100
1000
0010
0002
0013
,  // measure 21
1010
0010
0110
0100
0101
0001
1001
0000
,  // measure 22
1100
0000
0100
1000
0010
0000
0100
0000
0110
0000
0010
0000
1010
0000
1000
0000
,  // measure 23
1000
0100
0010
0000
0110
0000
0010
0000
0011
0000
0001
0000
0101
0000
0100
0000
,  // measure 24
0110
0000
0010
0100
0001
0000
1001
0000
0011
0000
0001
0000
0101
0000
0001
0000
,  // measure 25
0001
0100
0010
1000
0010
0100
0001
1000
0100
0010
0001
0010
0100
1000
0001
0100
,  // measure 26
0101
0000
0100
0001
1000
0000
0100
0000
1100
0000
0100
0000
0110
0000
0010
0000
,  // measure 27
0001
0010
0100
0000
1100
0000
1000
0000
1001
0000
0001
0000
0101
0000
0100
0000
,  // measure 28
0201
0000
0000
0001
0000
0000
0001
0000
0000
0301
0000
0000
0101
0000
0001
0000
,  // measure 29
2001
0000
0000
0001
0000
0000
0001
0000
0000
0001
0000
3000
1001
0000
1000
0000
,  // measure 30
2100
0000
0000
0100
0000
0000
0100
0000
0000
3100
0000
0000
1100
0000
0100
0000
,  // measure 31
0120
0000
0000
0100
0000
0000
0100
0000
0000
0130
0000
0000
0110
0000
0100
0000
,  // measure 32
1000
0000
0000
0001
0000
0000
0100
0000
0000
0010
0000
0000
1000
0000
1000
0010
,  // measure 33
0100
0000
0000
0001
0000
0000
0010
0000
0000
0100
0000
0000
1000
0000
0001
0000
,  // measure 34
0100
0000
0000
0010
0000
0000
1000
0000
0000
0010
0000
0000
0100
0000
0001
0100
,  // measure 35
0101
0000
0000
0001
0000
0000
1001
0000
0000
1000
0000
0000
1100
0000
1000
0000
,  // measure 36
0010
0000
0000
0100
0000
0000
1000
0000
0000
0100
0000
0000
0001
0000
1000
0000
,  // measure 37
1001
0000
0000
0110
0000
0000
1001
0000
0000
0110
0000
0000
1010
0000
0101
0000
,  // measure 38
0100
0000
0000
0001
0000
0000
0010
0000
0000
0100
0000
0000
1000
0000
0001
0000
,  // measure 39
0101
0000
0000
1010
0000
0000
1100
0000
0000
0011
0000
0000
1001
0000
1000
0000
,  // measure 40
0010
0010
1000
1000
0001
0001
0010
0010
,  // measure 41
1000
1000
0010
0010
0100
0100
1000
1000
,  // measure 42
0001
0001
0100
0100
1000
1000
0100
0100
,  // measure 43
0010
0010
1000
1000
0001
0001
0010
0010
,  // measure 44
0100
0100
1000
1000
0001
0001
0010
0010
,  // measure 45
1000
1000
0010
0010
0100
0100
1000
1000
,  // measure 46
0001
0001
0100
0100
1000
1000
0100
0100
,  // measure 47
0010
0010
1000
1000
0001
0001
0010
0010
,  // measure 48
0110
0000
0000
0000
;
