#TITLE:true...(Trance Sunrise Mix);
#SUBTITLE:(D.U.S Special);
#ARTIST:Riyu Kosaka;
#MUSIC:true...(Trance Sunrise Mix) (D.U.S Special).ogg;
#BANNER:true...(Trace Sunrise Mix) (D.U.S Special).png;
#BACKGROUND:true...(Trace Sunrise Mix) (D.U.S Special)-bg.png;
#LYRICSPATH:;
#CDTITLE:;
#SAMPLESTART:57.857;
#SAMPLELENGTH:15.857;
#BPMS:0.000000=140.000000;
#STOPS:;
#TIMESIGNATURES:0.000000=4=4;
#BGCHANGES:;
#FGCHANGES:;
#ATTACKS:;
#SPEEDS:0.000000=1.000000=0.000000=0;
#SCROLLS:0.000000=1.000000;
#KEYSOUNDS:;

//---------------dance-single - ---------------
#NOTES:
     dance-single:
     :
     Challenge:
     17:
     0,0,0,0,0:
// measure 0
0000
0000
0000
0000
,  // measure 1
0000
0000
0000
0000
,  // measure 2
0000
0000
0000
0000
,  // measure 3
0000
0000
0000
0000
,  // measure 4
0000
0000
0000
0000
,  // measure 5
2000
3000
2000
3000
2000
3000
2000
3000
,  // measure 6
2000
0000
3000
0000
1010
0000
1000
0010
0100
0000
0001
0000
0010
0000
0100
0010
,  // measure 7
0002
1000
0103
2000
3001
0002
0023
0230
,  // measure 8
1300
0000
1000
0010
0100
0000
0100
0001
0010
0000
0100
0000
1100
0000
0001
0000
,  // measure 9
0101
0000
0001
0010
0100
0000
0100
1000
0010
0100
0010
1000
0001
0010
0100
0010
,  // measure 10
0002
0000
0003
0000
0011
0000
0001
0010
0100
0000
1000
0000
0001
0000
0100
0010
,  // measure 11
2000
0001
3010
0020
2030
3002
0023
0230
,  // measure 12
1300
0000
1000
0010
0100
0000
0100
0001
0010
0000
0010
0001
1000
0000
0010
0000
,  // measure 13
1000
0000
0100
0010
0001
0000
0100
0010
1000
0000
0001
0010
0100
0000
1000
0000
,  // measure 14
1001
0000
0000
1000
0100
0000
0010
0000
0100
0000
1000
0000
0001
0000
0100
0000
,  // measure 15
0101
0000
0000
0001
0100
0000
0010
0000
0100
0000
0001
0000
0010
0000
0100
0000
,  // measure 16
0110
0000
0000
0010
0100
0000
1000
0000
0010
0000
0100
0000
0001
0000
1000
0000
,  // measure 17
1001
0000
0000
0001
1000
0000
1000
0100
0020
0000
0032
0000
2003
0000
3010
0100
,  // measure 18
0002
0000
1003
0001
0010
0000
0010
0001
1000
0000
0010
0100
0001
0000
0010
0100
,  // measure 19
2000
0000
3001
1000
0010
0000
0100
0010
1000
0000
0001
0010
0100
0000
1000
0010
,  // measure 20
0200
0000
0301
1000
0010
0000
0100
0010
1000
0000
0100
0010
0001
0000
0100
0010
,  // measure 21
2000
3000
1000
0010
0100
0000
1000
0100
0001
0000
0010
0100
1000
0000
0001
0100
,  // measure 22
0020
0030
0010
1000
0100
0000
0100
0010
0001
0000
0001
1000
0010
0000
0010
0100
,  // measure 23
0002
0003
0001
0010
0100
0000
1200
0000
0310
0000
0011
0000
1100
0000
1010
0000
,  // measure 24
0110
0101
0110
1010
1100
0110
0011
0110
,  // measure 25
1100
0000
1001
0000
0101
0000
1001
0000
0001
1000
0010
0100
0010
1000
0001
0010
,  // measure 26
0100
0000
1000
0000
1100
0000
1000
0000
0001
0000
0100
0000
0101
0000
0100
0001
,  // measure 27
1000
0000
0010
0000
0110
0000
0010
0000
1000
0000
0001
0000
0011
0000
0001
0010
,  // measure 28
0100
0000
1000
0000
1001
0000
0001
0000
0100
0000
0010
0000
1010
0000
1000
0010
,  // measure 29
0100
0000
1000
0000
1100
0000
0100
0000
0001
0000
0010
0000
0011
0000
0001
0010
,  // measure 30
0100
0000
0100
1000
0010
0000
0210
0000
0001
0000
1000
0000
0310
0000
0100
0001
,  // measure 31
1000
0000
0100
1000
0010
0000
0120
0000
1000
0000
0001
0000
0100
0000
1030
0000
,  // measure 32
0001
0010
0100
0010
0001
1000
0010
0100
,  // measure 33
0010
1000
0001
0010
0100
1000
0010
0100
1000
0100
0001
0010
0100
1000
0010
0100
,  // measure 34
0202
0303
0000
0000
0001
0000
0100
0000
0002
0003
0000
0000
0010
0000
0001
0000
0020
0030
0000
0000
0100
0000
0010
0000
0200
0300
0000
0000
1000
0000
0100
0000
,  // measure 35
2000
3000
0000
0000
0010
0000
0100
0000
0020
0030
0000
0000
0100
0000
0001
0000
0200
0300
0000
0000
0010
0000
1000
0000
0020
0030
0000
0000
1000
0000
0100
0000
,  // measure 36
2000
3000
0000
0000
0001
0000
0100
0000
0002
0003
0000
0000
1000
0000
0010
0000
2000
3000
0000
0000
0001
0000
0100
0000
0002
0003
0000
0000
1000
0000
0010
0000
,  // measure 37
0200
0300
0000
0000
0002
0003
0010
0000
0200
0300
0000
0000
0200
0300
0010
0000
0001
0000
0000
0000
0200
0300
0010
0000
2000
3000
0000
0000
0002
0003
0010
0000
,  // measure 38
0200
0300
0000
0000
1000
0000
0001
0000
0020
0030
0000
0000
0001
0000
1000
0000
0020
0030
0000
0000
0100
0000
0010
0000
2000
3000
0000
0000
0001
0000
0010
0000
,  // measure 39
0200
0300
0000
0000
1000
0000
0001
0000
0200
0300
0000
0000
1000
0000
0100
0000
0002
0003
0000
0000
0010
0000
0100
0000
2000
3000
0000
0000
0010
0000
0100
0000
,  // measure 40
0020
0030
0000
0000
2000
3000
0002
0003
0020
0030
0000
0000
0002
0003
2000
3000
0020
0030
0000
0000
0200
0300
0001
0000
0020
0030
0000
0000
0200
0300
1000
0000
,  // measure 41
0020
0030
0000
0000
0010
0000
0200
0300
0000
0000
0100
0000
0002
0003
0000
0000
0001
0000
0010
0000
0100
0000
0000
0000
0100
0000
1000
0000
0001
0000
0100
0000
,  // measure 42
0020
0030
0000
0000
1000
0000
0010
0000
0200
0300
0000
0000
0001
0000
0010
0000
0200
0300
0000
0000
1000
0000
0001
0000
0020
0030
0000
0000
0001
0000
1000
0000
,  // measure 43
0020
0030
0000
0000
0100
0000
0010
0000
2000
3000
0000
0000
0001
0000
0010
0000
0200
0300
0000
0000
1000
0000
0010
0000
0200
0300
0000
0000
1000
0000
0100
0000
,  // measure 44
0020
0030
0000
0000
1000
0000
0001
0000
0020
0030
0000
0000
0100
0000
0010
0000
0002
0003
0000
0000
0100
0000
0010
0000
2000
3000
0000
0000
0100
0000
0010
0000
,  // measure 45
2000
3000
0000
0000
0010
0000
0001
0000
0200
0300
0000
0000
1000
0000
0100
0000
0020
0030
0000
0000
1000
0000
0010
0000
0200
0300
0000
0000
0001
0000
0010
0000
,  // measure 46
0200
0300
0000
0000
1000
0000
0010
0000
0200
0300
0000
0000
1000
0000
0100
0000
0002
0003
0000
0000
0010
0000
0100
0000
2000
3000
0000
0000
0001
0000
0100
0000
,  // measure 47
0020
0030
0000
0000
0100
0000
0001
0000
0020
0030
0000
0000
0100
0000
1000
0000
0020
0030
0000
0000
0100
0000
1000
0000
0002
0003
0000
0000
0010
0000
0100
0000
,  // measure 48
0002
0003
0000
0000
0020
0030
0200
0300
2000
3000
0000
0000
0002
0003
0200
0300
0020
0030
0000
0000
0020
0030
2000
3000
0002
0003
0000
0000
0020
0030
0200
0300
,  // measure 49
2000
3000
0002
0003
2000
3000
0002
0003
0020
0030
0002
0003
0020
0030
0002
0003
0200
0300
0020
0030
2000
3000
0002
0003
0020
0030
0200
0300
2000
3000
0002
0003
,  // measure 50
2002
0000
0000
0003
,  // measure 51
0020
0000
0000
3000
,  // measure 52
0200
0000
0000
0030
,  // measure 53
0002
0000
0000
0300
,  // measure 54
1003
0000
0000
1000
0000
0000
2000
0000
0000
0000
0000
0000
0000
0000
0000
0000
,  // measure 55
0001
0000
0000
0001
0000
0000
0002
0000
0000
0000
0000
0000
0000
0000
0000
0000
,  // measure 56
3003
0000
0000
0000
;

//---------------dance-double - ---------------
#NOTES:
     dance-double:
     :
     Challenge:
     18:
     0,0,0,0,0:
// measure 0
00000000
00000000
00000000
00000000
,  // measure 1
00000000
00000000
00000000
00000000
,  // measure 2
00000000
00000000
00000000
00000000
,  // measure 3
00000000
00000000
00000000
00000000
,  // measure 4
00000000
00000000
00000000
00000000
,  // measure 5
20000000
30000000
00020000
00030000
00002000
00003000
00000002
00000003
,  // measure 6
00002002
00000000
00003003
00000000
00001100
00000000
00001000
00000010
00000100
00000000
00000001
00000000
00000010
00000000
00000100
00001000
,  // measure 7
00000002
00000000
00000103
00000010
00001000
00000000
00001010
00000000
00000101
00000000
00000011
00000000
00001100
00000000
00001010
00000000
,  // measure 8
00011000
00000000
00001000
00010000
00000100
00000000
00010000
00001000
00100000
00000000
00010000
00100000
01000000
00000000
21000000
00000000
,  // measure 9
30100000
00000000
01020000
00000000
00130000
00000000
00010000
00100000
01000000
00000000
11000000
00000000
10000000
00100000
01000000
00100000
,  // measure 10
20000000
30000000
10000000
00010000
00100000
00000000
01000000
00100000
00010000
00000000
01000000
00100000
20000000
00000000
31000000
00100000
,  // measure 11
00010000
00000000
01000000
00001000
00010000
00000000
00010000
00000010
00000100
00000000
00000101
00000000
00000011
00000000
00000110
00000000
,  // measure 12
00002100
00003010
00000102
00000013
00000201
00000310
00001020
00000130
,  // measure 13
00000100
00000001
00000010
00000100
00001000
00000000
00001010
00000000
00000010
00001000
00000100
00010000
00001000
00100000
00010000
01000000
,  // measure 14
01100000
00000000
01000000
00100000
10000000
00000000
20100000
00000000
31000000
00000000
00120000
00000000
01030000
00000000
10010000
00000000
,  // measure 15
01010000
00000000
00010000
01000000
00100000
00000000
10200000
00000000
00310000
00000000
00210000
00000000
10300000
00000000
10010000
00000000
,  // measure 16
01010000
00000000
01000000
00001000
00010000
00000000
00020010
00000000
00031000
00000000
01002000
00000000
00013000
00000000
00011000
00000000
,  // measure 17
00001100
00000000
00000100
00001000
00000010
00000000
00000100
00000001
00000010
00001000
00000010
00000001
00000100
00001000
00000100
00000001
,  // measure 18
00001001
00000000
00000001
00001000
00000100
00000000
00000100
00001000
00000010
00000000
00000010
00000100
00000001
00000000
00000001
00001000
,  // measure 19
00000200
00001000
00000310
00000020
00000032
00000203
00002300
00003200
,  // measure 20
00000301
00000000
00000001
00001000
00000100
00000000
00000100
00010000
00001000
00000000
00001000
00100000
01000000
00000000
02100000
00000000
,  // measure 21
13000000
00000000
21000000
00000000
30010000
00000000
01020000
00000000
00130000
00000000
00110000
00000000
00100000
01000000
10000000
00010000
,  // measure 22
01000000
00000000
00100000
01000000
00010000
00000000
00100000
01000000
10000000
00000000
00010000
01000000
00100000
00000000
10000000
00010000
,  // measure 23
00200000
00000000
02300000
00000000
23000000
30000000
20010000
00000000
31000000
00000000
10010000
00000000
00110000
00000000
01100000
00000000
,  // measure 24
11000000
10010000
01010000
00110000
00011000
00001100
00000101
00001100
,  // measure 25
00001010
00000000
00000101
00000000
00000011
00000000
00001100
00000000
00000001
00000000
00001001
00000000
00000001
00001000
00000010
00000100
,  // measure 26
00000001
00000000
00000010
00000100
00001000
00000000
00000010
00000100
00000001
00000000
00000010
00000100
00001000
00000000
00000010
00000100
,  // measure 27
00001000
00000000
00000100
00000001
00000010
00000000
00001000
00010000
00100000
00000000
01000000
00010000
00100000
00000000
01000000
10000000
,  // measure 28
00010000
00000000
01000000
00100000
10000000
00000000
00010000
00100000
01000000
00000000
10000000
00010000
01000000
00000000
10000000
01000000
,  // measure 29
00100000
00000000
10000000
00010000
00100000
00000000
01000000
10000000
00010000
00000000
10010000
00000000
10000000
00001000
00010000
00000100
,  // measure 30
00001000
00000000
00000001
00000100
00001000
00000000
00000100
00000010
00001000
00000000
00000001
00000010
00001000
00000000
00000010
00000100
,  // measure 31
00001000
00000000
00000001
00000010
00000100
00000000
00000100
00001000
00000001
00000000
00000001
00000100
00000010
00000000
00000010
00001000
,  // measure 32
00000200
00020300
00032000
00203000
02300000
23000000
30020000
02030000
,  // measure 33
03100000
01000000
00010000
10000000
01000000
00010000
01000000
10000000
00100000
01000000
10000000
01000000
00010000
00100000
01000000
00100000
,  // measure 34
00020000
00030000
00000000
00000000
00010000
00000000
10000000
00000000
00020000
00030000
00000000
00000000
00100000
00000000
01000000
00000000
00200000
00300000
00000000
00000000
01000000
00000000
10000000
00000000
02000000
03000000
00000000
00000000
10000000
00000000
00010000
00000000
,  // measure 35
02000000
03000000
00000000
00000000
00100000
00000000
01000000
00000000
00020000
00030000
00000000
00000000
00100000
00000000
01000000
00000000
20000000
30000000
00000000
00000000
00010000
00000000
01000000
00000000
20000000
30000000
00000000
00000000
01000000
00000000
00010000
00000000
,  // measure 36
20000000
30000000
00000000
00000000
00010000
00000000
00100000
00000000
02000000
03000000
00000000
00000000
10000000
00000000
00010000
00000000
02000000
03000000
00000000
00000000
00001000
00000000
00010000
00000000
00000200
00000300
00000000
00000000
00000100
00000000
00001000
00000000
,  // measure 37
00000020
00000030
00000000
00000000
00000100
00000000
00000001
00000000
00000020
00000030
00000000
00000000
00000100
00000000
00001000
00000000
00000002
00000003
00000000
00000000
00000200
00000300
00001000
00000000
00000002
00000003
00000000
00000000
00000010
00000000
00001000
00000000
,  // measure 38
00000002
00000003
00000000
00000000
00000010
00000000
00000100
00000000
00002000
00003000
00000000
00000000
00000001
00000000
00000100
00000000
00000020
00000030
00000000
00000000
00001000
00000000
00000100
00000000
00000002
00000003
00000000
00000000
00000100
00000000
00001000
00000000
,  // measure 39
00000020
00000030
00000000
00000000
00000100
00000000
00000001
00000000
00002000
00003000
00000000
00000000
00000100
00000000
00000000
00000000
00022000
00033000
00000000
00000000
00001000
00000000
00100000
00000000
00020000
00030000
00000000
00000000
00200000
00300000
00000000
00000000
,  // measure 40
02200000
03300000
00000000
00000000
00200000
00300000
01000000
00000000
20000000
30000000
00000000
00000000
00020000
00030000
00000000
00000000
02020000
03030000
00000000
00000000
20200000
30300000
00000000
00000000
22000000
33000000
00000000
00000000
00220000
00330000
00000000
00000000
,  // measure 41
02020000
03030000
00000000
00000000
00010000
00000000
02000000
03000000
00000000
00000000
01000000
00000000
00200000
00300000
00000000
00000000
00200000
00300000
10000000
00000000
00020000
00030000
00100000
00000000
02000000
03000000
10000000
00000000
00020000
00030000
01000000
00000000
,  // measure 42
00200000
00300000
00000000
00000000
00100000
00000000
20000000
30000000
00010000
00000000
00000000
00000000
00200000
00300000
00001000
00000000
00010000
00000000
00000000
00000000
00000200
00000300
00001000
00000000
00000002
00000003
00000000
00000000
00000200
00000300
00000010
00000000
,  // measure 43
00002000
00003000
00000000
00000000
00000001
00000000
00000020
00000030
00000100
00000000
00000000
00000000
00002000
00003000
00000001
00000000
00000200
00000300
00000000
00000000
00002000
00003000
00000100
00000000
00000020
00000030
00000000
00000000
00002000
00003000
00000001
00000000
,  // measure 44
00000020
00000030
00000000
00000000
00000100
00000000
00001000
00000000
00000020
00000030
00000000
00000000
00020000
00030000
00001000
00000000
02000000
03000000
00000000
00000000
00100000
00000000
01000000
00000000
00020000
00030000
00000000
00000000
00200000
00300000
01000000
00000000
,  // measure 45
20000000
30000000
00000000
00000000
00200000
00300000
01000000
00000000
00020000
00030000
00000000
00000000
00200000
00300000
00001000
00000000
00010000
00000000
00000000
00000000
00000200
00000300
00001000
00000000
00000010
00000000
00000000
00000000
00000200
00000300
00000001
00000000
,  // measure 46
00000020
00000030
00000000
00000000
00000010
00000000
00000100
00000000
00002000
00003000
00000000
00000000
00000001
00000000
00000100
00000000
00000020
00000030
00000000
00000000
00002000
00003000
00000100
00000000
00000002
00000003
00000000
00000000
00000200
00000300
00001000
00000000
,  // measure 47
00000020
00000030
00000000
00000000
00000010
00000000
00000100
00000000
00001000
00000000
00000000
00000000
00000200
00000300
00000010
00000000
00002000
00003000
00000000
00000000
00000200
00000300
00001000
00000000
00000020
00000030
00000000
00000000
00000200
00000300
00000002
00000003
,  // measure 48
00000020
00000030
00000000
00000000
00000020
00000030
00000100
00000000
00002000
00003000
00000000
00000000
00002000
00003000
00000200
00000300
00020000
00030000
00000000
00000000
00002000
00003000
00010000
00000000
00002000
00003000
00100000
00000000
02000000
03000000
10000000
00000000
,  // measure 49
00020000
00030000
02000000
03000000
00200000
00300000
20000000
30000000
00020000
00030000
00200000
00300000
00002000
00003000
00000020
00000030
00002000
00003000
00020000
00030000
00000200
00000300
00002000
00003000
00000020
00000030
00000200
00000300
00000002
00000003
00002000
00003000
,  // measure 50
00002002
00000000
00000000
00003000
,  // measure 51
00020000
00000000
00000000
00000003
,  // measure 52
00002000
00000000
00000000
00030000
,  // measure 53
20000000
00000000
00000000
00003000
,  // measure 54
30010000
00000000
00000000
00010000
00000000
00000000
00020000
00000000
00000000
00000000
00000000
00000000
00000000
00000000
00000000
00000000
,  // measure 55
00001000
00000000
00000000
00001000
00000000
00000000
00002000
00000000
00000000
00000000
00000000
00000000
00000000
00000000
00000000
00000000
,  // measure 56
00033000
00000000
00000000
00000000
;
